osu file format v12

[General]
AudioFilename: Drewsif Stalin - Dark Horse (Katy Perry Cover).mp3
AudioLeadIn: 0
PreviewTime: 14435
Countdown: 0
SampleSet: Soft
StackLeniency: 0.7
Mode: 0
LetterboxInBreaks: 1
WidescreenStoryboard: 0

[Editor]
DistanceSpacing: 0.8
BeatDivisor: 8
GridSize: 8
TimelineZoom: 1

[Metadata]
Title:Dark Horse
TitleUnicode:Dark Horse
Artist:Drewsif Stalin
ArtistUnicode:Drewsif Stalin
Creator:Neroh
Version:Insane
Source:
Tags:
BeatmapID:383624
BeatmapSetID:156586

[Difficulty]
HPDrainRate:6
CircleSize:4
OverallDifficulty:5
ApproachRate:9
SliderMultiplier:1.6
SliderTickRate:3

[Events]
//Background and Video events
0,0,"darkhorseosusize.jpg",0,0
//Break Periods
//Storyboard Layer 0 (Background)
//Storyboard Layer 1 (Fail)
//Storyboard Layer 2 (Pass)
//Storyboard Layer 3 (Foreground)
//Storyboard Sound Samples
//Background Colour Transformations
3,100,163,162,255

[TimingPoints]
14900,454.545454545455,4,2,1,70,1,0

[HitObjects]
440,232,14900,5,0,0:0:0:0:
96,64,15354,1,0,0:0:0:0:
147,322,15695,1,0,0:0:0:0:
192,304,15809,2,0,P|252:262|276:201,1,140
279,162,16320,1,0,0:0:0:0:
268,115,16490,1,0,0:0:0:0:
88,192,16945,5,0,0:0:0:0:
127,219,17172,1,0,0:0:0:0:
400,64,17627,1,0,0:0:0:0:
96,304,18081,1,0,0:0:0:0:
120,64,18479,6,0,L|152:64,1,20
216,208,18820,1,0,0:0:0:0:
320,32,19104,1,0,0:0:0:0:
424,128,19445,2,0,P|424:208|384:256,1,140
248,360,20126,1,0,0:0:0:0:
136,88,20354,1,0,0:0:0:0:
400,232,20695,2,0,P|400:192|378:173,1,60
128,280,21149,1,0,0:0:0:0:
160,256,21263,2,0,L|296:144,1,160
384,296,22058,5,0,0:0:0:0:
352,320,22172,1,0,0:0:0:0:
128,88,22626,1,0,0:0:0:0:
344,154,22967,1,0,0:0:0:0:
324,190,23081,2,0,P|232:234|177:198,1,160
424,56,23763,1,0,0:0:0:0:
208,312,24217,5,0,0:0:0:0:
96,96,24444,1,0,0:0:0:0:
328,128,24785,1,0,0:0:0:0:
304,96,24899,1,0,0:0:0:0:
96,264,25353,1,0,0:0:0:0:
392,288,25694,1,0,0:0:0:0:
424,256,25808,1,0,0:0:0:0:
176,152,26035,5,0,0:0:0:0:
448,48,26376,1,0,0:0:0:0:
184,336,26717,2,0,L|272:232,1,120
400,80,27399,1,0,0:0:0:0:
128,224,27626,1,0,0:0:0:0:
408,184,28024,2,0,L|392:232,1,40
384,288,28421,1,0,0:0:0:0:
344,312,28535,2,0,L|184:336,1,160
139,192,29330,5,0,0:0:0:0:
168,160,29444,2,0,L|297:128,1,120
64,80,30126,1,0,0:0:0:0:
384,48,30353,2,0,P|444:68|423:154,1,160
272,304,31262,1,0,0:0:0:0:
376,232,31489,1,0,0:0:0:0:
352,200,31603,1,0,0:0:0:0:
174,126,31830,5,0,0:0:0:0:
135,155,31944,1,0,0:0:0:0:
122,204,32057,1,0,0:0:0:0:
144,248,32171,2,0,L|244:336,1,120
88,56,32853,1,0,0:0:0:0:
328,248,33080,5,0,0:0:0:0:
80,336,33421,1,0,0:0:0:0:
304,144,33762,2,0,P|353:114|389:113,1,80
16,80,34330,1,0,0:0:0:0:
496,272,34671,1,0,0:0:0:0:
96,264,34955,1,0,0:0:0:0:
456,104,35296,2,0,P|413:74|401:19,1,100
320,328,35864,1,0,0:0:0:0:
88,144,36148,2,0,P|127:95|142:31,1,120
144,320,36716,5,0,0:0:0:0:
320,32,37171,1,0,0:0:0:0:
96,152,37570,1,0,0:0:0:0:
112,192,37682,2,0,P|164:257|207:263,1,120
238,257,38137,1,0,0:0:0:0:
96,16,38364,1,0,0:0:0:0:
400,168,38818,5,0,0:0:0:0:
168,368,38989,1,0,0:0:0:0:
272,64,39386,2,0,L|288:48,1,20
344,320,39898,1,0,0:0:0:0:
160,208,40239,1,0,0:0:0:0:
126,229,40352,1,0,0:0:0:0:
424,160,40580,2,0,P|384:96|384:40,1,120
184,88,41318,2,0,L|104:152,1,100
328,48,41943,5,0,0:0:0:0:
352,304,42170,1,0,0:0:0:0:
56,208,42511,2,0,L|64:184,1,20
368,48,42966,1,0,0:0:0:0:
352,86,43079,1,0,0:0:0:0:
361,126,43193,1,0,0:0:0:0:
384,160,43307,1,0,0:0:0:0:
418,180,43420,1,0,0:0:0:0:
461,179,43534,1,0,0:0:0:0:
235,211,43932,5,0,0:0:0:0:
256,256,44045,2,0,L|362:299,1,100
389,310,44443,1,0,0:0:0:0:
226,68,44672,1,0,0:0:0:0:
186,44,44786,1,0,0:0:0:0:
144,48,44900,2,0,P|79:80|47:135,1,120
456,64,45579,1,0,0:0:0:0:
304,184,45807,2,0,L|376:48,1,140
328,344,46545,1,0,0:0:0:0:
64,64,46716,5,0,0:0:0:0:
272,168,47000,2,0,L|320:192,1,40
264,40,47397,1,0,0:0:0:0:
480,224,47627,2,0,L|384:312,1,120
208,152,48309,1,0,0:0:0:0:
232,120,48422,1,0,0:0:0:0:
264,96,48536,2,0,P|320:64|392:64,1,120
288,320,49218,1,0,0:0:0:0:
256,280,49332,1,0,0:0:0:0:
216,264,49445,2,0,P|160:296|96:280,1,120
448,160,50127,5,0,0:0:0:0:
416,128,50241,1,0,0:0:0:0:
376,96,50354,1,0,0:0:0:0:
336,72,50468,1,0,0:0:0:0:
288,56,50581,1,0,0:0:0:0:
232,56,50695,1,0,0:0:0:0:
176,72,50809,1,0,0:0:0:0:
136,120,50922,1,0,0:0:0:0:
136,184,51036,1,0,0:0:0:0:
168,232,51150,1,0,0:0:0:0:
224,256,51263,2,0,P|283:251|313:195,1,120
424,328,51945,5,0,0:0:0:0:
416,288,52059,1,0,0:0:0:0:
408,248,52172,2,0,L|360:120,1,120
96,64,52854,1,0,0:0:0:0:
472,168,53081,1,0,0:0:0:0:
224,280,53422,1,0,0:0:0:0:
200,248,53536,1,0,0:0:0:0:
352,368,53763,1,0,0:0:0:0:
320,48,53990,1,0,0:0:0:0:
408,96,54218,1,0,0:0:0:0:
400,128,54331,2,0,L|360:248,1,120
112,80,54900,5,0,0:0:0:0:
200,168,55127,1,0,0:0:0:0:
200,216,55240,1,0,0:0:0:0:
168,256,55354,1,0,0:0:0:0:
120,264,55468,1,0,0:0:0:0:
352,336,55809,1,0,0:0:0:0:
432,152,56036,1,0,0:0:0:0:
424,104,56150,1,0,0:0:0:0:
384,72,56263,1,0,0:0:0:0:
336,56,56377,1,0,0:0:0:0:
256,40,56718,5,0,0:0:0:0:
256,120,56945,1,0,0:0:0:0:
232,152,57059,1,0,0:0:0:0:
272,176,57172,1,0,0:0:0:0:
232,200,57286,1,0,0:0:0:0:
272,216,57400,1,0,0:0:0:0:
232,248,57513,1,0,0:0:0:0:
272,264,57627,1,0,0:0:0:0:
232,288,57740,1,0,0:0:0:0:
272,304,57854,1,0,0:0:0:0:
304,336,57968,5,0,0:0:0:0:
352,352,58081,1,0,0:0:0:0:
400,344,58195,1,0,0:0:0:0:
440,312,58309,1,0,0:0:0:0:
448,264,58422,1,0,0:0:0:0:
448,216,58536,1,0,0:0:0:0:
80,80,58877,5,0,0:0:0:0:
304,72,59218,2,0,L|320:96,1,20
328,312,59445,2,0,P|269:333|205:315,1,120
472,128,60127,1,0,0:0:0:0:
224,176,60354,2,0,P|190:123|195:57,1,120
416,352,61036,1,0,0:0:0:0:
168,304,61263,2,0,P|116:268|48:272,1,120
376,80,61945,1,0,0:0:0:0:
104,88,62172,5,0,0:0:0:0:
400,216,62513,1,0,0:0:0:0:
168,160,62911,1,0,0:0:0:0:
184,120,63025,1,0,0:0:0:0:
208,88,63138,2,0,P|254:53|312:57,1,100
300,266,63763,5,0,0:0:0:0:
316,303,63877,1,0,0:0:0:0:
352,328,64047,2,0,P|409:329|455:294,1,100
168,312,64672,1,0,0:0:0:0:
128,272,64786,1,0,0:0:0:0:
112,224,64900,1,0,0:0:0:0:
120,176,65013,1,0,0:0:0:0:
152,128,65127,1,0,0:0:0:0:
200,96,65240,1,0,0:0:0:0:
256,80,65354,1,0,0:0:0:0:
312,96,65468,1,0,0:0:0:0:
360,128,65581,1,0,0:0:0:0:
384,176,65695,1,0,0:0:0:0:
392,224,65809,2,0,P|376:288|320:328,1,120
158,117,66490,5,0,0:0:0:0:
171,163,66604,1,0,0:0:0:0:
184,208,66775,2,0,L|219:320,1,100
32,40,67400,1,0,0:0:0:0:
288,144,67627,2,0,P|352:144|392:104,1,120
64,160,68309,1,0,0:0:0:0:
264,320,68536,1,0,0:0:0:0:
168,160,68934,1,0,0:0:0:0:
504,48,69275,1,0,0:0:0:0:
384,72,69502,6,0,L|312:160,1,100
96,288,70127,1,0,0:0:0:0:
128,320,70241,1,0,0:0:0:0:
56,128,70411,1,0,0:0:0:0:
456,208,70695,1,0,0:0:0:0:
256,72,71036,5,0,0:0:0:0:
256,112,71150,1,0,0:0:0:0:
256,144,71263,1,0,0:0:0:0:
256,192,71377,12,0,73081,0:0:0:0:
