osu file format v9

[General]
AudioFilename: Dreamy crown-eternal promise.mp3
AudioLeadIn: 0
PreviewTime: 82094
Countdown: 0
SampleSet: Soft
StackLeniency: 0.4
Mode: 0
LetterboxInBreaks: 1

[Editor]
DistanceSpacing: 0.7
BeatDivisor: 4
GridSize: 8

[Metadata]
Title:eternal promise
Artist:Dreamy crown
Creator:kanpakyin
Version:Normal
Source:Endless Summer, Eternal Rhythm
Tags:

[Difficulty]
HPDrainRate:4
CircleSize:4
OverallDifficulty:3
ApproachRate:4
SliderMultiplier:1.1
SliderTickRate:1

[Events]
//Background and Video events
0,0,"BG.jpg"
Video,0,"video.avi"
//Break Periods
//Storyboard Layer 0 (Background)
//Storyboard Layer 1 (Fail)
//Storyboard Layer 2 (Pass)
//Storyboard Layer 3 (Foreground)
//Storyboard Sound Samples
//Background Colour Transformations
3,100,163,162,255

[TimingPoints]
3979,465.116279069767,4,2,1,40,1,0
9909,-100,4,2,2,40,0,0
11188,-100,4,2,1,40,0,0
13281,-100,4,1,1,40,0,0
13398,-100,4,2,1,40,0,0
14909,-100,4,1,1,40,0,0
15258,-100,4,2,1,40,0,0
16886,-100,4,1,1,40,0,0
17119,-100,4,2,1,40,0,0
18746,-100,4,1,1,40,0,0
18979,-100,4,2,1,40,0,0
20723,-100,4,2,2,40,0,0
35607,-100,4,2,1,40,0,0
39676,-100,4,2,2,40,0,0
39909,-100,4,2,1,40,0,0
43281,-100,4,2,1,50,0,0
49560,-100,4,1,1,60,0,0
50955,-100,4,2,2,60,0,0
56304,-100,4,2,1,60,0,0
56537,-100,4,1,1,60,0,0
57002,-100,4,2,2,60,0,0
65258,-100,4,2,1,60,0,0
72816,-100,4,2,2,60,0,0
79095,-100,4,1,1,60,0,0
79676,-100,4,2,2,60,0,0
83979,-100,4,2,1,60,0,1
84095,-100,4,1,1,60,0,1
98746,-100,4,2,1,60,0,1
98978,-100,4,1,1,60,0,1
100606,-100,4,2,2,60,0,1
100839,-100,4,1,1,60,0,1
109211,-100,4,2,2,60,0,1
109444,-100,4,1,1,60,0,1
113746,-100,4,1,1,40,0,0
116420,-100,4,2,1,40,0,0
116653,-100,4,2,2,50,0,0
127700,-100,4,2,1,40,0,0

[Colours]
Combo1 : 128,128,255
Combo2 : 255,128,255

[HitObjects]
112,217,5839,2,0,B|121:158|114:96,2,110,4|0|2
182,247,7234,2,0,B|180:285|179:320,2,55,0|0|2
253,218,8165,2,0,B|298:220|298:220|331:238|331:238|365:237,1,110,0|2
349,160,9095,1,0
349,160,9560,2,0,B|473:130|513:26,2,220,2|2|2
276,135,11885,1,0
219,187,12351,2,0,B|255:204|255:267|218:285,1,110,2|0
158,241,13281,6,0,B|385:240,1,220,4|2
354,313,14676,1,8
354,313,14909,1,0
354,313,15141,2,0,B|465:312,2,110,0|8|2
304,253,16537,1,8
265,254,16769,1,0
226,254,17002,6,0,B|108:256,1,110,0|8
151,187,17932,2,0,B|115:187|115:187|75:151|31:171,2,110,2|8|0
221,156,19327,2,0,B|279:147|334:159,1,110,8|2
361,181,20025,1,0
361,181,20258,2,0,B|419:192|477:181,2,110,8|4|8
386,253,21653,6,0,B|320:260|254:250,1,110,2|8
271,329,22583,2,0,B|215:325|146:332,1,110,2|8
162,253,23513,2,0,B|100:254|106:218|34:221,2,110,2|8|6
171,176,24909,2,0,B|294:175,1,110,8|2
341,222,25839,1,8
341,222,26072,1,2
341,222,26304,6,0,B|372:204|372:134|323:118,1,110,4|8
272,160,27234,2,0,B|241:142|241:72|290:56,1,110,0|8
333,113,28165,2,0,B|215:107|94:112,2,220,4|2|4
312,187,30490,2,0,B|369:193|431:188,2,110,8|2|8
312,263,31885,6,0,B|253:263|267:291|195:290,2,110,4|8|2
308,339,33281,1,8
308,339,33513,1,2
308,339,33746,2,4,B|412:340,2,82.5,4|8|4
185,190,35606,5,4
185,190,36072,2,0,B|110:180,2,55,0|0|2
220,174,36769,1,0
238,140,37002,2,0,B|258:85|239:31,2,110,0|2|0
314,151,38397,2,0,B|286:210|321:271,1,110,2|0
375,209,39327,6,0,B|143:206,1,220,2|2
117,273,40723,1,0
117,273,40955,1,0
117,273,41188,6,0,B|87:275|87:275|61:292|61:292|27:293,2,82.5,2|0|0
194,273,42351,1,0
194,273,42583,2,0,B|315:272,1,110,2|4
288,196,43513,2,0,B|353:206|385:141,1,110,8|0
309,118,44444,2,0,B|292:60|210:51,1,110,8|2
219,130,45374,6,0,B|152:154|157:226,1,110,8|0
235,211,46304,2,0,B|244:268|315:274,2,110,8|2|8
310,197,47699,1,0
310,197,47932,1,2
310,197,48165,2,0,B|437:196,2,110,8|2|8
243,236,49560,6,0,B|156:236,2,82.5,4|0|0
243,236,50490,1,0
297,181,50955,1,8
223,156,51420,6,0,B|248:96|219:30,1,110,0|8
154,79,52351,2,0,B|126:31|57:31,1,110,0|8
77,106,53281,1,0
77,106,53513,1,2
77,106,53746,2,0,B|96:163|76:215,1,110,8|0
152,226,54676,6,0,B|114:283|162:341,2,110,8|0|8
211,274,56072,2,0,B|313:275,2,82.5,0|10|2
177,204,57234,1,0
177,204,57467,2,0,B|136:202|136:202|99:189|99:189|54:191,2,110,8|4|8
162,128,58862,6,0,B|217:140|282:128,1,110,0|8
298,157,59560,2,0,B|335:152|371:156,1,55,2|0
401,214,60258,1,8
401,214,60490,1,2
401,214,60723,2,0,B|370:241|372:292|407:315,1,110,0|8
467,277,61653,6,0,B|384:266|289:275,1,165,4|2
271,296,62583,2,0,B|211:305|155:294,1,110,0|8
126,279,63281,1,2
108,244,63513,1,4
256,192,63746,12,4,65374
285,187,65723,6,0,B|244:170|186:166,1,82.5,2|0
167,186,66304,2,0,B|160:233|163:275,2,82.5,2|0|0
139,155,67234,2,0,B|146:108|132:49,2,82.5,0|2|0
216,153,68397,2,0,B|231:122|264:108,1,55,0|2
292,181,69095,6,0,B|337:173|388:182,2,82.5,2|0|0
270,213,70025,2,0,B|226:222|183:212,2,82.5,2|0|2
256,192,70955,12,4,72815
194,194,73281,5,8
194,194,73513,1,2
194,194,73746,2,0,B|72:191,2,110,0|8|0
271,198,75141,2,0,B|270:136|209:113,2,110,8|2|8
279,274,76537,6,8,B|280:336|341:359,2,110,2|8|2
355,280,77932,2,0,B|479:281,2,110,8|0|8
320,280,79095,1,2
281,280,79327,1,0
242,280,79560,1,0
185,227,80025,5,2
185,227,80258,1,4
185,227,80490,2,0,B|75:226,1,110,0|2
63,189,81188,2,0,B|24:173|5:139,2,55,0|0|8
93,165,81885,2,0,B|92:46,1,110,6|4
92,55,82583,1,8
153,189,83978,6,0,B|130:138|66:123,2,110,4|8|0
220,225,85374,1,8
220,225,85606,1,2
220,225,85839,2,0,B|211:268|238:308|217:345,2,110,0|8|0
294,246,87234,2,0,B|302:182|375:171,1,110,8|0
375,249,88165,5,8
375,249,88397,1,2
375,249,88630,2,0,B|375:80,1,165
302,109,89792,1,2
302,109,90025,2,0,B|279:48|221:39,1,110,8|0
215,116,90955,2,0,B|145:131|140:193,1,110,8|0
215,205,91885,6,0,B|215:265|248:253|248:326,2,110,8|0|8
291,206,93281,2,0,B|403:206,2,110,0|8|0
237,150,94676,1,8
237,150,94909,2,0,B|177:151|189:117|120:117,2,110,0|2|0
267,126,96072,2,0,B|299:121|341:126,1,55,2|2
357,108,96537,2,0,B|394:112|430:106,1,55,2|6
256,192,97002,12,4,98863
255,235,99327,6,0,B|288:295|254:344,1,110,8|0
194,294,100258,2,0,B|427:293,1,220,8|8
382,222,101653,1,0
382,222,101885,1,0
382,222,102118,2,0,B|433:222|433:222|462:207|462:207|507:208,2,110,8|0|8
376,145,103513,5,0
376,145,103746,1,0
376,145,103978,1,8
376,145,104211,2,0,B|317:127|248:147,1,110
237,166,104909,2,0,B|179:179|126:165,1,110,8|0
131,242,105839,2,0,B|200:247|200:316,1,110,8|0
123,319,106769,5,8
123,319,107234,2,0,B|7:319,2,110,0|8|0
181,268,108630,1,8
181,268,108862,2,0,B|270:269|250:224|354:224,1,165,0|8
324,300,110025,2,8,B|382:298|436:300,2,110,0|8|0
285,233,111420,1,8
313,161,111885,5,0
299,124,112118,1,0
270,97,112351,1,8
231,91,112583,1,0
154,86,113048,2,0,B|152:23,2,55
256,192,113746,12,4,116537
128,151,117002,6,0,B|164:205|119:277,2,110,8|2|8
185,99,118397,2,0,B|286:40,1,110,0|10
340,90,119327,2,0,B|240:152,3,110,2|8|0|8
236,226,121188,6,0,B|245:287|245:287|231:358,2,110,0|8|0
308,200,122583,2,0,B|272:160|272:160|207:143,1,110,8|0
219,222,123513,2,0,B|170:250|170:250|104:249,1,110,8|2
129,173,124444,5,8
129,173,124676,1,2
129,173,124909,2,0,B|19:174,2,110,0|8|0
185,119,126304,1,8
212,191,126769,1,4
256,192,127002,12,8,128630
