osu file format v9

[General]
AudioFilename: Dreamy crown-eternal promise.mp3
AudioLeadIn: 0
PreviewTime: 82094
Countdown: 0
SampleSet: Soft
StackLeniency: 0.4
Mode: 0
LetterboxInBreaks: 1

[Editor]
DistanceSpacing: 0.8
BeatDivisor: 4
GridSize: 8

[Metadata]
Title:eternal promise
Artist:Dreamy crown
Creator:kanpakyin
Version:Insane
Source:Endless Summer, Eternal Rhythm
Tags:

[Difficulty]
HPDrainRate:6
CircleSize:4
OverallDifficulty:7
ApproachRate:8
SliderMultiplier:1.6
SliderTickRate:1

[Events]
//Background and Video events
0,0,"BG.jpg"
Video,0,"video.avi"
//Break Periods
//Storyboard Layer 0 (Background)
//Storyboard Layer 1 (Fail)
//Storyboard Layer 2 (Pass)
//Storyboard Layer 3 (Foreground)
//Storyboard Sound Samples
//Background Colour Transformations
3,100,163,162,255

[TimingPoints]
3979,465.116279069767,4,2,1,40,1,0
5839,-200,4,2,1,40,0,0
8165,-200,4,2,2,40,0,0
9211,-200,4,2,1,40,0,0
10839,-200,4,2,2,30,0,0
11072,-200,4,2,1,40,0,0
13281,-100,4,1,1,40,0,0
13398,-100,4,2,1,60,0,0
14909,-100,4,1,1,40,0,0
15258,-100,4,2,1,60,0,0
16886,-100,4,1,1,40,0,0
17119,-100,4,2,1,60,0,0
18630,-100,4,1,1,40,0,0
18979,-100,4,2,1,60,0,0
20723,-100,4,2,2,50,0,0
35490,-100,4,2,1,40,0,0
43048,-100,4,2,1,50,0,0
49560,-100,4,1,1,49,0,0
50490,-100,4,2,2,49,0,0
65374,-100,4,2,1,40,0,0
72816,-100,4,2,2,51,0,0
74676,-100,4,2,2,29,0,0
75025,-100,4,2,2,40,0,0
75374,-100,4,2,2,50,0,0
75839,-100,4,2,2,60,0,0
83979,-100,4,1,1,55,0,1
96072,-100,4,1,2,55,0,1
96885,-100,4,1,1,55,0,1
113746,-100,4,1,1,40,0,0
115491,-100,4,2,1,40,0,0
115723,-100,4,2,2,49,0,0
125141,-66.6666666666667,4,1,1,40,0,0
127002,-100,4,1,1,40,0,0
127583,-66.6666666666667,4,1,1,29,0,0

[Colours]
Combo1 : 128,128,255
Combo2 : 255,128,255

[HitObjects]
162,172,5839,2,0,B|116:190|107:240,2,80,4|0|2
188,247,7234,1,0
188,247,7467,1,0
188,247,7699,2,0,B|23:249,2,160,2|2|2
284,249,10025,1,0
284,249,10490,2,0,B|328:249|360:273,2,80,2|0|2
245,161,11885,6,0,B|231:110,2,40,0|0|2
252,208,12583,1,0
262,258,12816,2,0,B|273:311,2,40,2|0|4
188,229,13513,5,2
188,229,13630,1,0
188,229,13746,2,0,B|134:227|93:244,1,80,8|0
251,176,14211,2,0,B|299:180|342:160,1,80,0|2
289,329,14676,2,0,B|281:281|259:244,1,80,8|0
151,72,15141,6,0,B|159:120|181:157,1,80,2|2
245,187,15606,1,8
302,130,15839,1,0
302,130,15955,1,0
302,130,16072,2,0,B|343:106|353:68,1,80,2|2
197,245,16537,2,0,B|161:274|156:318,1,80,8|0
313,233,17002,6,0,B|343:268|408:267,1,80,2|0
199,151,17467,2,0,B|169:116|104:117,1,80,8|0
128,198,17932,1,2
128,198,18048,1,2
289,101,18281,1,8
289,101,18397,1,10
314,280,18630,1,0
160,93,18862,5,0
201,161,19095,1,0
201,161,19211,1,0
201,161,19327,2,0,B|208:208|174:256,1,80,8|0
270,224,19792,1,0
240,312,20025,1,2
272,312,20141,1,0
304,312,20258,1,8
336,312,20374,1,0
368,312,20490,1,10
160,312,20723,6,0,B|115:322|115:322|68:344,1,80,4|2
288,224,21188,2,0,B|331:206|331:206|370:196,1,80,8|0
312,360,21653,2,0,B|270:311|233:293,1,80,0|2
112,184,22118,2,0,B|154:233|191:251,1,80,8|0
240,173,22583,5,0
295,251,22816,1,2
295,251,22932,1,0
295,251,23048,2,0,B|310:302|289:357,1,80,8|0
363,206,23513,2,0,B|351:165|364:103,2,80,0|2|8
325,294,24211,1,0
237,255,24444,6,0,B|198:257|202:284|148:283,1,80,4|2
72,208,24909,2,0,B|163:207,1,80,8|0
323,336,25374,2,0,B|211:337,1,80,0|2
201,268,25839,2,0,B|161:295|142:340,1,80,8|0
272,164,26304,6,0,B|216:167|161:201,1,80,4|2
398,80,26769,2,0,B|353:75|285:90,1,80,8|0
178,202,27234,1,0
150,185,27351,1,0
118,181,27467,1,2
86,186,27583,1,0
59,203,27699,1,8
243,267,27932,1,0
243,266,28165,6,0,B|285:261|285:261|348:273,1,80,4|2
282,338,28630,2,0,B|328:352|328:352|356:386,2,80,8|2|0
202,336,29327,1,0
202,336,29444,1,0
202,336,29560,2,4,B|92:336,2,80,8|2|4
312,220,30490,1,8
146,122,30955,5,2
296,320,31188,1,2
384,248,31420,1,8
80,264,31653,1,0
48,176,31885,5,4
142,159,32118,1,2
142,159,32234,1,0
142,159,32351,2,0,B|153:107|143:57,1,80,8|0
309,302,32816,1,4
309,302,33049,2,0,B|298:250|308:200,1,80,2|8
310,126,33513,1,0
310,126,33630,1,0
310,126,33746,2,0,B|244:109|193:61,1,120,4|2
174,108,34211,2,0,B|130:89|74:92,1,80,8|4
256,192,34560,12,4,35606
210,158,36304,5,0
210,158,36537,2,0,B|158:148|108:152,1,80,2|0
104,169,36885,1,0
89,197,37002,2,0,B|39:196|5:214,2,80,0|2|2
161,246,37699,1,0
161,246,37816,1,0
161,246,37932,2,0,B|183:335|286:363,1,160,2|0
290,189,38630,5,0
290,189,38746,1,0
290,189,38862,2,0,B|383:187,2,80,2|0|2
136,92,39560,1,0
136,92,39676,1,0
136,92,39792,2,0,B|139:144|133:189,1,80,2|0
214,161,40258,2,0,B|218:200|217:243,1,80
255,251,40606,2,0,B|255:298|266:340,1,80,2|0
227,348,40955,2,0,B|184:328|184:328|121:316,1,80,2|0
144,242,41420,1,0
144,242,41537,1,0
144,242,41653,2,0,B|94:259|67:298,1,80,2|0
348,143,42351,5,0
348,143,42467,1,0
348,143,42583,2,0,B|403:120|424:79,1,80,2|0
256,242,43048,6,0,B|239:283|188:319,1,80,4|2
188,128,43513,2,0,B|182:181|160:229,1,80,8|2
90,219,43978,1,0
151,270,44211,1,2
151,270,44327,1,0
151,270,44444,2,0,B|134:309|93:335,1,80,8|0
231,227,44909,5,2
252,209,45025,1,0
276,194,45141,1,2
301,183,45258,1,0
328,176,45374,2,0,B|370:167|413:136,1,80,8|2
352,312,45839,2,0,B|296:352|248:352,1,80,0|2
212,306,46304,2,0,B|160:239|79:205,1,160,8|0
54,281,47002,5,2
54,281,47234,2,0,B|101:210|190:175,1,160,8|0
214,110,47932,1,2
244,100,48048,1,0
268,76,48165,2,0,B|288:32|324:12,2,80,8|2|0
332,124,48862,2,0,B|320:168|316:212,1,80,2|8
396,200,49327,1,2
396,200,49444,1,0
396,200,49560,6,0,B|340:304,1,120,0|2
267,269,50141,1,2
267,269,50258,2,0,B|220:248|154:240,1,80,0|4
267,115,50723,1,2
267,115,50839,1,0
267,115,50955,6,0,B|220:136|154:144,1,80,8|0
35,190,51420,2,0,B|130:191,1,80,0|2
284,228,51885,2,0,B|256:229|256:229|230:240|230:240|180:243,1,80,8|0
196,263,52234,1,0
180,278,52351,5,2
216,164,52583,1,2
216,164,52699,1,0
216,164,52816,2,0,B|152:164|109:151,1,80,8|0
124,332,53281,2,0,B|147:292|119:232,1,80,0|2
56,294,53746,2,0,B|227:295,1,160,8|0
296,292,54444,1,2
317,268,54560,1,0
347,257,54676,2,0,B|387:242|442:247,1,80,8|0
346,110,55141,6,0,B|298:103|261:104,1,80,2|2
242,125,55490,2,0,B|182:136|114:138,1,120,0|2
92,149,55955,1,0
68,171,56072,2,0,B|25:187,4,40,2|0|2|0|8
73,250,56769,1,0
73,250,57002,6,0,B|58:303|44:343,1,80,0|2
204,232,57467,2,0,B|210:185|231:155,1,80,8|2
302,122,57932,5,4
333,97,58048,1,0
360,67,58165,1,2
388,95,58281,1,0
421,116,58397,1,8
486,161,58630,1,0
486,161,58746,1,0
486,161,58862,2,0,B|471:219|466:256,1,80,0|2
425,249,59211,1,0
389,226,59327,2,0,B|353:273|309:300,1,80,8|0
270,232,59792,5,4
241,217,59909,1,0
224,189,60025,1,2
214,158,60141,1,0
216,125,60258,2,0,B|161:140|161:140|141:185|80:201,1,160,8|0
310,120,60955,1,2
310,120,61072,1,0
310,120,61188,2,0,B|394:156,2,80,8|0|4
99,196,61885,1,2
99,196,62118,6,0,B|147:170|187:166,1,80,8|0
280,202,62583,2,0,B|292:157|330:114,1,80,0|2
443,115,63048,2,0,B|474:73|508:54,2,80,8|0|4
256,192,63630,12,4,65374
197,184,65723,6,0,B|151:151|76:132,1,120,2|0
325,328,66304,1,0
235,291,66537,1,0
235,291,66653,2,0,B|268:241|341:221,1,120,2|0
417,180,67234,1,0
417,180,67583,2,0,B|405:134|405:134|423:99|423:99|422:57,1,120,2|0
327,83,68165,2,0,B|256:114|161:107,1,160,0|2
101,173,68862,1,0
101,173,68978,1,0
101,173,69095,6,0,B|95:232|39:272,1,120,8|0
39,271,69560,1,2
264,264,69792,1,0
264,264,69909,1,0
264,264,70025,2,0,B|299:220|370:196,1,120,2|0
362,198,70490,1,10
264,264,70723,1,0
264,264,70955,6,0,B|208:242|150:298|99:260,1,160,6|8
143,193,71653,1,0
143,193,71769,1,0
143,193,71885,2,0,B|92:162|39:156,1,80,2|2
368,202,72351,2,0,B|419:233|472:239,1,80,8|2
313,124,72816,6,0,B|280:89|235:72,1,80,4|2
282,238,73281,2,0,B|270:190|244:154,1,80,8|0
222,344,73746,1,0
222,344,73862,1,0
222,344,73978,1,2
222,344,74095,1,0
222,344,74211,2,0,B|219:298|198:239,1,80,8|0
64,192,74676,5,4
256,56,75141,1,4
448,192,75606,1,4
256,328,76072,1,4
117,256,76537,6,0,B|178:205,1,80,0|2
37,232,77002,2,0,B|127:216,1,80,8|0
395,128,77467,2,0,B|334:179,1,80,0|2
475,152,77932,2,0,B|385:168,1,80,8|0
354,234,78397,5,0
354,234,78630,2,0,B|321:271|262:267,1,80,2|8
164,212,79095,2,0,B|215:211|259:191,1,80
96,256,79560,2,0,B|51:258|-3:293,1,80,2|8
254,340,80025,1,0
198,159,80258,5,0
180,185,80374,1,0
155,205,80490,1,2
126,218,80606,1,0
94,223,80723,2,0,B|90:273|58:310,1,80,8|0
418,198,81188,1,0
338,145,81420,5,2
320,117,81537,1,0
288,103,81653,2,0,B|251:75|195:75,2,80,8|0|0
255,259,82351,1,2
412,233,82583,1,6
256,192,82699,12,4,83978
130,166,84211,5,0
130,166,84327,1,0
130,166,84444,2,0,B|85:165|40:152,2,80,8|0|0
132,245,85141,1,2
132,245,85374,2,0,B|213:236|309:250,1,160,8|0
459,303,86072,6,0,B|351:316,1,80,2|8
459,81,86537,2,0,B|357:68,1,80
341,141,87002,1,2
341,141,87118,1,0
341,141,87234,2,0,B|238:141|163:156,1,160,8|0
131,254,87932,5,2
131,254,88048,1,0
131,254,88165,2,0,B|177:229|234:217,1,80,8|0
303,277,88630,2,0,B|261:286|222:313,1,80,0|2
420,248,89095,2,0,B|384:279|364:319,1,80,8|0
334,97,89560,2,0,B|345:143|329:206,1,80,0|2
257,157,90025,2,0,B|207:149|207:149|160:163|160:163|93:153,1,160,8|0
49,61,90723,2,0,B|155:81,1,80,2|8
290,246,91188,2,0,B|197:230,1,80,0|4
238,333,91653,5,2
238,333,91769,1,0
238,333,91885,2,0,B|227:289|198:249,1,80,8|0
129,285,92351,2,0,B|86:261|36:252,2,80,0|2|8
150,208,93048,1,0
150,208,93281,6,0,B|206:146|292:119,1,160,4|8
315,194,93978,2,0,B|354:164|426:174,1,80,2|0
397,330,94444,2,0,B|366:224,1,80,0|8
303,289,94909,1,2
303,289,95025,1,0
303,289,95141,2,0,B|283:239|235:190,2,120,4|0|0
73,343,96072,5,4
24,123,96304,1,4
274,63,96537,1,4
332,308,96769,1,4
266,262,97002,5,0
239,280,97118,1,0
210,294,97234,1,2
178,301,97351,1,0
146,300,97467,2,0,B|63:285|63:285|105:252|71:194,1,160,8|0
77,185,98048,1,0
60,157,98165,1,2
38,133,98281,1,0
9,118,98397,1,8
140,119,98630,5,2
140,119,98746,1,0
140,119,98862,2,0,B|185:133|240:117,1,80,6|0
340,194,99327,2,0,B|293:188|226:200,1,80,8|2
164,271,99792,2,0,B|180:235|182:183,1,80
320,45,100258,2,0,B|297:97|290:149,1,80,8|2
371,145,100723,6,0,B|372:196|380:252,1,80,4|0
298,241,101188,2,0,B|217:242|231:295|149:293,1,160,8|0
372,318,101885,2,0,B|273:317,1,80,2|8
0,223,102351,1,0
23,223,102467,1,0
46,223,102583,2,0,B|173:222,2,120,4|2|0
186,68,103513,2,0,B|105:81,1,80,4|2
326,68,103978,2,0,B|416:84,1,80,8|0
255,158,104444,2,0,B|184:207,1,80,4|2
257,158,104909,2,0,B|330:210,1,80,8|0
322,204,105258,1,0
322,204,105374,1,0
128,328,105606,5,2
170,132,105839,1,8
325,298,106072,1,2
356,298,106188,1,0
387,299,106304,1,4
413,223,106537,1,2
413,223,106769,2,0,B|497:224,2,80,8|0|0
363,159,107467,1,2
363,159,107699,2,0,B|298:153|264:133,1,80,8|0
147,52,108165,6,0,B|210:58|255:75,1,80,4|2
203,142,108630,2,0,B|163:220|77:248,1,160,8|0
279,107,109327,2,0,B|296:66,2,40,2|0|8
358,116,109792,1,4
358,116,110025,6,0,B|392:34,2,80,4|2|8
317,185,110723,1,0
317,185,110955,2,0,B|319:259|312:296,1,80,0|2
134,93,111420,2,0,B|139:47|135:-4,1,80,8|0
200,170,111885,6,0,B|197:121|254:100,1,80,4|2
108,173,112351,1,8
154,237,112583,1,2
154,237,112699,1,0
154,237,112816,2,0,B|209:240|209:240|266:258|266:258|321:258,1,160,0|8
369,109,113746,1,4
256,192,113862,12,4,115606
120,131,116072,5,8
120,131,116304,1,0
120,131,116537,2,0,B|72:112|29:71,1,80,0|2
269,224,117002,2,0,B|316:239|343:284,1,80,8|0
219,138,117467,6,0,B|257:120|315:157|344:132,1,120,4|2
371,115,117932,2,0,B|356:157|372:198,1,80,8|0
296,308,118397,2,0,B|313:268|290:214,1,80,0|2
101,251,118862,1,8
278,91,119095,1,2
80,60,119327,5,4
141,122,119560,1,2
141,122,119676,1,0
141,122,119792,2,0,B|147:179|141:216,1,80,8|0
225,297,120258,2,0,B|221:244|227:197,1,80,0|2
374,81,120723,2,0,B|366:132|375:191,1,80,8|0
252,275,121188,6,0,B|248:216|251:169,1,80,4|2
184,148,121653,2,0,B|135:123,1,40,8|0
136,167,121885,2,0,B|69:166,1,40
70,197,122118,1,0
380,248,122351,1,2
380,248,122467,1,0
380,248,122583,2,0,B|381:298|372:346,2,80,8|0|4
300,320,123281,6,0,B|270:356|202:360,1,80,2|8
152,275,123746,2,0,B|106:280|50:263,1,80
117,149,124211,2,0,B|84:120|61:76,1,80,2|8
218,74,124676,2,0,B|249:49|289:40,1,80,0|4
393,149,125141,6,0,B|445:131|502:123,1,103.999998140335,0|8
363,227,125606,2,0,B|307:249|248:257,1,103.999998140335
272,56,126072,2,0,B|299:127|322:184,1,119.999996423721,0|8
493,333,126537,5,0
493,333,126653,1,0
493,333,126769,2,0,B|448:214,1,119.999996423721,4|0
410,193,127118,1,0
364,206,127234,1,0
316,195,127351,1,0
269,206,127467,1,0
223,190,127583,1,0
177,205,127699,2,0,B|130:204,18,26.6666666666667,0|0|0|0|0|0|0|0|0|0|0|0|0|0|0|0|0|0|0
