osu file format v9

[General]
AudioFilename: Dreamy crown-eternal promise.mp3
AudioLeadIn: 0
PreviewTime: 82094
Countdown: 0
SampleSet: Soft
StackLeniency: 0.4
Mode: 0
LetterboxInBreaks: 1

[Editor]
DistanceSpacing: 1.1
BeatDivisor: 4
GridSize: 8

[Metadata]
Title:eternal promise
Artist:Dreamy crown
Creator:kanpakyin
Version:Hard
Source:Endless Summer, Eternal Rhythm
Tags:

[Difficulty]
HPDrainRate:6
CircleSize:4
OverallDifficulty:5
ApproachRate:7
SliderMultiplier:1.4
SliderTickRate:1

[Events]
//Background and Video events
0,0,"BG.jpg"
Video,0,"video.avi"
//Break Periods
//Storyboard Layer 0 (Background)
//Storyboard Layer 1 (Fail)
//Storyboard Layer 2 (Pass)
//Storyboard Layer 3 (Foreground)
//Storyboard Sound Samples
//Background Colour Transformations
3,100,163,162,255

[TimingPoints]
3979,465.116279069767,4,2,1,40,1,0
13281,-100,4,1,1,49,0,0
13398,-100,4,2,1,49,0,0
14909,-100,4,1,1,49,0,0
15258,-100,4,2,1,49,0,0
16886,-100,4,1,1,49,0,0
17119,-100,4,2,1,40,0,0
18746,-100,4,1,1,51,0,0
18979,-100,4,2,1,40,0,0
19792,-100,4,2,1,50,0,0
20723,-100,4,2,2,50,0,0
35607,-100,4,2,1,40,0,0
43048,-100,4,2,1,50,0,0
49560,-100,4,1,1,50,0,0
50490,-100,4,2,2,50,0,0
65141,-100,4,2,1,49,0,0
72816,-100,4,2,2,50,0,0
80258,-100,4,1,1,50,0,0
83979,-100,4,2,1,55,0,1
84211,-100,4,1,1,55,0,1
98746,-100,4,2,1,60,0,1
98978,-100,4,1,1,50,0,1
113746,-100,4,1,1,40,0,0
115491,-100,4,2,1,40,0,0
115723,-100,4,2,2,50,0,0
127700,-100,4,2,1,40,0,0

[Colours]
Combo1 : 128,128,255
Combo2 : 255,128,255

[HitObjects]
183,191,5839,2,0,B|133:192|133:192|101:212|101:212|24:213,2,140,6|0|2
309,280,7235,1,0
309,280,7467,1,0
309,280,7699,2,0,B|363:282|363:282|391:302|391:302|450:302,2,140,2|0|2
231,277,8863,1,0
154,279,9095,1,0
154,279,9560,6,0,B|12:280,2,140,2|0|2
155,104,10956,2,0,B|13:103,2,140,0|2|0
132,177,12119,1,0
132,177,12351,2,0,B|175:199|176:239,1,70,2|0
101,251,12816,2,0,B|93:292|47:304,1,70,2|0
26,229,13281,6,0,B|34:159|34:159|25:86,2,140,0|8|2
99,251,14444,2,0,B|101:296|90:352,1,70,0|8
170,214,14909,2,0,B|196:184|244:176,1,70,0|0
244,254,15374,1,0
244,254,15607,2,0,B|318:243|391:256,2,140,8|2|8
256,177,16770,2,0,B|213:182|159:177,1,70
108,179,17235,5,0
140,109,17467,2,0,B|196:108|196:108|223:91|223:91|281:89,1,140,8|2
257,164,18165,1,0
257,164,18281,1,0
257,164,18397,2,0,B|327:164|422:165,1,140,8|0
374,238,19095,5,0
374,238,19328,2,0,B|323:246|319:294,1,70,8|0
390,314,19792,2,0,B|222:316,1,140,6|8
191,265,20491,1,0
191,265,20607,1,0
191,265,20723,6,0,B|149:272|95:265,2,70,4|2|8
183,188,21421,1,2
183,188,21653,2,0,B|254:188|250:145|328:144,2,140,0|8|0
195,111,22816,5,2
195,111,22933,1,0
195,111,23048,2,0,B|153:98|103:112,1,70,8|0
145,182,23514,2,0,B|103:192|75:232,1,70,0|2
148,263,23979,2,0,B|121:308|159:347,1,70,8|0
217,302,24444,6,0,B|48:304,2,140,4|8|0
184,232,25607,1,2
260,233,25839,1,8
224,164,26072,1,2
224,164,26188,1,0
224,164,26305,6,0,B|272:165|272:165|311:149|311:149|370:149,2,140,0|8|4
239,88,27467,1,2
239,88,27584,1,0
239,88,27700,2,0,B|164:80|164:80|73:91,2,140,8|4|8
262,161,28863,2,0,B|302:160|302:160|352:166,2,70,2|0|0
210,217,29560,2,0,B|229:257|206:304,1,70,8|2
145,253,30026,6,0,B|314:252,2,140,4|8|0
110,184,31188,1,2
110,184,31305,1,0
110,184,31420,2,0,B|64:182|28:210,2,70,8|0|4
181,153,32119,5,2
249,188,32351,2,0,B|401:188,2,140,8|0|8
269,262,33514,1,2
269,262,33630,1,0
269,262,33746,2,0,B|329:341,1,70,4|0
236,338,34212,2,0,B|286:401,1,70,8|6
256,192,34560,12,4,35607
159,154,36305,5,2
159,154,36537,2,0,B|120:140|87:118,1,70
190,225,37002,2,0,B|202:271|187:320,1,70,0|0
270,289,37467,2,0,B|315:289|315:289|362:277|362:277|414:276,2,140,2|0|2
286,213,38630,1,0
286,213,38746,1,0
286,213,38862,2,0,B|203:214,2,70,2|0|4
286,213,39793,5,0
328,148,40026,1,0
328,148,40258,2,0,B|443:148,2,105,2|0|0
184,148,41188,2,0,B|65:147,2,105,2|0|0
177,225,42119,1,0
177,225,42583,6,0,B|255:224|241:268|318:266,2,140,2|4|8
187,301,43746,1,0
187,301,43863,1,0
187,301,43979,2,0,B|141:309|115:353,1,70,2|0
268,274,44444,2,0,B|315:265|340:222,1,70,8|0
264,195,44909,6,0,B|269:135|269:135|261:53,2,140,2|8|2
188,177,46072,1,0
188,177,46305,2,0,B|166:141|122:123,1,70,8|0
105,200,46770,6,0,B|105:261|105:261|114:296|114:296|115:349,2,140,6|8|2
27,196,47933,1,0
65,129,48165,1,8
142,129,48398,1,0
181,194,48630,6,0,B|253:188|330:196,1,140,2|8
385,236,49328,1,0
400,250,49444,1,0
408,269,49560,1,4
304,234,49793,1,0
304,234,49909,1,0
248,180,50142,1,0
248,180,50258,1,0
228,254,50490,6,0,B|228:301|227:355,2,70,6|2|8
215,178,51188,2,0,B|179:141|134:139,1,70
139,217,51653,1,2
139,217,51886,2,0,B|66:197|-10:220,2,140,8|0|8
172,148,53049,1,2
172,148,53165,1,0
172,148,53281,2,0,B|205:176|205:176|249:190,1,70
297,146,53746,6,0,B|264:118|264:118|220:104,2,70,8|2|0
340,210,54444,1,2
340,210,54560,1,0
340,210,54677,2,0,B|350:245|349:293,1,70,8|0
272,267,55142,2,0,B|252:323|191:338,2,105,0|2|0
272,117,56072,2,0,B|252:61|191:46,2,105,0|2|0
196,130,57002,1,0
196,130,57235,2,0,B|200:176|200:224,1,70,2|8
122,195,57700,1,2
122,195,57816,1,0
122,195,57933,6,0,B|123:256|123:256|144:283|144:283|147:342,2,140,0|8|0
196,214,59095,2,0,B|220:184|275:177,1,70,2|8
269,256,59560,1,2
269,256,59677,1,0
269,256,59793,6,0,B|337:243|412:256,1,140,0|8
407,332,60491,1,2
407,332,60723,2,0,B|406:264|405:166,1,140,0|8
327,202,61421,1,2
327,202,61537,1,0
327,202,61653,6,0,B|318:158|267:131,1,70
240,204,62119,2,0,B|164:204|182:242|97:240,2,140,8|2|8
232,280,63281,1,2
232,280,63398,1,0
232,280,63514,6,0,B|350:279,2,105,0|2|2
106,189,64677,1,0
106,189,64909,1,2
106,189,65141,1,2
106,189,65374,6,0,B|103:138|107:82,2,105,4|0|2
181,173,66305,2,0,B|188:231|184:285,2,105,0|2|0
245,131,67234,2,0,B|284:68|383:66,1,140,0|2
360,158,67932,2,0,B|439:181|467:271,1,140,0|2
405,305,68630,1,0
242,227,69095,6,0,B|242:277|242:277|252:281|252:281|255:349,2,105,6|0|0
176,175,70026,2,0,B|175:130|175:130|184:133|184:133|186:55,2,105,2|0|0
99,169,70956,2,0,B|101:245|97:316,1,140,2|0
174,307,71653,1,0
174,307,71770,1,0
174,307,71886,2,0,B|194:273|235:260,1,70,2|0
298,235,72351,2,0,B|339:213|347:165,1,70
272,151,72816,6,0,B|253:110|204:100,1,70,4|2
190,175,73281,2,0,B|150:185|126:232,1,70,8|0
205,247,73746,2,0,B|49:247,2,140,0|8|4
182,320,74909,1,2
182,320,75026,1,0
182,320,75142,2,0,B|238:319|238:319|273:294|273:294|334:294,1,140,8|0
309,217,75839,2,0,B|394:217,2,70,2|8|0
238,185,76537,6,0,B|216:148|177:132,1,70,4|2
158,208,77002,2,0,B|122:195|70:199,1,70,8|0
102,274,77467,2,0,B|64:283|41:317,2,70,4|2|8
172,304,78165,1,0
240,268,78398,6,0,B|381:268,1,140,4|8
456,276,79095,2,0,B|456:228|421:204,1,70,2|4
370,164,79560,1,2
370,164,79677,1,0
370,164,79792,2,0,B|333:130|334:96,1,70,8|4
410,91,80258,6,0,B|243:91,1,140,6|8
192,91,80956,1,2
192,91,81072,1,0
192,91,81188,2,0,B|120:92|142:143|54:142,1,140,0|8
70,64,81886,2,0,B|70:218,1,140,4|4
69,281,82584,1,12
256,192,82700,12,4,83979
213,153,84444,6,0,B|184:127|146:126,2,70,8|2|0
155,204,85142,2,0,B|154:56,1,140
230,72,85839,2,0,B|230:115|264:142,1,70,0|2
321,92,86304,2,0,B|354:119|408:117,1,70,8|0
478,214,86770,2,0,B|443:184|388:191,1,70,0|2
413,266,87235,1,8
381,266,87351,1,0
349,266,87467,1,0
317,267,87584,1,0
285,267,87700,6,0,B|172:269,2,105,0|2|0
290,190,88630,2,0,B|334:188|384:169,1,70,0|2
290,190,89095,2,0,B|240:196|206:214,1,70,8|0
268,267,89560,2,0,B|220:284|220:284|179:284|179:284|121:311,2,140,0|8|0
345,268,90723,1,2
345,268,90839,1,0
345,268,90956,2,0,B|428:268,2,70,8|0|4
268,273,91653,5,2
268,273,91886,2,0,B|265:229|208:203,1,70,8|0
183,276,92351,1,0
223,341,92584,1,2
223,341,92700,1,0
223,341,92816,2,0,B|263:339|263:339|295:348|295:348|332:341|332:341|378:342,2,140,8|0|8
145,342,93979,1,2
145,342,94212,2,0,B|101:327|82:285,1,70
159,261,94677,2,0,B|141:226|156:182,1,70,8|2
227,212,95142,6,0,B|233:173|273:156,2,70,4|2|8
302,224,95839,1,0
302,224,96072,2,0,B|380:212,1,70,0|2
152,160,96537,1,8
208,304,96770,1,0
56,272,97002,1,0
66,241,97119,1,0
68,209,97235,1,0
63,177,97351,1,0
51,147,97467,5,4
291,68,97933,1,4
228,279,98398,1,4
228,279,98863,6,0,B|275:273|320:280,1,70,4|2
296,354,99328,1,8
365,320,99560,1,0
365,320,99793,1,0
363,242,100026,1,2
363,242,100142,1,0
363,242,100258,1,8
296,203,100491,1,0
358,157,100723,6,0,B|358:70,1,70,4|2
285,61,101188,1,8
285,61,101421,1,0
285,61,101653,2,0,B|284:117|292:147,1,70,0|2
476,155,102118,2,0,B|469:212|472:249,1,70,8|0
483,261,102467,1,0
462,294,102584,6,0,B|459:343|441:370,1,70,4|2
382,264,103049,2,0,B|390:226|384:188,1,70,8|0
378,167,103397,1,0
362,143,103513,1,0
340,125,103630,1,0
321,104,103746,2,0,B|337:57|334:30,2,70,2|8|0
259,150,104444,2,0,B|232:176|232:176|181:183,1,70,0|2
187,104,104909,2,0,B|22:105,2,140,8|0|12
239,160,106072,1,2
239,160,106304,6,0,B|312:162|298:205|383:205,2,140,4|8|0
243,233,107467,1,2
212,243,107584,1,0
189,264,107700,2,0,B|163:305|112:313,2,70,8|0|4
331,206,108630,1,8
331,206,108863,2,0,B|363:173|413:145,2,70,2|0|0
332,282,109560,1,8
332,282,109792,1,2
258,258,110026,6,0,B|257:206|257:206|237:169|237:169|237:123,1,140,4|8
163,144,110723,1,2
163,144,110956,2,0,B|161:107|128:79,2,70,0|0|8
86,146,111653,5,2
86,146,112119,2,0,B|82:220|87:240,1,70,0|8
140,268,112583,1,0
161,285,112699,1,0
174,309,112816,1,0
248,290,113048,2,0,B|288:290|339:294,2,70
256,192,113746,12,4,115607
213,152,116072,5,8
213,152,116537,2,0,B|136:152|160:197|57:197,2,140,0|8|0
216,229,117700,1,2
285,195,117933,1,8
282,271,118165,1,0
282,271,118281,1,0
282,271,118398,2,0,B|373:271,3,70,0|2|8|0
325,343,119327,6,0,B|256:345|256:345|160:340,1,140,4|8
191,264,120025,1,0
191,264,120258,2,0,B|161:235|149:187,1,70,0|2
231,191,120723,2,0,B|233:151|258:115,1,70,8|0
309,176,121188,6,0,B|377:160|467:181,3,140,4|8|0|8
449,99,122816,1,0
449,99,123049,2,0,B|453:246,1,140,4|8
377,224,123746,2,0,B|377:272|342:295,1,70
295,233,124212,2,0,B|264:266|204:268,1,70,2|8
221,188,124676,1,0
221,188,124909,6,0,B|66:188,2,140,4|8|0
291,156,126072,1,2
291,156,126188,1,0
291,156,126304,2,0,B|348:135,3,35,8|0|2|0
357,162,126769,2,0,B|393:148,3,35
357,162,127234,1,12
355,239,127467,1,4
256,192,127584,12,8,128630
