osu file format v9

[General]
AudioFilename: Dreamy crown-eternal promise.mp3
AudioLeadIn: 0
PreviewTime: 82094
Countdown: 0
SampleSet: Soft
StackLeniency: 0.4
Mode: 0
LetterboxInBreaks: 1

[Editor]
DistanceSpacing: 0.8
BeatDivisor: 4
GridSize: 8

[Metadata]
Title:eternal promise
Artist:Dreamy crown
Creator:kanpakyin
Version:Easy
Source:Endless Summer, Eternal Rhythm
Tags:

[Difficulty]
HPDrainRate:3
CircleSize:4
OverallDifficulty:2
ApproachRate:3
SliderMultiplier:1
SliderTickRate:1

[Events]
//Background and Video events
0,0,"BG.jpg"
Video,0,"video.avi"
//Break Periods
//Storyboard Layer 0 (Background)
//Storyboard Layer 1 (Fail)
//Storyboard Layer 2 (Pass)
//Storyboard Layer 3 (Foreground)
//Storyboard Sound Samples
//Background Colour Transformations
3,100,163,162,255

[TimingPoints]
3979,465.116279069767,4,2,1,40,1,0
6188,-100,4,2,2,40,0,0
7351,-100,4,2,1,40,0,0
9909,-100,4,2,2,40,0,0
11072,-100,4,2,1,40,0,0
12234,-100,4,2,2,40,0,0
12467,-100,4,2,1,40,0,0
13281,-100,4,1,1,40,0,0
13398,-100,4,2,1,40,0,0
15026,-100,4,1,1,40,0,0
15258,-100,4,2,1,40,0,0
16886,-100,4,1,1,40,0,0
17119,-100,4,2,2,40,0,0
18746,-100,4,1,1,40,0,0
18979,-100,4,2,1,40,0,0
20723,-100,4,1,1,40,0,0
30839,-100,4,2,2,40,0,0
31072,-100,4,1,1,40,0,0
35607,-100,4,2,1,40,0,0
36420,-100,4,2,2,40,0,0
36653,-100,4,2,1,40,0,0
39676,-100,4,2,2,40,0,0
40839,-100,4,2,1,40,0,0
42002,-100,4,2,2,40,0,0
42234,-100,4,2,1,40,0,0
43048,-100,4,2,1,50,0,0
49560,-100,4,1,1,40,0,0
50490,-100,4,2,2,40,0,0
65258,-100,4,2,1,40,0,0
66305,-100,4,2,1,50,0,0
66653,-100,4,2,2,50,0,0
67816,-100,4,2,1,50,0,0
68978,-100,4,2,2,50,0,0
69211,-100,4,2,1,59,0,0
72816,-100,4,2,2,40,0,0
83979,-100,4,2,1,40,0,1
84095,-100,4,1,1,50,0,1
88513,-100,4,2,2,50,0,1
88746,-100,4,1,1,50,0,1
100606,-100,4,2,2,50,0,1
100839,-100,4,1,1,50,0,1
113746,-100,4,2,2,50,0,0
127700,-100,4,2,1,40,0,0

[Colours]
Combo1 : 128,128,255
Combo2 : 255,128,255

[HitObjects]
231,124,5839,2,0,B|29:124,2,200,4|2|2
206,200,8165,2,0,B|262:202|329:197,2,100,0|2|0
207,279,9560,2,0,B|110:279|142:346|9:339,2,200,2|2|2
188,357,11885,2,0,B|300:345|397:359,1,200,0|4
382,277,13281,6,0,B|435:278|460:221,1,100,0|0
385,190,14212,2,0,B|402:132|365:82,1,100,2|8
310,144,15142,2,0,B|274:109|217:110,1,100,0|8
226,189,16072,2,0,B|171:203|154:262,1,100,2|8
235,269,17002,6,0,B|442:269,2,200,0|2|0
236,188,19328,2,0,B|179:191|160:126,1,100,0|2
239,112,20258,2,0,B|351:112,2,100,0|0|8
256,190,21653,6,0,B|187:157|114:220|53:182,2,200
260,269,23978,2,0,B|261:379,2,100,8|0|8
317,213,25374,2,0,B|340:160|408:148,1,100,0|8
403,231,26305,6,0,B|468:230|493:296,2,100,0|8|0
323,231,27700,2,0,B|211:232,3,100,8|0|8|0
143,240,29560,2,0,B|82:274,2,50,8|0|0
223,243,30490,2,0,B|243:306|371:306|389:239,1,200,8|8
358,170,31886,6,0,B|358:58,1,100,0|8
281,93,32816,2,0,B|284:24,2,50,0|0|8
222,147,33746,2,0,B|134:148,2,75,0|8|8
356,295,35607,5,4
356,295,36072,2,0,B|257:302|257:302|148:296,1,200,0|0
191,224,37467,2,0,B|132:222|78:223,2,100,2|0|2
247,166,38863,1,0
247,166,39327,2,0,B|329:165|329:165|365:149|365:149|455:149,2,200,2|2|2
280,93,41653,2,0,B|218:93|218:93|159:68|159:68|78:68,1,200,0|0
93,147,43048,6,0,B|124:200|84:261,1,100,4|8
26,200,43978,2,0,B|236:200,1,200,0|2
306,202,45374,1,8
385,203,45839,1,0
385,203,46304,2,0,B|395:263|450:269,2,100,8|2|8
464,194,47700,2,0,B|463:83,1,100,0|8
385,111,48630,6,0,B|355:75|292:59,1,100,2|8
288,140,49560,2,4,B|235:141|210:177,2,75
405,145,50955,6,0,B|424:200|401:257,1,100,8|2
332,209,51886,2,0,B|310:263|339:308,1,100,8|2
403,261,52816,2,0,B|187:262,1,200,8|8
200,181,54211,6,0,B|146:185|90:182,2,100,2|8|2
194,101,55606,2,0,B|139:99|154:71|93:69,2,100,8|2|8
271,81,57002,2,0,B|376:80,1,100,0|10
343,155,57932,6,0,B|402:172|412:226,1,100,4|8
332,236,58862,2,0,B|332:344,2,100,0|8|2
254,255,60258,2,0,B|245:206|213:165,1,100,8|0
165,229,61188,2,0,B|125:185|78:180,1,100,8|2
67,259,62118,2,0,B|8:282|8:345,2,100,8|2|8
256,192,63513,12,4,65374
223,154,66305,6,0,B|142:124|64:185|13:141,2,200,2|2|0
300,136,68630,2,0,B|316:79|296:26,2,100,8|2|8
238,196,70025,2,0,B|175:230|175:335|256:370,1,200,0|6
304,313,71421,2,0,B|413:278,1,100,8|2
345,222,72351,6,0,B|441:192,2,100,8|4|8
292,162,73746,2,0,B|255:123|190:114,1,100,2|8
217,199,74676,2,0,B|115:169|2:200,2,200,2|2|4
251,271,77002,6,0,B|251:338,2,50,8|2|0
330,279,77933,2,0,B|326:229|331:163,1,100,8|0
409,180,78863,2,0,B|410:124,3,50,8|0|0|0
341,88,80025,1,8
256,192,80258,12,4,82583
161,197,83978,6,0,B|103:190|38:199,2,100,4|8|0
205,263,85374,2,0,B|258:268|314:263,2,100,8|0|8
153,324,86769,2,0,B|101:315|33:325,2,100,0|8|0
201,260,88165,6,0,B|317:255|420:261,1,200,8|8
372,185,89560,2,0,B|428:174|446:119,1,100,0|8
367,99,90490,2,0,B|341:58|271:53,1,100,0|8
293,133,91420,6,0,B|236:155|217:210,1,100,4|8
295,228,92351,2,0,B|363:230|363:230|417:252|417:252|489:251,2,200
321,303,94677,2,0,B|204:304,1,100,8|0
152,262,95607,1,8
221,221,96072,1,0
149,185,96537,2,0,B|148:155|150:112,1,50,8|0
263,171,97467,5,8
263,171,97932,1,0
263,171,98397,1,8
263,171,98863,6,0,B|261:226|329:240,1,100,6|8
402,227,99792,2,0,B|399:294,4,50,0|0|8|0|4
342,173,101188,1,0
411,133,101653,2,0,B|439:78,2,50,0|0|8
344,87,102583,6,0,B|290:99|230:87,1,100,2|8
217,162,103514,2,0,B|162:146|98:166,2,100,0|8|2
217,241,104909,2,0,B|215:296|220:357,2,100,8|0|8
215,160,106305,6,0,B|242:121|297:100,1,100,2|8
300,180,107235,2,0,B|407:154|510:191,2,200
305,259,109560,6,0,B|305:319|307:375,1,100,8|0
230,323,110490,2,0,B|232:279|229:211,1,100,8|0
193,151,111420,2,0,B|163:131|130:123,2,50,8|0|0
262,110,112351,2,0,B|297:109|297:109|339:118|339:118|376:116,2,100,8|0|8
292,183,113746,5,4
320,257,114212,1,8
244,284,114677,1,0
213,210,115141,1,8
132,210,115606,6,0,B|94:212|94:212|66:197|66:197|25:196,2,100,2|8|0
185,150,117002,2,0,B|385:151,1,200,8|8
399,229,118397,2,0,B|335:240|334:302,1,100,2|8
413,304,119327,6,0,B|242:303,2,150,2|0|8
476,254,121188,2,0,B|499:290|497:332|464:360,2,100,4|8|0
411,206,122583,2,0,B|385:186|385:137|413:112,1,100,8|0
475,161,123514,2,0,B|259:160,1,200,8|8
282,239,124909,6,0,B|178:239|209:313|83:314,2,200,0|0|4
256,192,127002,12,8,128630
