osu file format v12

[General]
AudioFilename: =w=.mp3
AudioLeadIn: 0
PreviewTime: 83048
Countdown: 0
SampleSet: Soft
StackLeniency: 0.7
Mode: 0
LetterboxInBreaks: 0
WidescreenStoryboard: 0

[Editor]
Bookmarks: 5839,128630
DistanceSpacing: 1
BeatDivisor: 4
GridSize: 4

[Metadata]
Title:eternal promise
TitleUnicode:eternal promise
Artist:Dreamy crown
ArtistUnicode:Dreamy crown
Creator:Sekai-nyan
Version:My Promise
Source:Endless Summer, Eternal Rhythm
Tags:Sekai eroge galgame opening Phi Age Owarinaki Natsu Towa Naru Shirabe 終わりなき夏 永遠なる音律
BeatmapID:277448
BeatmapSetID:105768

[Difficulty]
HPDrainRate:3
CircleSize:3
OverallDifficulty:3
ApproachRate:4
SliderMultiplier:1.3
SliderTickRate:1

[Events]
//Background and Video events
Video,0,"video.avi"
0,0,"BG.jpg",0,0
//Break Periods
//Storyboard Layer 0 (Background)
//Storyboard Layer 1 (Fail)
//Storyboard Layer 2 (Pass)
//Storyboard Layer 3 (Foreground)
//Storyboard Sound Samples
//Background Colour Transformations
3,100,163,162,255

[TimingPoints]
3979,465.116279069767,4,2,1,70,1,0
5839,-100,4,2,1,50,0,0
13281,-100,4,2,2,70,0,0
21188,-100,4,2,1,70,0,0
83978,-100,4,2,1,70,0,1
96769,-100,4,2,1,70,0,0
98862,-100,4,2,1,70,0,1
113746,-100,4,2,1,70,0,0

[Colours]
Combo1 : 255,153,204
Combo2 : 81,145,209
Combo3 : 0,255,255
Combo4 : 197,5,2
SliderBorder : 255,255,255

[HitObjects]
256,324,5839,2,0,P|276:252|252:192,1,130,4|2,0:0|0:0,0:0:0:0:
160,116,6769,1,0,0:0:0:0:
280,68,7234,2,0,L|420:68,2,130,2|0|2,0:0|0:0|0:0,0:0:0:0:
160,116,8630,2,0,P|136:168|168:244,1,130,0|2,0:0|0:0,0:0:0:0:
256,324,9560,5,2,0:0:0:0:
480,192,10490,1,2,0:0:0:0:
252,96,11420,2,0,P|68:144|252:168,1,520,2|4,0:0|0:0,0:0:0:0:
440,208,13978,5,2,0:0:0:0:
408,264,14211,2,0,P|368:300|280:304,1,130,0|2,0:0|0:0,0:0:0:0:
228,312,14909,1,8,0:0:0:0:
164,300,15141,2,0,P|120:220|168:116,2,195,8|0|2,0:0|0:0|0:0,0:0:0:0:
256,208,17002,5,4,0:0:0:0:
492,100,17932,2,0,P|476:52|484:4,2,97.5,2|2|8,0:0|0:0|0:0,0:0:0:0:
484,164,18862,2,0,P|502:224|288:148,1,520,4|4,0:0|0:0,0:0:0:0:
256,36,21188,5,8,0:0:0:0:
132,68,21653,2,0,P|88:112|92:192,1,130,2|8,0:0|0:0,0:0:0:0:
140,296,22583,2,0,P|184:252|180:172,1,130,2|8,0:0|0:0,0:0:0:0:
316,192,23513,1,2,0:0:0:0:
384,80,23978,2,0,P|392:120|428:156,1,65,8|0,0:0|0:0,0:0:0:0:
424,192,24444,6,0,P|436:253|410:320,1,130,4|8,0:0|0:0,0:0:0:0:
284,336,25374,1,2,0:0:0:0:
248,212,25839,1,8,0:0:0:0:
224,96,26304,6,0,P|168:80|140:48,2,97.5,4|2|0,0:0|0:0|0:0,0:0:0:0:
288,96,27234,2,0,P|344:104|384:136,2,97.5,4|2|0,0:0|0:0|0:0,0:0:0:0:
256,152,28165,2,0,P|224:240|284:328,2,195,4|2|8,0:0|0:0|0:0,0:0:0:0:
360,232,30025,5,4,0:0:0:0:
256,152,30490,1,8,0:0:0:0:
160,240,30955,1,2,0:0:0:0:
72,144,31420,2,0,P|56:76|88:16,1,130,8|4,0:0|0:0,0:0:0:0:
168,120,32351,6,0,P|184:188|152:248,1,130,8|4,0:0|0:0,0:0:0:0:
72,336,33281,2,0,P|123:365|208:343,1,130,8|4,0:0|0:0,0:0:0:0:
256,244,34211,2,0,L|256:180,1,65,8|4,0:0|0:0,0:0:0:0:
448,48,35606,6,0,P|492:140|444:216,2,195,4|0|2,0:0|0:0|0:0,0:0:0:0:
352,136,37467,1,0,0:0:0:0:
256,52,37932,2,0,P|204:92|128:88,1,130,2|0,0:0|0:0,0:0:0:0:
56,192,38862,2,0,L|96:252,1,65,2|0,0:0|0:0,0:0:0:0:
132,296,39327,6,0,P|180:328|260:320,1,130,0|2,0:0|0:0,0:0:0:0:
312,304,40025,1,0,0:0:0:0:
376,316,40258,2,0,P|424:307|486:337,2,97.5,0|2|0,0:0|0:0|0:0,0:0:0:0:
312,304,41188,2,0,P|303:255|333:193,2,97.5,0|2|0,0:0|0:0|0:0,0:0:0:0:
256,12,43048,6,0,P|204:64|80:60,2,195,0|0|2,0:0|0:0|0:0,0:0:0:0:
296,136,44909,2,0,P|348:84|472:88,2,195,0|0|2,0:0|0:0|0:0,0:0:0:0:
180,192,46769,5,0,0:0:0:0:
56,236,47234,2,0,L|56:308,2,65,2|0|0,0:0|0:0|0:0,0:0:0:0:
180,192,48165,2,0,L|180:120,2,65,2|0|4,0:0|0:0|0:0,0:0:0:0:
292,256,49095,1,8,0:0:0:0:
416,224,49560,2,0,P|440:184|436:120,2,97.5,4|4|4,0:0|0:0|0:0,0:0:0:0:
360,256,50490,5,4,0:0:0:0:
256,176,50955,1,8,0:0:0:0:
256,48,51420,2,0,B|292:64|340:40|392:48,2,130,2|8|2,0:0|0:0|0:0,0:0:0:0:
132,84,52816,6,0,L|80:136,1,65,8|0,0:0|0:0,0:0:0:0:
40,176,53281,1,2,0:0:0:0:
104,288,53746,1,8,0:0:0:0:
180,180,54211,6,0,P|248:164|312:196,1,130,4|8,0:0|0:0,0:0:0:0:
332,244,54909,1,0,0:0:0:0:
368,296,55141,2,0,P|428:320|484:316,2,97.5,2|2|0,0:0|0:0|0:0,0:0:0:0:
332,244,56072,2,0,L|256:316,2,97.5,4|2|0,0:0|0:0|0:0,0:0:0:0:
344,180,57002,1,2,0:0:0:0:
256,84,57467,1,8,0:0:0:0:
144,152,57932,6,0,P|112:244|168:320,2,195,4|0|8,0:0|0:0|0:0,0:0:0:0:
248,232,59792,2,0,P|280:140|224:64,2,195,2|0|8,0:0|0:0|0:0,0:0:0:0:
340,320,61653,5,4,0:0:0:0:
424,220,62118,2,0,L|440:152,2,65,8|0|2,0:0|0:0|0:0,0:0:0:0:
340,320,63048,1,8,0:0:0:0:
216,284,63513,2,0,L|104:284,2,97.5,4|4|4,0:0|0:0|0:0,0:0:0:0:
256,48,65374,6,0,L|132:48,2,97.5,4|2|0,0:0|0:0|0:0,0:0:0:0:
304,92,66304,2,0,L|412:92,2,97.5,0|2|0,0:0|0:0|0:0,0:0:0:0:
276,152,67234,2,0,L|172:152,2,97.5,0|2|0,0:0|0:0|0:0,0:0:0:0:
316,204,68165,2,0,P|356:260|332:332,1,130,0|8,0:0|0:0,0:0:0:0:
216,332,69095,6,0,L|100:332,2,97.5,4|2|0,0:0|0:0|0:0,0:0:0:0:
240,272,70025,2,0,L|340:272,2,97.5,0|2|0,0:0|0:0|0:0,0:0:0:0:
208,216,70955,2,0,L|104:216,2,97.5,4|4|4,0:0|0:0|0:0,0:0:0:0:
316,140,72118,2,0,L|372:96,1,65,0|2,0:0|0:0,0:0:0:0:
464,24,72816,5,4,0:0:0:0:
240,160,73746,1,0,0:0:0:0:
436,332,74676,5,4,0:0:0:0:
308,332,75141,1,8,0:0:0:0:
372,220,75606,1,4,0:0:0:0:
308,332,76072,1,8,0:0:0:0:
204,256,76537,6,0,P|136:244|68:344,2,195,4|0|8,0:0|0:0|0:0,0:0:0:0:
204,128,78397,2,0,P|136:140|68:40,2,195,4|0|8,0:0|0:0|0:0,0:0:0:0:
336,116,80258,6,0,L|408:116,1,65,2|4,0:0|0:0,0:0:0:0:
484,216,80955,2,0,L|419:216,1,65,2|4,0:0|0:0,0:0:0:0:
348,324,81653,2,0,L|413:324,1,65,2|4,0:0|0:0,0:0:0:0:
484,216,82351,1,4,0:0:0:0:
484,152,82583,1,4,0:0:0:0:
388,64,83048,2,0,P|324:76|244:36,1,130
136,48,83978,6,0,P|112:116|144:184,1,130,4|8,0:0|0:0,0:0:0:0:
128,300,84909,1,2,0:0:0:0:
248,256,85374,2,0,P|316:232|384:264,1,130,8|2,0:0|0:0,0:0:0:0:
488,300,86304,1,8,0:0:0:0:
448,176,86769,2,0,P|452:108|420:56,2,130,2|8|4,0:0|0:0|0:0,0:0:0:0:
400,296,88165,6,0,L|332:320,1,65,8|0,0:0|0:0,0:0:0:0:
276,332,88630,2,0,P|216:336|156:296,1,130,2|8,0:0|0:0,0:0:0:0:
104,272,89327,1,0,0:0:0:0:
96,208,89560,2,0,P|124:100|68:24,2,195,4|0|8,0:0|0:0|0:0,0:0:0:0:
224,192,91420,5,4,0:0:0:0:
316,100,91885,2,0,P|364:68|452:72,2,130,8|2|8,0:0|0:0|0:0,0:0:0:0:
408,192,93281,2,0,P|360:224|272:220,2,130,4|8|2,0:0|0:0|0:0,0:0:0:0:
492,292,94676,1,8,0:0:0:0:
368,328,95141,6,0,B|300:344|240:320|240:320|168:276|104:320,1,260,4|4,0:0|0:0,0:0:0:0:
36,212,96537,2,0,L|36:140,1,65,8|4,0:0|0:0,0:0:0:0:
228,128,97467,2,0,P|280:152|352:116,1,130,8|2,0:0|0:0,0:0:0:0:
404,12,98397,1,8,0:0:0:0:
468,124,98862,6,0,P|500:160|488:252,1,130,4|8,0:0|0:0,0:0:0:0:
380,292,99792,1,2,0:0:0:0:
280,208,100258,2,0,P|220:188|144:220,1,130,8|2,0:0|0:0,0:0:0:0:
76,308,101188,2,0,P|52:264|60:228,1,65,8|0,0:0|0:0,0:0:0:0:
56,184,101653,2,0,P|60:132|48:104,1,65,2|0,0:0|0:0,0:0:0:0:
48,56,102118,1,8,0:0:0:0:
176,52,102583,6,0,B|224:72|260:36|312:52,2,130,4|8|2,0:0|0:0|0:0,0:0:0:0:
256,152,103978,1,8,0:0:0:0:
148,232,104444,2,0,P|256:296|360:216,2,260,4|4|4,0:0|0:0|0:0,0:0:0:0:
256,152,106769,5,8,0:0:0:0:
132,124,107234,2,0,P|80:112|8:148,2,130,2|8|4,0:0|0:0|0:0,0:0:0:0:
232,40,108630,1,8,0:0:0:0:
360,40,109095,1,2,0:0:0:0:
468,112,109560,2,0,P|476:152|472:188,1,65,8|0,0:0|0:0,0:0:0:0:
444,232,110025,6,0,P|416:292|444:364,1,130,4|8,0:0|0:0,0:0:0:0:
308,312,110955,2,0,P|292:344|260:372,2,65,2|2|8,0:0|0:0|0:0,0:0:0:0:
312,248,111653,1,4,0:0:0:0:
220,204,112118,5,4,0:0:0:0:
220,204,112351,2,0,P|216:152|288:252,1,390,4|4,0:0|0:0,0:0:0:0:
408,340,114211,6,0,P|456:304|484:232,2,130,8|2|8,0:0|0:0|0:0,0:0:0:0:
368,216,115606,2,0,P|320:252|292:324,2,130,2|8|2,0:0|0:0|0:0,0:0:0:0:
436,132,117002,2,0,P|372:108|300:124,1,130,8|4,0:0|0:0,0:0:0:0:
212,36,117932,5,8,0:0:0:0:
116,124,118397,2,0,P|64:148|24:208,1,130,4|8,0:0|0:0,0:0:0:0:
136,272,119327,2,0,B|172:300|192:280|240:304,2,97.5,4|2|0,0:0|0:0|0:0,0:0:0:0:
136,208,120258,2,0,B|172:180|192:200|240:176,2,97.5,4|2|0,0:0|0:0|0:0,0:0:0:0:
136,272,121188,5,4,0:0:0:0:
32,188,121653,1,8,0:0:0:0:
136,108,122118,1,2,0:0:0:0:
240,188,122583,1,8,0:0:0:0:
328,92,123048,6,0,P|384:96|440:52,2,130,4|8|4,0:0|0:0|0:0,0:0:0:0:
240,188,124444,1,8,0:0:0:0:
364,228,124909,2,0,P|416:296|360:384,2,195,4|0|8,0:0|0:0|0:0,0:0:0:0:
240,188,126769,5,4,0:0:0:0:
256,192,127002,12,8,128630,0:0:0:0:
