osu file format v12

[General]
AudioFilename: =w=.mp3
AudioLeadIn: 0
PreviewTime: 83048
Countdown: 0
SampleSet: Soft
StackLeniency: 0.7
Mode: 0
LetterboxInBreaks: 0
WidescreenStoryboard: 0

[Editor]
Bookmarks: 128630
DistanceSpacing: 1
BeatDivisor: 4
GridSize: 4

[Metadata]
Title:eternal promise
TitleUnicode:eternal promise
Artist:Dreamy crown
ArtistUnicode:Dreamy crown
Creator:Sekai-nyan
Version:My Love
Source:Endless Summer, Eternal Rhythm
Tags:Sekai eroge galgame opening Phi Age Owarinaki Natsu Towa Naru Shirabe 終わりなき夏 永遠なる音律
BeatmapID:277447
BeatmapSetID:105768

[Difficulty]
HPDrainRate:6
CircleSize:4
OverallDifficulty:6
ApproachRate:7
SliderMultiplier:1.6
SliderTickRate:1

[Events]
//Background and Video events
Video,0,"video.avi"
0,0,"BG.jpg",0,0
//Break Periods
//Storyboard Layer 0 (Background)
//Storyboard Layer 1 (Fail)
//Storyboard Layer 2 (Pass)
//Storyboard Layer 3 (Foreground)
//Storyboard Sound Samples
//Background Colour Transformations
3,100,163,162,255

[TimingPoints]
3979,465.116279069767,4,2,1,70,1,0
5839,-100,4,2,1,50,0,0
13281,-100,4,2,2,70,0,0
21188,-100,4,2,1,70,0,0
83978,-100,4,2,1,70,0,1
96769,-100,4,2,1,70,0,0
98862,-100,4,2,1,70,0,1
113746,-100,4,2,1,70,0,0

[Colours]
Combo1 : 255,153,204
Combo2 : 81,145,209
Combo3 : 0,255,255
Combo4 : 197,5,2
SliderBorder : 255,255,255

[HitObjects]
92,336,5839,2,0,P|64:260|104:176,1,160,4|2,0:0|0:0,0:0:0:0:
184,60,6769,1,0,0:0:0:0:
276,188,7234,2,0,P|302:258|274:334,2,160,2|0|2,0:0|0:0|0:0,0:0:0:0:
368,60,8630,1,0,0:0:0:0:
276,188,9095,1,2,0:0:0:0:
404,284,9560,6,0,B|392:224|456:196|432:112,2,160,0|2|0,0:0|0:0|0:0,0:0:0:0:
256,348,10955,2,0,L|84:348,2,160,2|0|2,0:0|0:0|0:0,0:0:0:0:
256,348,12351,1,0,0:0:0:0:
256,232,12583,5,2,0:0:0:0:
256,212,12699,1,0,0:0:0:0:
256,192,12816,1,0,1:0:0:0:
256,172,12932,1,0,0:0:0:0:
256,152,13048,1,0,0:0:0:0:
256,132,13165,1,0,0:0:0:0:
256,112,13281,5,4,0:0:0:0:
216,44,13513,1,0,0:0:0:0:
152,96,13746,2,0,B|112:88|84:124|84:124|48:144|-12:124,2,160,2|0|2,0:0|0:0|0:0,0:0:0:0:
216,44,14909,1,8,0:0:0:0:
248,24,15025,1,0,0:0:0:0:
288,28,15141,5,4,0:0:0:0:
364,52,15374,1,0,0:0:0:0:
368,132,15606,2,0,P|368:212|436:252,1,160,2|0,0:0|0:0,0:0:0:0:
440,172,16304,1,0,0:0:0:0:
368,132,16537,2,0,B|312:144|284:128|284:128|248:108|204:128,1,160,2|4,0:0|0:0,0:0:0:0:
240,200,17234,5,0,0:0:0:0:
160,192,17467,2,0,P|124:156|124:108,1,80
96,96,17816,1,0,0:0:0:0:
96,96,17932,5,2,0:0:0:0:
16,208,18281,1,2,0:0:0:0:
112,316,18630,1,8,0:0:0:0:
112,316,18862,1,4,0:0:0:0:
256,192,18978,12,4,20723,0:0:0:0:
352,292,21188,6,0,P|352:244|364:215,1,80,8|0,0:0|0:0,0:0:0:0:
456,112,21653,1,2,0:0:0:0:
440,192,21885,1,0,0:0:0:0:
380,136,22118,2,0,L|288:136,1,80,8|0,0:0|0:0,0:0:0:0:
252,76,22583,6,0,P|224:120|276:212,1,160,4|8,0:0|0:0,0:0:0:0:
380,136,23281,1,0,0:0:0:0:
444,88,23513,1,2,0:0:0:0:
380,36,23746,1,0,0:0:0:0:
252,76,23978,2,0,P|212:92|144:76,1,80,8|0,0:0|0:0,0:0:0:0:
136,76,24327,1,0,0:0:0:0:
136,76,24444,5,4,0:0:0:0:
52,124,24676,1,0,0:0:0:0:
52,124,24792,1,0,0:0:0:0:
52,124,24909,2,0,B|40:176|56:204|56:204|72:248|48:292,1,160,8|2,0:0|0:0,0:0:0:0:
108,336,25606,1,0,0:0:0:0:
160,276,25839,1,8,0:0:0:0:
212,336,26072,1,0,0:0:0:0:
236,304,26188,1,0,0:0:0:0:
256,272,26304,6,0,P|304:236|312:160,2,120,4|2|0,0:0|0:0|0:0,0:0:0:0:
388,144,27234,2,0,P|344:108|264:120,2,120,4|2|0,0:0|0:0|0:0,0:0:0:0:
456,188,28165,5,4,0:0:0:0:
428,264,28397,1,0,0:0:0:0:
428,264,28513,1,0,0:0:0:0:
428,264,28630,2,0,P|384:300|288:264,1,160,8|2,0:0|0:0,0:0:0:0:
256,200,29327,1,0,0:0:0:0:
196,144,29560,2,0,P|128:108|48:144,1,160,8|4,0:0|0:0,0:0:0:0:
256,200,30258,5,0,0:0:0:0:
316,144,30490,2,0,P|384:108|457:136,2,160,8|2|8,0:0|0:0|0:0,0:0:0:0:
256,200,31653,1,0,0:0:0:0:
196,252,31885,6,0,P|160:292|160:344,1,80,4|0,0:0|0:0,0:0:0:0:
256,200,32351,2,0,P|240:150|204:125,1,80,8|0,0:0|0:0,0:0:0:0:
288,280,32816,2,0,P|324:289|372:267,1,80,4|0,0:0|0:0,0:0:0:0:
436,148,33281,2,0,P|401:125|379:80,1,80,8|0,0:0|0:0,0:0:0:0:
256,28,33746,6,0,L|256:160,1,120,4|0,0:0|0:0,0:0:0:0:
256,200,34211,1,8,0:0:0:0:
256,200,34444,1,4,0:0:0:0:
256,200,35606,6,0,B|204:216|144:172|80:204,1,160,4|2,0:0|0:0,0:0:0:0:
124,272,36304,1,0,0:0:0:0:
44,264,36537,2,0,P|12:196|60:124,1,160,0|2,0:0|0:0,0:0:0:0:
100,60,37234,1,0,0:0:0:0:
168,100,37467,2,0,B|256:100|256:100|344:56,2,160,0|2|0,0:0|0:0|0:0,0:0:0:0:
256,236,38862,5,2,0:0:0:0:
324,196,39095,1,0,0:0:0:0:
384,248,39327,2,0,P|424:288|396:388,1,160,0|2,0:0|0:0,0:0:0:0:
384,248,40025,5,0,0:0:0:0:
396,168,40258,2,0,P|328:120|256:156,1,160,0|2,0:0|0:0,0:0:0:0:
200,96,40955,1,0,0:0:0:0:
144,152,41188,6,0,P|104:184|24:180,2,120,2|2|2,0:0|0:0|0:0,0:0:0:0:
200,96,42118,1,0,0:0:0:0:
328,192,42583,1,2,0:0:0:0:
384,136,42816,1,0,0:0:0:0:
412,164,42932,1,0,0:0:0:0:
432,200,43048,6,0,B|472:264|384:324|444:368,2,160,0|2|0,0:0|0:0|0:0,0:0:0:0:
384,136,44211,1,0,0:0:0:0:
384,136,44327,1,0,0:0:0:0:
384,136,44444,2,0,P|352:108|296:104,1,80,2|0,0:0|0:0,0:0:0:0:
268,36,44909,6,0,P|304:92|276:184,1,160,0|2,0:0|0:0,0:0:0:0:
224,232,45606,1,0,0:0:0:0:
148,212,45839,2,0,P|84:212|36:300,1,160,0|2,0:0|0:0,0:0:0:0:
148,212,46537,5,0,0:0:0:0:
120,288,46769,2,0,P|144:308|208:304,1,80
260,356,47234,1,2,0:0:0:0:
300,288,47467,1,0,0:0:0:0:
260,356,47699,1,0,0:0:0:0:
236,240,47932,1,0,0:0:0:0:
340,356,48165,2,0,P|380:360|424:328,1,80,2|0,0:0|0:0,0:0:0:0:
460,276,48630,2,0,P|472:240|507:198,1,80,4|0,0:0|0:0,0:0:0:0:
336,192,49327,5,0,0:0:0:0:
336,192,49444,1,0,0:0:0:0:
336,192,49560,1,4,0:0:0:0:
404,72,49792,1,0,0:0:0:0:
404,72,49909,1,4,0:0:0:0:
476,192,50141,1,0,0:0:0:0:
476,192,50258,1,8,0:0:0:0:
476,192,50490,1,4,0:0:0:0:
184,284,50955,6,0,P|148:308|92:308,1,80,8|0,0:0|0:0,0:0:0:0:
256,308,51420,2,0,P|256:256|224:224,1,80,2|0,0:0|0:0,0:0:0:0:
212,208,51769,1,0,0:0:0:0:
212,208,51885,1,8,0:0:0:0:
144,144,52118,5,0,0:0:0:0:
144,144,52351,2,0,P|220:116|300:176,1,160,2|8,0:0|0:0,0:0:0:0:
304,228,53048,1,0,0:0:0:0:
304,228,53281,1,2,0:0:0:0:
444,336,53513,2,0,P|460:284|448:244,1,80,0|8,0:0|0:0,0:0:0:0:
496,192,53978,6,0,P|448:180|408:200,1,80,0|2,0:0|0:0,0:0:0:0:
372,124,54444,1,0,0:0:0:0:
312,72,54676,2,0,P|280:52|212:72,2,80,8|0|2,0:0|0:0|0:0,0:0:0:0:
292,152,55374,1,0,0:0:0:0:
372,124,55606,2,0,P|392:80|384:36,1,80,8|0,0:0|0:0,0:0:0:0:
292,152,56072,6,0,P|264:232|320:300,1,160,2|8,0:0|0:0,0:0:0:0:
352,220,56769,2,0,B|316:204|272:224|272:224|232:248|180:220,1,160
120,232,57467,1,8,0:0:0:0:
68,172,57699,5,0,0:0:0:0:
68,172,57816,1,2,0:0:0:0:
68,172,57932,2,0,P|60:132|88:68,1,80,4|0,0:0|0:0,0:0:0:0:
120,232,58397,2,0,P|144:276|144:316,1,80,8|0,0:0|0:0,0:0:0:0:
68,172,58862,2,0,P|128:152|200:220,1,160,2|8,0:0|0:0,0:0:0:0:
256,260,59560,1,0,0:0:0:0:
300,192,59792,6,0,B|376:164|376:164|456:196,1,160,2|8,0:0|0:0,0:0:0:0:
448,336,60490,2,0,B|374:365|374:365|298:337,1,160,2|8,0:0|0:0,0:0:0:0:
272,260,61188,1,0,0:0:0:0:
220,324,61420,1,0,0:0:0:0:
180,316,61537,1,0,0:0:0:0:
144,336,61653,5,2,0:0:0:0:
84,284,61885,1,0,0:0:0:0:
108,208,62118,2,0,P|104:166|121:125,1,80,8|0,0:0|0:0,0:0:0:0:
188,96,62583,2,0,P|156:60|92:56,2,80,2|0|8,0:0|0:0|0:0,0:0:0:0:
228,168,63281,1,0,0:0:0:0:
268,100,63513,6,0,B|316:88|345:103|345:103|384:124|436:108,1,160,4|8,0:0|0:0,0:0:0:0:
396,28,64211,2,0,L|396:200,1,160,4|0,0:0|0:0,0:0:0:0:
396,268,64909,1,8,0:0:0:0:
260,352,65374,6,0,P|224:328|212:244,2,120,4|2|0,0:0|0:0|0:0,0:0:0:0:
260,32,66304,2,0,P|212:68|212:140,2,120,0|2|0,0:0|0:0|0:0,0:0:0:0:
372,160,67234,2,0,P|332:116|268:104,2,120,0|2|0,0:0|0:0|0:0,0:0:0:0:
372,244,68165,1,0,0:0:0:0:
304,288,68397,1,2,0:0:0:0:
304,288,68513,1,0,0:0:0:0:
304,288,68630,1,8,0:0:0:0:
232,256,68862,1,0,0:0:0:0:
168,300,69095,6,0,P|112:328|48:312,2,120,4|2|0,0:0|0:0|0:0,0:0:0:0:
92,196,70025,2,0,P|148:168|212:184,2,120,0|2|0,0:0|0:0|0:0,0:0:0:0:
260,240,70955,2,0,P|284:184|256:120,2,120,4|4|4,0:0|0:0|0:0,0:0:0:0:
256,320,71885,1,0,0:0:0:0:
328,352,72118,1,2,0:0:0:0:
328,352,72234,1,0,0:0:0:0:
328,352,72351,1,8,0:0:0:0:
400,316,72583,1,0,0:0:0:0:
392,236,72816,6,0,P|380:192|424:128,1,120,4|0,0:0|0:0,0:0:0:0:
444,104,73281,1,8,0:0:0:0:
332,28,73513,1,0,0:0:0:0:
332,28,73630,1,0,0:0:0:0:
332,28,73746,2,0,P|296:96|228:96,1,120,0|0,0:0|0:0,0:0:0:0:
220,104,74211,2,0,L|128:104,1,80,8|0,0:0|0:0,0:0:0:0:
84,192,74676,5,4,0:0:0:0:
256,364,75141,1,8,0:0:0:0:
428,192,75606,1,4,0:0:0:0:
256,20,76072,1,8,0:0:0:0:
216,88,76304,1,0,0:0:0:0:
296,88,76537,6,0,L|336:164,1,80,4|0,0:0|0:0,0:0:0:0:
428,192,77002,1,8,0:0:0:0:
296,308,77234,2,0,L|336:232,1,80,0|4,0:0|0:0,0:0:0:0:
256,196,77699,1,0,0:0:0:0:
256,196,77816,1,0,0:0:0:0:
256,196,77932,1,8,0:0:0:0:
184,160,78165,1,0,0:0:0:0:
124,212,78397,6,0,B|96:248|112:288|112:288|124:336|76:368,1,160,4|8,0:0|0:0,0:0:0:0:
192,260,79095,1,0,0:0:0:0:
184,160,79327,2,0,P|144:136|88:148,1,80,0|0,0:0|0:0,0:0:0:0:
256,196,79792,2,0,P|296:220|340:208,1,80,8|0,0:0|0:0,0:0:0:0:
252,112,80258,5,2,0:0:0:0:
252,112,80490,1,6,0:0:0:0:
412,112,80955,5,2,0:0:0:0:
412,112,81188,1,6,0:0:0:0:
344,256,81653,5,2,0:0:0:0:
344,256,81885,1,6,0:0:0:0:
252,112,82351,5,6,0:0:0:0:
252,112,82583,1,6,0:0:0:0:
112,192,83048,1,0,0:0:0:0:
256,260,83513,1,0,0:0:0:0:
432,352,83978,6,0,P|460:288|424:208,1,160,4|8,0:0|0:0,0:0:0:0:
472,144,84676,1,0,0:0:0:0:
420,84,84909,1,2,0:0:0:0:
346,209,85141,2,0,L|426:209,1,80,0|8,0:0|0:0,0:0:0:0:
296,140,85606,5,0,0:0:0:0:
296,140,85723,1,0,0:0:0:0:
296,140,85839,2,0,P|264:212|308:288,1,160,4|8,0:0|0:0,0:0:0:0:
236,340,86537,1,0,0:0:0:0:
160,364,86769,1,2,0:0:0:0:
108,304,87002,2,0,P|84:260|58:248,1,80,0|8,0:0|0:0,0:0:0:0:
20,316,87467,1,0,0:0:0:0:
20,316,87583,1,0,0:0:0:0:
20,316,87699,6,0,P|56:268|24:176,1,160,4|8,0:0|0:0,0:0:0:0:
60,64,88397,1,0,0:0:0:0:
132,96,88630,2,0,P|184:108|216:92,1,80,2|0,0:0|0:0,0:0:0:0:
268,152,89095,2,0,P|288:112|272:64,1,80,8|0,0:0|0:0,0:0:0:0:
184,184,89560,2,0,B|172:232|196:260|196:260|224:304|192:356,1,160,4|8,0:0|0:0,0:0:0:0:
56,304,90258,1,0,0:0:0:0:
56,304,90374,1,0,0:0:0:0:
56,304,90490,2,0,L|144:304,1,80,2|0,0:0|0:0,0:0:0:0:
256,340,90955,1,8,0:0:0:0:
384,280,91188,5,0,0:0:0:0:
384,280,91304,1,0,0:0:0:0:
384,280,91420,2,0,P|384:212|364:184,2,80,4|0|8,0:0|0:0|0:0,0:0:0:0:
460,188,92118,1,0,0:0:0:0:
420,116,92351,2,0,P|380:104|340:120,1,80,2|0,0:0|0:0,0:0:0:0:
264,116,92816,1,8,0:0:0:0:
212,56,93048,1,0,0:0:0:0:
164,124,93281,6,0,B|120:192|120:192|156:272,1,160,4|8,0:0|0:0,0:0:0:0:
348,124,93978,2,0,B|392:192|392:192|356:272,1,160,4|8,0:0|0:0,0:0:0:0:
292,192,94676,1,0,0:0:0:0:
292,192,94909,2,0,L|464:192,1,160,4|0,0:0|0:0,0:0:0:0:
292,192,95606,1,8,0:0:0:0:
260,264,95839,2,0,P|269:307|303:333,1,80,0|4,0:0|0:0,0:0:0:0:
216,200,96304,2,0,P|206:156|172:130,1,80,0|8,0:0|0:0,0:0:0:0:
108,100,96769,1,4,0:0:0:0:
108,100,97234,5,0,0:0:0:0:
108,100,97467,1,12,0:0:0:0:
256,36,97932,1,2,0:0:0:0:
256,196,98397,1,8,0:0:0:0:
444,120,98862,6,0,P|416:192|488:264,1,160,4|8,0:0|0:0,0:0:0:0:
496,180,99560,1,0,0:0:0:0:
444,120,99792,1,2,0:0:0:0:
364,116,100025,1,0,0:0:0:0:
364,116,100141,1,0,0:0:0:0:
364,116,100258,2,0,P|316:112|280:80,1,80,8|0,0:0|0:0,0:0:0:0:
256,20,100723,6,0,L|256:188,1,160,4|8,0:0|0:0,0:0:0:0:
204,240,101420,1,0,0:0:0:0:
256,300,101653,1,2,0:0:0:0:
308,240,101885,1,0,0:0:0:0:
204,240,102118,2,0,L|152:308,1,80,8|0,0:0|0:0,0:0:0:0:
308,240,102583,6,0,L|364:300,1,80,4|0,0:0|0:0,0:0:0:0:
252,176,103048,2,0,P|200:160|132:216,1,120,8|0,0:0|0:0,0:0:0:0:
120,220,103513,1,2,0:0:0:0:
60,164,103746,1,0,0:0:0:0:
60,164,103862,1,0,0:0:0:0:
60,164,103978,2,0,L|60:80,1,80,8|0,0:0|0:0,0:0:0:0:
120,220,104444,6,0,L|120:308,1,80,4|0,0:0|0:0,0:0:0:0:
40,304,104909,2,0,B|76:320|117:303|117:303|172:292|220:304,1,160,8|4,0:0|0:0,0:0:0:0:
260,352,105606,1,0,0:0:0:0:
288,276,105839,2,0,P|296:208|276:176,1,80,8|0,0:0|0:0,0:0:0:0:
272,164,106188,1,0,0:0:0:0:
272,164,106304,6,0,P|252:92|300:16,1,160,4|8,0:0|0:0,0:0:0:0:
372,28,107002,1,0,0:0:0:0:
380,108,107234,2,0,P|376:156|400:188,1,80,2|0,0:0|0:0,0:0:0:0:
464,216,107699,1,8,0:0:0:0:
464,216,107816,1,0,0:0:0:0:
464,216,107932,2,0,P|428:256|388:256,1,80,0|4,0:0|0:0,0:0:0:0:
368,332,108397,5,0,0:0:0:0:
308,280,108630,2,0,L|264:200,1,80,8|0,0:0|0:0,0:0:0:0:
228,136,109095,1,2,0:0:0:0:
152,280,109327,2,0,L|196:200,1,80,0|8,0:0|0:0,0:0:0:0:
228,136,109792,1,0,0:0:0:0:
168,80,110025,6,0,P|128:56|20:92,2,160,4|8|2,0:0|0:0|0:0,0:0:0:0:
228,136,111188,1,4,0:0:0:0:
284,80,111420,1,8,0:0:0:0:
344,132,111653,1,4,0:0:0:0:
288,188,111885,6,0,P|280:252|364:316,1,160,0|8,0:0|0:0,0:0:0:0:
344,132,112583,1,0,0:0:0:0:
288,188,112816,1,2,0:0:0:0:
344,132,113048,2,0,P|392:108|408:72,1,80,0|8,0:0|0:0,0:0:0:0:
420,277,113513,2,0,P|408:256|360:232,1,80,0|4,0:0|0:0,0:0:0:0:
288,188,113978,5,0,0:0:0:0:
232,132,114211,1,8,0:0:0:0:
184,196,114444,1,0,0:0:0:0:
184,196,114560,1,0,0:0:0:0:
184,196,114676,2,0,P|132:176|52:252,1,160,0|8,0:0|0:0,0:0:0:0:
132,256,115374,1,0,0:0:0:0:
192,308,115606,5,4,0:0:0:0:
244,248,115839,2,0,P|292:240|336:256,1,80,0|0,0:0|0:0,0:0:0:0:
360,260,116188,1,0,0:0:0:0:
360,260,116304,1,0,0:0:0:0:
352,168,116537,2,0,P|336:116|344:84,1,80
352,52,116885,1,0,0:0:0:0:
352,52,117002,1,8,0:0:0:0:
284,12,117234,1,0,0:0:0:0:
224,64,117467,6,0,P|168:92|88:84,1,120,4|0,0:0|0:0,0:0:0:0:
72,84,117932,1,8,0:0:0:0:
36,156,118165,1,0,0:0:0:0:
84,220,118397,2,0,P|95:272|77:303,1,80,4|0,0:0|0:0,0:0:0:0:
36,156,118862,5,8,0:0:0:0:
116,148,119095,1,0,0:0:0:0:
176,204,119327,2,0,P|224:224|284:200,2,120,4|0|0,0:0|0:0|0:0,0:0:0:0:
336,144,120258,2,0,P|288:124|224:148,2,120,4|0|0,0:0|0:0|0:0,0:0:0:0:
392,200,121188,6,0,P|424:232|476:240,1,80,4|0,0:0|0:0,0:0:0:0:
336,144,121653,2,0,P|376:120|420:128,1,80,8|0,0:0|0:0,0:0:0:0:
300,216,122118,2,0,P|268:188|260:144,1,80,0|0,0:0|0:0,0:0:0:0:
284,76,122583,2,0,P|236:72|196:100,1,80,8|0,0:0|0:0,0:0:0:0:
48,176,123048,6,0,L|48:264,1,80,4|0,0:0|0:0,0:0:0:0:
124,188,123513,2,0,L|124:104,1,80,8|0,0:0|0:0,0:0:0:0:
200,188,123978,2,0,L|232:216,3,40,4|0|0|0,0:0|0:0|0:0|0:0,0:0:0:0:
264,240,124444,2,0,L|300:264,3,40,8|0|0|0,0:0|0:0|0:0|0:0,0:0:0:0:
332,284,124909,6,0,B|376:300|408:280|408:280|448:256|500:276,1,160,4|8,0:0|0:0,0:0:0:0:
452,344,125606,2,0,L|452:176,1,160
404,120,126304,1,8,0:0:0:0:
340,68,126537,1,0,0:0:0:0:
280,120,126769,6,0,L|248:152,3,40,4|0|0|0,0:0|0:0|0:0|0:0,0:0:0:0:
224,180,127234,2,0,L|180:224,3,40,8|0|0|0,0:0|0:0|0:0|0:0,0:0:0:0:
168,236,127699,2,0,L|140:260,16,20,4|0|0|0|0|0|0|0|8|0|0|0|0|0|0|0|8,0:0|0:0|0:0|0:0|0:0|0:0|0:0|0:0|0:0|0:0|0:0|0:0|0:0|0:0|0:0|0:0|0:0,0:0:0:0:
