osu file format v13

[General]
AudioFilename: World Of Warcraft-the dawn.mp3
AudioLeadIn: 0
PreviewTime: 96204
Countdown: 0
SampleSet: None
StackLeniency: 0.7
Mode: 0
LetterboxInBreaks: 0
EpilepsyWarning: 1
WidescreenStoryboard: 0

[Editor]
DistanceSpacing: 1.4
BeatDivisor: 4
GridSize: 8
TimelineZoom: 1

[Metadata]
Title:The Dawn
TitleUnicode:The Dawn
Artist:Dreamtale
ArtistUnicode:Dreamtale
Creator:384059043
Version:Beginner
Source:
Tags:Beyond Reality Hans Zimmer The Rock Power Metal
BeatmapID:420386
BeatmapSetID:135972

[Difficulty]
HPDrainRate:2
CircleSize:2
OverallDifficulty:2
ApproachRate:3
SliderMultiplier:1.4
SliderTickRate:2

[Events]
//Background and Video events
0,0,"BG.jpg",0,0
//Break Periods
//Storyboard Layer 0 (Background)
//Storyboard Layer 1 (Fail)
//Storyboard Layer 2 (Pass)
//Storyboard Layer 3 (Foreground)
//Storyboard Sound Samples
//Background Colour Transformations
3,100,163,162,255

[TimingPoints]
413,749.063670411985,4,2,0,40,1,0
24383,-100,4,2,0,40,0,0
35618,759.493670886076,4,2,0,40,1,0
36377,750.187546886722,4,2,0,40,1,0
44629,-100,4,2,0,50,0,0
45394,754.716981132075,4,1,2,75,1,0
45394,-100,4,2,0,75,0,0
47658,-100,4,2,0,75,0,0
48395,750.187546886722,4,2,0,75,1,1
48395,-83.3333333333333,4,2,0,70,0,1
48582,-83.3333333333333,4,2,0,70,0,0
55146,-83.3333333333333,4,2,0,70,0,0
55896,-83.3333333333333,4,2,0,70,0,0
58897,-83.3333333333333,4,2,0,70,0,0
59272,-83.3333333333333,4,2,0,70,0,0
69400,-83.3333333333333,4,2,0,70,0,0
69962,-83.3333333333333,4,2,0,70,0,0
70900,-83.3333333333333,4,2,0,80,0,0
71650,-83.3333333333333,4,2,0,80,0,0
72401,-83.3333333333333,4,3,0,80,0,1
72588,-83.3333333333333,4,3,0,80,0,0
93406,-83.3333333333333,4,2,0,80,0,0
96407,-83.3333333333333,4,1,2,80,0,1
116647,740.740740740741,4,1,2,80,1,1
117387,857.142857142857,4,2,1,60,1,1
120815,-100,4,2,0,40,0,1
121672,-100,4,2,0,20,0,1
122101,-100,4,2,0,10,0,0

[Colours]
Combo1 : 255,128,0
Combo2 : 0,128,192
Combo3 : 0,0,255
Combo4 : 200,200,255
Combo5 : 0,64,128
Combo6 : 255,0,0

[HitObjects]
40,80,24383,6,0,P|24:152|40:216,1,140,2|2,0:0|0:0,0:0:0:0:
120,272,25506,2,0,L|192:288,1,70,2|2,0:0|0:0,0:0:0:0:
392,272,26630,2,0,L|320:288,1,70,0|2,0:0|0:0,0:0:0:0:
256,216,27379,6,0,P|240:104|224:88,1,140,2|0,0:0|0:0,0:0:0:0:
168,168,28502,1,2,0:0:0:0:
176,264,28877,2,0,P|224:304|320:288,2,140,2|0|2,0:0|0:0|0:0,0:0:0:0:
96,80,31124,5,2,0:0:0:0:
256,192,31873,1,2,0:0:0:0:
256,192,32997,6,0,P|264:240|264:272,1,70,2|2,0:0|0:0,0:0:0:0:
72,312,34120,1,2,0:0:0:0:
48,112,34869,2,0,P|112:96|192:120,1,140,2|0,0:0|0:0,0:0:0:0:
329,269,36377,38,0,P|396:287|464:272,1,140,2|2,0:0|0:0,0:0:0:0:
504,184,37502,2,0,L|512:104,1,70,2|2,0:0|0:0,0:0:0:0:
320,192,38627,2,0,L|312:272,2,70,0|2|2,0:0|0:0|0:0,0:0:0:0:
128,240,40127,5,2,0:0:0:0:
80,152,40503,2,0,L|88:72,1,70,2|2,0:0|0:0,0:0:0:0:
256,192,41628,1,2,0:0:0:0:
448,200,42378,6,0,P|416:264|216:272,1,280,2|2,0:0|0:0,0:0:0:0:
128,112,44629,2,0,L|120:32,1,70,2|2,0:0|0:0,0:0:0:0:
216,40,45394,6,0,B|240:24|280:24|312:40|336:72|336:72|432:56,2,210,4|4|4,0:0|0:0|0:0,0:0:0:0:
0,88,48395,37,4,0:0:0:0:
24,304,49145,1,0,1:0:0:0:
104,224,49520,2,0,P|144:200|192:184,1,83.9999974365235,0|2,0:0|0:0,0:0:0:0:
408,224,50645,2,0,P|368:200|320:184,1,83.9999974365235,0|0,1:0|0:0,0:0:0:0:
312,72,51395,6,0,P|408:96|480:144,2,167.999994873047,2|0|2,0:0|1:0|0:0,0:0:0:0:
256,176,53271,2,0,P|184:192|136:192,1,83.9999974365235,0|0,0:0|1:0,0:0:0:0:
64,152,54021,1,0,0:0:0:0:
88,264,54396,6,0,P|160:288|264:296,1,167.999994873047,4|0,0:0|1:0,0:0:0:0:
352,240,55521,1,0,0:0:0:0:
256,176,55896,2,0,B|272:96|272:96|232:8,1,167.999994873047,2|0,0:0|1:0,0:0:0:0:
136,80,57022,1,0,0:0:0:0:
104,192,57397,6,0,P|152:288|208:312,1,167.999994873047,2|0,0:0|1:0,0:0:0:0:
416,224,58897,38,0,P|288:104|224:200,1,335.999989746094,2|4,0:0|0:0,0:0:0:0:
408,336,61148,5,0,1:0:0:0:
184,296,61898,2,0,B|136:272|136:272|72:272|72:272|24:248,1,167.999994873047,2|0,0:0|1:0,0:0:0:0:
72,144,63023,2,0,P|104:88|112:48,1,83.9999974365235,0|2,0:0|0:0,0:0:0:0:
256,256,64148,5,0,1:0:0:0:
440,144,64899,2,0,P|408:88|400:48,1,83.9999974365235,2|0,0:0|0:0,0:0:0:0:
288,40,65649,2,0,L|120:64,1,167.999994873047,0|4,1:0|0:0,0:0:0:0:
24,280,67149,5,0,1:0:0:0:
216,144,67899,2,0,P|232:136|296:144,2,83.9999974365235,2|2|0,0:0|0:0|1:0,0:0:0:0:
24,280,69400,37,4,0:0:0:0:
24,280,70150,2,0,L|112:272,2,83.9999974365235,0|0|0,1:1|0:0|1:0,0:0:0:0:
400,192,72401,6,0,P|376:72|320:56,1,167.999994873047,4|8,2:2|0:0,0:0:0:0:
256,128,73526,1,0,0:0:0:0:
165,58,73901,2,0,P|104:111|112:192,1,167.999994873047,0|8,0:0|0:0,0:0:0:0:
168,288,75026,2,0,P|176:312|176:376,1,83.9999974365235
312,176,76151,5,8,0:0:0:0:
344,287,76527,2,0,P|333:328|334:370,1,83.9999974365235
448,344,77277,1,0,0:0:0:0:
440,224,77652,2,0,P|440:128|384:56,1,167.999994873047,8|4,0:0|2:0,0:0:0:0:
200,192,79152,6,0,L|112:200,1,83.9999974365235,8|0,0:0|0:0,0:0:0:0:
56,304,79902,2,0,L|224:288,2,167.999994873047,0|8|0,0:0|0:0|0:0,0:0:0:0:
56,72,82153,37,8,0:0:0:0:
256,192,82903,2,0,P|288:328|184:256,1,335.999989746094,0|4,0:0|2:0,0:0:0:0:
256,40,85154,6,0,P|360:64|424:112,1,167.999994873047,8|0,0:0|0:0,0:0:0:0:
456,328,86654,2,0,L|360:320,1,83.9999974365235,8|0,0:0|0:0,0:0:0:0:
256,344,87404,6,0,P|152:320|88:272,1,167.999994873047,0|8,0:0|0:0,0:0:0:0:
56,56,88905,2,0,L|152:64,1,83.9999974365235
256,48,89655,1,8,0:0:0:0:
372,62,90030,2,0,L|456:56,1,83.9999974365235,0|4,0:0|2:0,0:0:0:0:
256,192,91155,5,8,0:0:0:0:
256,192,92656,2,0,L|256:288,1,83.9999974365235,8|0,0:0|0:0,0:0:0:0:
160,208,93406,38,0,P|184:128|336:136,2,251.999992309571,4|4|4,0:0|0:0|1:0,0:0:0:0:
392,264,96407,6,0,P|464:208|472:112,2,167.999994873047,4|8|0,0:0|0:0|0:0,0:0:0:0:
256,64,98657,1,8,0:0:0:0:
119,263,99407,6,0,P|53:216|34:136,1,167.999994873047,0|8,0:0|0:0,0:0:0:0:
256,64,100908,2,0,L|280:152,1,83.9999974365235
360,224,101658,2,0,L|408:64,1,167.999994873047,8|4,0:0|0:0,0:0:0:0:
176,64,103158,5,8,0:0:0:0:
104,152,103533,2,0,L|120:240,1,83.9999974365235
336,64,104659,1,8,0:0:0:0:
408,152,105034,2,0,L|392:240,1,83.9999974365235
176,320,106159,37,8,0:0:0:0:
320,136,106909,2,0,P|360:72|448:72,2,167.999994873047,0|8|4,0:0|0:0|0:0,0:0:0:0:
88,96,109160,53,8,0:0:0:0:
48,208,109535,2,0,P|80:216|154:192,1,83.9999974365235
382,207,110660,2,0,P|423:216|464:208,1,83.9999974365235,8|0,0:0|0:0,0:0:0:0:
424,96,111410,6,0,P|344:88|272:160,2,167.999994873047,0|8|0,0:0|0:0|0:0,0:0:0:0:
320,304,113661,2,0,P|280:312|232:304,1,83.9999974365235,8|0,0:0|0:0,0:0:0:0:
144,232,114411,70,0,L|128:48,2,167.999994873047,4|8|0,0:0|0:0|0:0,0:0:0:0:
368,232,116647,1,8,0:0:0:0:
256,56,117387,5,4,0:0:0:0:
256,192,117815,12,0,122101,0:0:0:0:
