osu file format v7

[General]
AudioFilename: anpanman no march.mp3
AudioLeadIn: 1500
PreviewTime: 3249
Countdown: 0
SampleSet: Normal
StackLeniency: 0.7
Mode: 1
LetterboxInBreaks: 1
SkinPreference:taiko

[Editor]
DistanceSpacing: 0.5
BeatDivisor: 8
GridSize: 8

[Metadata]
Title:Anpanman no March (Taiko Cut)
Artist:Dreaming
Creator:arken1015
Version:Taiko Custom-Oni
Source:Soreike! Anpanman
Tags:taiko

[Difficulty]
HPDrainRate:7
CircleSize:5
OverallDifficulty:7
SliderMultiplier:1.4
SliderTickRate:1

[Events]
//Background and Video events
0,0,"img_anpanman.jpg"
//Break Periods
//Storyboard Layer 0 (Background)
//Storyboard Layer 1 (Fail)
//Storyboard Layer 2 (Pass)
//Storyboard Layer 3 (Foreground)
//Storyboard Sound Samples
//Background Colour Transformations
3,100,163,162,255

[TimingPoints]
777,625.651720542231,4,1,1,80,1,0
3279,-50,4,1,1,80,0,1
13289,-50,4,1,1,80,0,0
43321,-50,4,1,1,80,0,1
63342,-50,4,1,1,80,0,0
93374,-50,4,1,1,80,0,1
113394,-50,4,1,1,0,0,0

[Colours]
Combo1 : 112,196,193
Combo2 : 243,89,34

[HitObjects]
256,192,3279,5,0
256,120,3592,1,0
256,48,3905,1,0
328,48,4218,5,2
328,120,4530,5,0
328,120,4687,1,0
328,120,4843,1,0
328,120,5000,1,0
328,120,5156,1,0
328,192,5469,5,2
328,264,5782,5,0
328,192,6251,5,2
328,192,6407,5,0
400,192,6720,1,0
472,192,7033,5,2
400,192,7346,5,0
400,192,7659,1,0
328,192,7971,1,0
328,192,8128,1,0
328,192,8284,5,2
256,192,8597,1,2
256,192,8910,5,0
256,192,9223,1,0
256,120,9536,1,0
256,120,9692,1,0
256,120,9848,1,0
256,120,10005,1,0
256,120,10161,5,2
256,48,10474,1,2
256,192,10787,12,2,11256
256,256,11413,5,0
256,192,11725,1,0
256,120,12038,1,0
256,48,12351,5,2
256,48,12664,1,2
328,48,12977,1,2
328,48,13133,1,2
328,48,13290,5,0
328,48,13446,1,0
328,48,13602,5,2
328,120,13915,5,0
328,120,14072,1,0
328,120,14228,5,2
328,192,14541,5,0
328,192,14697,1,0
328,192,14854,1,0
328,192,15010,1,0
328,192,15166,1,0
400,192,15479,5,2
400,192,15636,1,2
400,192,15792,5,0
400,264,16105,1,0
400,264,16261,1,0
400,264,16418,1,0
328,264,16731,5,2
328,264,16887,1,2
328,264,17043,5,0
328,192,17356,1,0
328,192,17513,1,0
328,192,17669,5,2
328,192,17826,5,0
328,192,17982,5,2
328,192,18138,1,2
328,192,18295,5,0
328,192,18451,1,0
328,192,18608,5,2
256,192,18920,5,0
256,192,19077,1,0
256,192,19233,5,2
256,120,19546,1,2
256,120,19702,1,2
256,120,19859,5,0
256,120,20015,1,0
256,120,20172,1,0
256,48,20485,5,2
256,48,20641,1,2
256,48,20797,5,0
328,48,21110,5,2
328,48,21267,1,2
328,48,21423,5,0
328,48,21579,1,0
328,48,21736,1,0
328,48,21892,1,0
328,48,22049,5,2
328,48,22205,1,2
328,48,22361,1,2
328,48,22518,1,2
328,48,22674,5,0
328,120,22831,1,0
328,120,22909,1,0
328,120,22987,5,2
256,120,23300,5,0
256,120,23456,1,0
256,120,23613,5,2
256,120,23769,1,2
256,120,23926,1,2
256,192,24238,1,2
328,192,24551,5,0
400,192,24864,5,2
400,192,25021,1,2
400,192,25177,5,0
400,264,25490,5,2
328,264,25803,5,0
328,264,25959,1,0
328,264,26115,5,2
256,264,26428,5,0
256,264,26585,1,0
256,264,26741,5,2
256,192,27054,5,0
256,192,27210,1,0
256,192,27367,1,0
256,192,27523,1,0
256,192,27680,1,0
256,120,27992,5,6
256,48,28305,5,0
256,48,28462,1,0
256,48,28618,5,2
256,48,28774,1,2
256,48,28931,1,2
328,48,29244,1,2
328,120,29556,5,0
328,192,29869,5,2
328,192,30026,1,2
328,192,30182,5,0
256,192,30495,5,2
256,120,30808,5,0
256,120,30964,1,0
256,120,31121,5,2
256,48,31433,5,0
256,48,31590,1,0
256,48,31746,5,2
184,48,32059,5,0
184,48,32215,1,0
184,48,32372,5,2
184,48,32528,1,2
184,48,32685,5,0
184,120,32998,5,2
184,120,33154,1,2
184,120,33310,5,0
184,120,33467,5,2
184,120,33623,5,0
184,192,33936,1,0
184,192,34092,5,2
184,192,34249,5,0
256,192,34562,1,0
256,192,34718,1,0
256,192,34875,5,2
256,192,35031,1,2
256,192,35187,5,0
328,192,35500,5,2
400,192,35813,1,2
400,192,35969,5,0
400,192,36126,1,0
400,264,36439,5,2
400,264,36595,5,0
400,264,36751,1,0
328,264,37064,5,2
328,264,37221,1,2
328,264,37377,5,0
328,264,37534,1,0
328,264,37690,1,0
256,264,38003,5,2
256,192,38316,1,2
256,192,38472,1,2
256,192,38628,1,2
256,120,38941,1,2
256,120,39098,1,2
256,120,39254,1,2
256,48,39567,1,2
256,48,39723,1,2
256,48,39880,5,0
256,48,40036,1,0
256,48,40193,5,2
256,48,40505,1,2
256,120,40818,5,4
256,192,41131,1,4
328,192,41444,5,6
328,296,41913,5,0
256,192,42070,12,2,43008
256,192,43321,5,2
256,120,43634,1,2
256,48,43946,5,0
256,48,44259,1,0
328,48,44572,1,0
328,48,44729,1,0
328,48,44885,5,2
328,48,45041,5,0
328,48,45198,1,0
328,120,45511,5,2
328,192,45823,5,0
328,192,45980,1,0
328,192,46136,5,2
328,192,46293,5,0
328,192,46449,5,2
256,192,46762,5,0
256,120,47075,5,2
256,120,47388,5,0
256,120,47700,1,0
256,48,48013,5,2
256,48,48170,1,2
256,48,48326,5,0
256,120,48639,1,0
256,192,48952,1,0
328,192,49265,5,2
400,192,49577,5,0
400,192,49734,1,0
400,192,49890,5,2
400,192,50047,5,0
400,192,50203,1,0
400,264,50516,5,2
328,264,50829,1,2
328,264,50985,1,2
328,264,51141,5,0
328,264,51298,5,2
328,264,51454,5,0
256,264,51767,5,2
256,192,52080,5,4
256,120,52393,1,4
256,48,52706,1,4
328,48,53018,5,2
328,48,53175,1,2
328,48,53331,1,2
328,120,53644,1,2
328,192,53957,5,0
400,192,54270,1,0
400,120,54583,1,0
400,120,54739,1,0
400,120,54895,5,2
400,120,55052,1,2
400,120,55208,5,0
400,48,55521,5,2
400,48,55677,1,2
400,48,55834,5,0
400,48,55990,1,0
400,48,56147,5,2
400,48,56303,5,0
400,48,56460,5,2
328,48,56772,5,0
256,48,57085,5,2
256,120,57398,5,0
256,192,57711,1,0
328,192,58024,5,2
328,192,58180,1,2
328,192,58336,5,0
400,192,58649,5,2
328,192,58962,5,0
400,192,59275,5,2
400,264,59588,5,0
400,264,59744,1,0
400,264,59901,5,2
400,264,60057,5,0
400,264,60213,1,0
400,192,60526,5,2
400,192,60683,1,2
256,192,60839,12,0,62090
256,192,62403,5,0
256,192,62716,1,0
256,120,63029,5,2
256,48,63342,5,0
256,48,63498,1,0
256,48,63654,5,2
328,48,63967,5,0
328,48,64124,1,0
328,48,64280,5,2
400,48,64593,5,0
400,48,64749,1,0
400,48,64906,5,2
400,48,65062,1,2
400,48,65219,5,0
400,120,65531,5,2
400,120,65688,1,2
400,120,65844,5,0
400,192,66157,5,2
400,192,66314,1,2
400,192,66470,5,0
328,192,66783,5,2
328,192,66939,1,2
328,192,67096,5,0
328,192,67252,1,0
328,192,67408,5,2
328,192,67565,1,2
328,192,67721,5,0
256,192,68034,5,2
256,120,68347,5,0
256,120,68503,1,0
256,120,68660,5,2
256,48,68973,5,0
256,48,69129,1,0
256,48,69285,5,2
256,120,69598,5,0
256,120,69755,1,0
256,120,69911,5,2
256,120,70067,1,2
256,120,70224,5,0
256,192,70537,5,2
256,192,70693,1,2
256,192,70849,5,0
256,192,71006,1,0
256,192,71162,5,2
256,192,71319,5,0
256,192,71475,1,0
256,192,71632,1,0
256,192,71788,5,2
256,192,71944,5,0
256,192,72101,1,0
256,192,72257,1,0
256,192,72414,5,2
256,192,72570,1,2
256,192,72726,5,0
256,264,72883,1,0
256,264,72961,1,0
256,264,73039,5,2
328,264,73352,5,0
328,264,73509,1,0
328,264,73665,5,2
328,264,73821,5,0
328,264,73978,1,0
328,192,74291,5,2
256,192,74603,5,0
256,120,74916,5,2
256,120,75073,5,0
256,120,75229,1,0
256,48,75542,5,2
328,48,75855,5,0
328,48,76011,1,0
328,48,76168,5,2
328,48,76324,5,0
328,48,76480,1,0
328,48,76637,1,0
328,48,76793,5,2
328,48,76950,5,0
328,48,77106,1,0
328,48,77262,1,0
328,48,77419,5,2
328,48,77575,1,2
328,48,77732,5,0
328,120,78044,5,2
328,192,78357,5,0
328,192,78514,1,0
328,192,78670,5,2
328,192,78827,5,0
328,192,78983,1,0
256,192,79296,5,2
256,264,79609,5,0
328,264,79921,5,2
328,264,80078,5,0
328,264,80234,1,0
400,264,80547,5,2
400,192,80860,5,0
400,192,81016,1,0
400,192,81173,1,0
400,192,81329,1,0
400,192,81486,1,0
328,192,81798,5,2
256,192,82111,5,0
256,120,82580,5,2
256,120,82659,1,2
256,120,82737,5,0
328,120,83050,1,0
328,120,83206,1,0
328,120,83363,1,0
328,120,83519,5,2
328,120,83675,5,0
328,48,83988,1,0
328,48,84145,5,2
328,48,84301,5,0
256,192,84614,12,0,85552
392,192,85865,5,2
392,192,86022,5,0
392,192,86178,1,0
320,192,86491,5,2
320,192,86647,5,0
320,192,86804,1,0
256,192,87116,12,0,88055
256,192,88368,5,2
256,192,88524,5,0
256,192,88681,5,2
256,120,88993,1,2
256,120,89150,5,0
256,120,89306,5,2
256,48,89619,5,4
328,48,89932,5,6
328,120,90245,5,4
328,192,90558,5,6
256,192,90870,12,0,91809
256,192,91965,5,2
256,192,92122,1,4
256,192,93060,5,2
256,192,93217,1,2
256,192,93373,5,0
256,120,93686,1,0
256,48,93999,5,2
328,48,94311,1,2
328,120,94624,5,0
328,120,94781,1,0
328,120,94937,5,2
328,120,95093,5,0
328,120,95250,1,0
328,192,95563,5,2
328,192,95719,1,2
328,192,95876,5,0
328,192,96032,1,0
328,192,96188,5,2
328,192,96345,1,2
328,192,96501,5,0
256,192,96814,1,0
256,264,97127,5,2
256,264,97283,1,2
256,264,97440,5,0
256,264,97596,1,0
256,264,97753,1,0
256,336,98065,5,2
256,336,98222,1,2
256,336,98378,5,0
184,336,98691,1,0
184,264,99004,5,2
184,192,99317,5,0
256,192,99629,1,0
256,192,99786,1,0
256,192,99942,5,2
256,192,100099,5,0
256,192,100255,1,0
256,120,100568,5,2
256,120,100724,1,2
256,120,100881,5,0
256,120,101037,1,0
256,120,101194,1,0
256,120,101350,5,2
256,120,101506,5,0
256,48,101819,1,0
328,48,102132,1,0
328,120,102445,5,6
328,192,102758,1,6
328,264,103071,1,2
328,264,103227,1,2
328,264,103383,5,4
464,264,104009,5,6
464,120,104635,5,4
392,120,104948,1,4
392,120,105104,1,4
392,120,105260,5,6
320,120,105573,1,2
320,120,105730,1,2
320,120,105886,5,0
320,120,106042,1,0
320,120,106199,1,0
320,120,106355,5,2
320,120,106512,5,0
256,120,106824,1,0
256,120,106981,1,0
256,120,107137,5,2
256,120,107294,1,2
256,120,107450,5,0
256,120,107607,1,0
256,120,107763,1,0
256,192,108076,5,2
256,192,108232,1,2
256,192,108389,5,4
256,264,108701,5,6
328,264,109014,5,4
328,192,109327,5,6
400,192,109640,5,4
400,264,109953,5,2
400,264,110109,1,2
400,264,110266,5,0
400,336,110578,5,2
400,336,110735,1,2
256,192,110891,12,0,113394
