osu file format v14

[General]
AudioFilename: wakeup.mp3
AudioLeadIn: 0
PreviewTime: 59805
Countdown: 0
SampleSet: Soft
StackLeniency: 0.3
Mode: 0
LetterboxInBreaks: 0
WidescreenStoryboard: 0

[Editor]
DistanceSpacing: 0.9
BeatDivisor: 4
GridSize: 32
TimelineZoom: 3.999999

[Metadata]
Title:Wake up
TitleUnicode:Wake up
Artist:Dreamcatcher
ArtistUnicode:드림캐쳐
Creator:Exote
Version:Nightmare
Source:
Tags:kpop korean pop krock rock
BeatmapID:1811112
BeatmapSetID:866230

[Difficulty]
HPDrainRate:7
CircleSize:4
OverallDifficulty:9
ApproachRate:9.6
SliderMultiplier:2.6
SliderTickRate:1

[Events]
//Background and Video events
0,0,"wu.jpg",0,0
//Break Periods
//Storyboard Layer 0 (Background)
//Storyboard Layer 1 (Fail)
//Storyboard Layer 2 (Pass)
//Storyboard Layer 3 (Foreground)
//Storyboard Sound Samples

[TimingPoints]
430,416.666666666667,4,2,0,85,1,0
60013,-50,4,2,0,85,0,0
60429,-50,4,2,0,85,0,0
60638,-100,4,2,0,85,0,0
61055,-50,4,2,0,85,0,0
61471,-100,4,2,0,85,0,0
61888,-50,4,2,0,85,0,0
62096,-66.6666666666667,4,2,0,85,0,0
63763,-66.6666666666667,4,2,0,85,0,0
64388,-200,4,2,0,85,0,0
64596,-66.6666666666667,4,2,0,85,0,0
67513,-50,4,2,0,85,0,0
67721,-100,4,2,0,85,0,0
68138,-50,4,2,0,85,0,0
68346,-33.3333333333333,4,2,0,85,0,0
68763,-50,4,2,0,85,0,0
69388,-200,4,2,0,85,0,0
69596,-66.6666666666667,4,2,0,85,0,0
70430,-50,4,2,0,85,0,0
71055,-200,4,2,0,85,0,0
71263,-66.6666666666667,4,2,0,85,0,0
72096,-50,4,2,0,85,0,0
72721,-100,4,2,0,85,0,0
73346,-200,4,2,0,85,0,0
73763,-100,4,2,0,85,0,0

[Colours]
Combo1 : 181,162,185
Combo2 : 188,154,137
Combo3 : 146,100,196
Combo4 : 239,70,14

[HitObjects]
47,88,60430,6,0,P|57:150|108:215,1,130,4|0,0:0|0:0,0:0:0:0:
95,204,60638,6,0,P|108:175|130:151,1,65,0|0,1:0|0:0,0:0:0:0:
131,152,60846,2,0,P|161:171|188:209,1,65,4|0,0:3|0:0,0:0:0:0:
180,193,61055,38,0,P|201:132|195:67,1,130,0|0,1:0|0:0,0:0:0:0:
465,215,61263,38,0,P|454:277|403:342,1,130,4|0,0:3|0:0,0:0:0:0:
416,332,61471,38,0,P|402:303|380:279,1,65,0|4,1:0|0:3,0:0:0:0:
380,280,61679,2,0,P|349:299|322:337,1,65,0|4,0:0|0:3,0:0:0:0:
331,321,61888,6,0,P|309:260|315:195,1,130,0|0,1:0|0:0,0:0:0:0:
25,275,62096,6,0,B|87:282|87:282|129:334|129:334|194:342,1,195.00000743866,4|0,0:3|1:0,0:0:0:0:
223,346,62409,1,0,0:0:0:0:
370,118,62513,6,0,P|326:103|274:111,1,97.50000371933,4|0,0:3|0:0,0:0:0:0:
184,74,62721,2,0,P|149:104|129:153,1,97.50000371933,0|0,1:0|0:0,0:0:0:0:
429,190,62930,6,0,P|463:105|382:28,1,195.00000743866,4|0,0:3|1:0,0:0:0:0:
255,217,63242,2,0,B|367:169|334:266|442:215,1,195.00000743866,4|4,0:3|0:3,0:0:0:0:
281,80,63555,2,0,L|144:71,1,97.50000371933,0|0,1:0|0:0,0:0:0:0:
16,198,63763,6,0,B|64:184|64:184|107:205,1,97.50000371933,4|0,0:3|0:0,0:0:0:0:
128,378,63971,2,0,B|91:343|91:343|88:295,1,97.50000371933,0|0,1:0|0:0,0:0:0:0:
228,192,64180,2,0,B|216:240|216:240|175:267,1,97.50000371933,4|0,0:3|0:0,0:0:0:0:
16,198,64388,6,0,L|14:142,1,48.75,0|0,1:0|0:0,0:0:0:0:
96,81,64596,6,0,B|208:33|175:130|283:79,1,195.00000743866,4|0,0:3|1:0,0:0:0:0:
482,49,64909,2,0,B|422:15|422:15|459:169,1,195.00000743866,4|4,0:3|0:3,0:0:0:0:
280,79,65221,2,0,L|274:177,1,97.50000371933,0|0,1:0|0:0,0:0:0:0:
498,303,65430,6,0,P|400:281|326:336,1,195.00000743866,4|0,0:3|1:0,0:0:0:0:
308,352,65742,2,0,P|305:304|281:262,1,97.50000371933,0|4,0:0|0:3,0:0:0:0:
424,382,66055,1,0,1:0:0:0:
178,262,66263,6,0,P|130:239|82:240,1,97.50000371933,4|0,0:3|0:0,0:0:0:0:
17,357,66471,5,0,1:0:0:0:
86,318,66575,1,0,1:0:0:0:
86,239,66680,5,0,1:0:0:0:
17,199,66784,1,0,1:0:0:0:
33,121,66888,1,0,1:0:0:0:
112,112,66992,1,0,1:0:0:0:
144,184,67096,6,0,B|256:232|223:135|331:186,1,195.00000743866,4|0,0:0|1:0,0:0:0:0:
351,195,67409,1,0,0:0:0:0:
499,215,67513,6,0,P|489:277|438:342,1,130,4|0,0:3|0:0,0:0:0:0:
451,331,67721,6,0,P|438:302|416:278,1,65,0|0,1:0|0:0,0:0:0:0:
416,278,67929,2,0,P|386:297|359:335,1,65,4|0,0:3|0:0,0:0:0:0:
367,320,68138,38,0,P|346:259|352:194,1,130,0|4,1:0|0:3,0:0:0:0:
11,79,68346,6,0,B|11:156|59:194|59:194|67:162|92:142|92:142|127:158|143:184|143:184|177:125|158:57,1,390.00001487732,0|0,0:0|1:0,0:0:0:0:
482,72,68763,6,0,P|429:42|350:46,1,130,4|0,0:3|0:0,0:0:0:0:
100,162,68971,2,0,P|101:226|134:281,1,130,0|0,1:0|0:0,0:0:0:0:
265,7,69180,2,0,P|210:40|178:96,1,130,4|0,0:3|0:0,0:0:0:0:
153,382,69388,6,0,L|216:379,1,48.75,0|0,1:0|0:0,0:0:0:0:
319,282,69596,6,0,B|207:234|240:331|132:280,1,195.00000743866,4|0,0:3|1:0,0:0:0:0:
351,197,69909,2,0,P|411:267|377:354,1,195.00000743866,4|4,0:3|0:3,0:0:0:0:
289,120,70221,2,0,P|330:100|397:110,1,97.50000371933,0|0,1:0|0:0,0:0:0:0:
500,365,70430,6,0,P|436:378|356:329,1,130,4|0,0:3|0:0,0:0:0:0:
439,8,70638,2,0,P|482:56|479:150,1,130,0|0,1:0|0:0,0:0:0:0:
161,240,70846,2,0,P|181:178|263:133,1,130,4|0,0:3|0:0,0:0:0:0:
452,224,71055,6,0,L|447:285,1,48.75,0|0,1:0|0:0,0:0:0:0:
319,282,71263,6,0,B|257:289|257:289|215:341|215:341|150:349,1,195.00000743866,4|0,0:3|1:0,0:0:0:0:
121,353,71575,1,4,0:3:0:0:
26,99,71680,6,0,P|57:130|74:185,1,97.50000371933,0|4,0:0|0:3,0:0:0:0:
161,240,71888,2,0,P|192:209|209:154,1,97.50000371933,0|0,1:0|0:0,0:0:0:0:
447,89,72096,6,0,B|532:245|532:245|436:221,1,260,4|0,0:0|0:0,0:0:0:0:
209,159,72409,2,0,B|301:7|301:7|328:102,1,260,4|0,0:0|0:0,0:0:0:0:
389,331,72721,6,0,B|211:326|211:326|280:255,1,260,4|0,0:0|0:0,0:0:0:0:
346,190,73346,5,8,0:0:0:0:
346,190,73763,5,4,1:2:0:0:
