osu file format v14

[General]
AudioFilename: sleepwalking.mp3
AudioLeadIn: 0
PreviewTime: 77551
Countdown: 1
SampleSet: None
StackLeniency: 0.7
Mode: 0
LetterboxInBreaks: 1
WidescreenStoryboard: 0

[Editor]
DistanceSpacing: 0.6
BeatDivisor: 4
GridSize: 32
TimelineZoom: 2.56

[Metadata]
Title:Sleep-walking
TitleUnicode:Sleep-walking
Artist:Dreamcatcher
ArtistUnicode:드림캐쳐
Creator:Exote
Version:PROJECT: Overdrive
Source:
Tags:kpop korean dnb drum and bass edm prequel
BeatmapID:1370616
BeatmapSetID:646969

[Difficulty]
HPDrainRate:6.9
CircleSize:4.2
OverallDifficulty:9
ApproachRate:9.4
SliderMultiplier:1.6
SliderTickRate:1

[Events]
//Background and Video events
0,0,"1080.jpg",0,0
//Break Periods
//Storyboard Layer 0 (Background)
//Storyboard Layer 1 (Fail)
//Storyboard Layer 2 (Pass)
//Storyboard Layer 3 (Foreground)
//Storyboard Sound Samples

[TimingPoints]
310,344.827586206897,4,2,1,30,1,0
10741,-100,4,2,1,5,0,0
10827,-50,4,2,1,70,0,0
10913,-50,4,2,1,5,0,0
10999,-50,4,2,1,70,0,0
11344,-100,4,2,1,70,0,0
12551,-80,4,2,1,70,0,0
13241,-100,4,2,1,70,0,0
15310,-80,4,2,1,70,0,0
15999,-100,4,2,1,70,0,0
16516,-200,4,2,1,70,0,0
16775,-200,4,2,1,5,0,0
16861,-100,4,2,1,70,0,0
18068,-80,4,2,1,70,0,0
18758,-100,4,2,1,70,0,0
20827,-80,4,2,1,70,0,0
21516,-200,4,2,1,70,0,0
22292,-200,4,2,1,5,0,0
22378,-100,4,2,1,70,0,0
23585,-80,4,2,1,70,0,0
24275,-100,4,2,1,70,0,0
26344,-80,4,2,1,70,0,0
27034,-100,4,2,1,70,0,0
27551,-200,4,2,1,70,0,0
27810,-200,4,2,1,5,0,0
27896,-100,4,2,1,70,0,0
29103,-80,4,2,1,70,0,0
29792,-100,4,2,1,70,0,0
31861,-80,4,2,1,70,0,0
32551,-100,4,2,1,70,0,0
33413,-100,4,2,1,70,0,0
77551,-66.6666666666667,4,2,1,70,0,0
99620,-80,4,2,1,70,0,0

[Colours]
Combo1 : 241,150,254
Combo2 : 156,3,194
Combo3 : 171,117,204
Combo4 : 242,22,248

[HitObjects]
256,192,8585,12,0,10741,0:0:0:0:
256,192,10827,6,0,P|296:197|338:182,1,80,0|0,3:0|0:0,0:0:0:0:
282,58,10999,1,8,0:0:0:0:
282,58,11344,6,0,L|165:51,1,80,0|0,3:0|0:0,0:0:0:0:
128,101,11689,1,8,0:0:0:0:
60,46,11861,1,0,0:0:0:0:
4,239,12034,6,0,P|41:226|81:231,1,80,0|0,0:0|3:0,0:0:0:0:
48,315,12378,1,8,0:0:0:0:
256,192,12551,6,0,B|262:229|262:229|257:253|257:253|264:291,1,100,0|0,0:0|3:0,0:0:0:0:
501,229,12896,2,0,B|507:266|507:266|502:290|502:290|509:328,1,100,0|8,0:0|0:0,0:0:0:0:
380,260,13241,5,0,0:0:0:0:
380,260,13327,1,0,0:0:0:0:
380,260,13413,2,0,P|376:239|380:208,1,40
443,162,13585,1,0,3:0:0:0:
409,82,13758,1,8,0:0:0:0:
256,192,13930,6,0,L|152:185,1,80,0|0,0:0|3:0,0:0:0:0:
33,180,14275,1,0,0:0:0:0:
102,235,14447,1,8,0:0:0:0:
176,186,14620,1,0,0:0:0:0:
54,21,14792,6,0,P|50:60|63:97,1,80,0|0,0:0|3:0,0:0:0:0:
33,180,15137,1,8,0:0:0:0:
243,41,15310,6,0,B|323:32|323:32|306:69,1,100
501,199,15654,2,0,B|421:208|421:208|438:171,1,100,0|8,3:0|0:0,0:0:0:0:
442,62,15999,5,0,3:0:0:0:
301,177,16172,1,0,0:0:0:0:
448,104,16344,5,0,3:0:0:0:
372,119,16430,1,0,3:0:0:0:
296,135,16516,2,0,L|224:148,1,60,8|0,0:0|0:0,0:0:0:0:
296,135,16861,6,0,L|185:126,1,80,0|0,3:0|0:0,0:0:0:0:
160,63,17206,1,8,0:0:0:0:
79,96,17378,1,0,0:0:0:0:
85,304,17551,6,0,P|98:266|94:227,1,80,0|0,0:0|3:0,0:0:0:0:
11,257,17896,1,8,0:0:0:0:
264,291,18068,6,0,B|257:253|257:253|262:229|262:229|256:192,1,100,0|0,0:0|3:0,0:0:0:0:
500,176,18413,2,0,B|493:138|493:138|498:114|498:114|492:77,1,100,0|8,0:0|0:0,0:0:0:0:
379,184,18758,5,0,0:0:0:0:
379,184,18844,1,0,0:0:0:0:
379,184,18930,2,0,L|394:257,1,40
467,256,19103,1,0,3:0:0:0:
461,343,19275,1,8,0:0:0:0:
264,291,19447,6,0,P|224:285|184:295,1,80,0|0,0:0|3:0,0:0:0:0:
50,323,19792,1,0,0:0:0:0:
128,358,19965,1,8,0:0:0:0:
186,294,20137,1,0,0:0:0:0:
50,156,20310,6,0,L|60:236,1,80,0|0,0:0|3:0,0:0:0:0:
50,323,20654,1,8,0:0:0:0:
186,122,20827,6,0,B|221:97|264:106|264:106|250:141,1,100
504,166,21172,2,0,B|469:191|426:182|426:182|440:147,1,100,0|8,3:0|0:0,0:0:0:0:
366,56,21516,5,0,3:0:0:0:
323,231,21689,2,0,L|336:176,1,40,0|0,3:0|0:0,0:0:0:0:
362,75,21947,5,0,3:0:0:0:
357,94,22034,2,0,L|373:22,1,60,8|0,0:0|0:0,0:0:0:0:
357,94,22378,6,0,L|346:11,1,80,0|0,3:0|0:0,0:0:0:0:
254,6,22723,1,8,0:0:0:0:
218,92,22896,1,0,0:0:0:0:
20,137,23068,6,0,P|4:100|7:60,1,80,0|0,0:0|3:0,0:0:0:0:
91,85,23413,1,8,0:0:0:0:
248,291,23585,6,0,B|255:253|255:253|250:229|250:229|256:192,1,100,0|0,0:0|3:0,0:0:0:0:
12,235,23930,2,0,B|19:197|19:197|14:173|14:173|20:136,1,100,0|8,0:0|0:0,0:0:0:0:
138,214,24275,5,0,0:0:0:0:
138,214,24361,1,0,0:0:0:0:
138,214,24447,2,0,L|126:272,1,40
61,303,24620,1,0,3:0:0:0:
88,383,24792,1,8,0:0:0:0:
248,291,24965,6,0,P|281:280|331:285,1,80,0|0,0:0|3:0,0:0:0:0:
469,279,25310,1,0,0:0:0:0:
398,334,25482,1,8,0:0:0:0:
325,283,25654,1,0,0:0:0:0:
447,111,25827,6,0,L|437:190,1,80,0|0,0:0|3:0,0:0:0:0:
469,279,26172,1,8,0:0:0:0:
256,192,26344,6,0,B|211:182|176:201|176:201|193:164,1,100
12,26,26689,2,0,B|57:36|92:17|92:17|75:54,1,100,0|8,3:0|0:0,0:0:0:0:
58,158,27034,5,0,3:0:0:0:
209,59,27206,1,0,0:0:0:0:
65,121,27378,5,0,3:0:0:0:
141,106,27464,1,0,3:0:0:0:
217,90,27551,2,0,L|289:77,1,60,8|0,0:0|0:0,0:0:0:0:
217,90,27896,6,0,L|320:98,1,80,0|0,3:0|0:0,0:0:0:0:
368,149,28241,1,8,0:0:0:0:
441,97,28413,1,0,0:0:0:0:
512,301,28585,6,0,P|474:315|427:307,1,80,0|0,0:0|3:0,0:0:0:0:
464,228,28930,1,8,0:0:0:0:
263,290,29103,6,0,B|256:252|256:252|261:228|261:228|255:191,1,100,0|0,0:0|3:0,0:0:0:0:
14,241,29447,2,0,B|7:203|7:203|12:179|12:179|6:142,1,100,0|8,0:0|0:0,0:0:0:0:
131,217,29792,5,0,0:0:0:0:
131,217,29878,1,0,0:0:0:0:
131,217,29965,2,0,P|135:240|124:278,1,40
67,307,30137,1,0,3:0:0:0:
98,384,30310,1,8,0:0:0:0:
263,290,30482,6,0,L|267:183,1,80,0|0,0:0|3:0,0:0:0:0:
267,74,30827,1,0,0:0:0:0:
316,142,30999,1,8,0:0:0:0:
265,210,31172,1,0,0:0:0:0:
109,88,31344,6,0,P|148:85|186:99,1,80,0|0,0:0|3:0,0:0:0:0:
267,74,31689,1,8,0:0:0:0:
459,196,31861,6,0,B|475:207|475:207|480:126,1,100
289,5,32206,2,0,B|272:-6|272:-6|267:74,1,100,0|8,3:0|0:0,0:0:0:0:
399,0,32551,5,0,3:0:0:0:
346,205,32723,5,0,0:0:0:0:
359,252,32809,1,0,0:0:0:0:
393,289,32895,1,0,0:0:0:0:
439,307,32981,1,0,3:0:0:0:
492,356,33068,5,8,0:0:0:0:
504,340,33154,1,0,0:0:0:0:
510,320,33240,1,0,0:0:0:0:
512,301,33326,1,0,0:0:0:0:
471,241,33413,5,0,3:0:0:0:
