osu file format v11

[General]
AudioFilename: Dream5.mp3
AudioLeadIn: 0
PreviewTime: 56925
Countdown: 0
SampleSet: Soft
StackLeniency: 0.7
Mode: 0
LetterboxInBreaks: 1

[Editor]
DistanceSpacing: 1.8
BeatDivisor: 4
GridSize: 4

[Metadata]
Title:Koi no Dial 6700
TitleUnicode:Koi no Dial 6700
Artist:Dream5
ArtistUnicode:Dream5
Creator:jamxx
Version:Insane
Source:jubeat
Tags:
BeatmapID:201451
BeatmapSetID:69987

[Difficulty]
HPDrainRate:6
CircleSize:4
OverallDifficulty:6
ApproachRate:9
SliderMultiplier:1.84
SliderTickRate:1

[Events]
//Background and Video events
0,0,"bg.jpg"
//Break Periods
2,99567,101237
//Storyboard Layer 0 (Background)
//Storyboard Layer 1 (Fail)
//Storyboard Layer 2 (Pass)
//Storyboard Layer 3 (Foreground)
//Storyboard Sound Samples
//Background Colour Transformations
3,100,163,162,255

[TimingPoints]
10426,352.941176470588,4,2,1,30,1,0
15984,-100,4,2,1,60,0,0
37161,-100,4,1,0,60,0,0
37955,-100,4,2,1,60,0,0
49955,-100,4,2,1,50,0,0
51367,-50,4,2,1,50,0,0
54190,-100,4,2,1,60,0,0
56661,-100,4,2,1,20,0,0
57014,-100,4,2,1,60,0,1
79602,-100,4,2,1,60,0,0
90896,-100,4,2,1,50,0,0
92308,-50,4,2,1,50,0,0
95131,-100,4,2,1,50,0,0
97955,-50,4,2,1,50,0,0
101837,-100,4,2,1,50,0,0

[Colours]
Combo1 : 128,255,128
Combo2 : 0,128,255
Combo3 : 255,128,192
Combo4 : 255,128,64

[HitObjects]
256,192,10425,12,0,12896,0:0:0
302,146,13249,6,0,P|336:112|376:96,1,92
210,238,13602,2,0,P|176:272|136:288,1,92
136,96,13955,2,0,P|176:112|210:146,1,92
376,288,14308,2,0,P|336:272|302:238,1,92
256,126,14661,6,0,P|256:32,1,92
256,257,15014,2,0,P|256:352,1,92
98,192,15367,2,0,P|192:192,1,92
413,192,15720,2,0,P|320:192,1,92
190,192,16073,6,0,P|228:100|304:64,2,184,0|2|0,0:0|0:0|0:0,0:0:0
312,236,16955,2,0,P|324:192|312:148,1,92,0|2,0:0|0:0,0:0:0
190,192,17308,2,0,P|228:284|304:320,2,184,0|0|0,0:0|0:0|0:0,0:0:0
104,96,18190,1,0,0:0:0
408,288,18543,1,2,0:0:0
104,96,18896,6,0,P|60:172|104:248,2,184,0|2|0,0:0|0:0|0:0,0:0:0
156,172,19778,2,0,P|208:248,1,92,0|2,0:0|0:0,0:0:0
256,328,20131,1,0,0:0:0
256,56,20484,1,0,0:0:0
308,216,20661,1,2,0:0:0
173,117,20837,1,0,0:0:0
340,117,21014,2,0,P|292:192|204:215,1,184,0|2,0:0|0:0,0:0:0
48,72,21720,5,0,0:0:0
464,72,22073,1,2,0:0:0
48,72,22425,2,0,P|24:112|24:156,2,92,0|0|2,0:0|0:0|0:0,0:0:0
176,40,22955,1,0,0:0:0
256,332,23308,1,0,0:0:0
336,40,23661,1,0,0:0:0
176,40,23837,2,0,P|256:78|336:40,1,184,0|2,0:0|0:0,0:0:0
336,344,24543,6,0,P|256:306|176:344,1,184,0|2,0:0|0:0,0:0:0
348,192,25249,2,0,P|256:192,2,92,0|0|2,0:0|0:0|0:0,0:0:0
460,192,25778,1,0,0:0:0
52,192,26131,2,0,P|64:240|92:276,1,92,0|2,0:0|0:0,0:0:0
164,192,26484,2,0,P|176:144|204:108,1,92
460,192,27014,1,2,0:0:0
52,192,27367,6,0,P|80:120|172:72,2,184,0|2|0,0:0|0:0|0:0,0:0:0
176,236,28249,2,0,P|188:192|176:148,1,92,0|2,0:0|0:0,0:0:0
52,192,28602,2,0,P|80:264|172:312,2,184,0|0|0,0:0|0:0|0:0,0:0:0
108,96,29484,1,0,0:0:0
404,288,29837,1,2,0:0:0
108,96,30190,5,0,0:0:0
404,96,30543,1,2,0:0:0
108,288,30896,2,0,P|68:264|48:224,1,92
92,124,31249,2,0,P|132:148|152:188,1,92,2|0,0:0|0:0,0:0:0
420,124,31778,2,0,P|380:148|360:188,1,92,0|2,0:0|0:0,0:0:0
404,288,32131,2,0,P|444:264|464:224,1,92
256,36,32661,5,2,0:0:0
256,60,32749,1,0,0:0:0
256,84,32837,1,0,0:0:0
256,108,32925,1,0,0:0:0
256,132,33014,2,0,P|272:224|312:304,1,184,4|8,0:0|0:0,0:0:0
120,192,33720,2,0,P|76:200|40:228,1,92
120,304,34073,2,0,P|164:296|200:268,1,92,8|0,0:0|0:0,0:0:0
116,100,34426,5,0,0:0:0
396,100,34778,1,8,0:0:0
116,100,35131,2,0,P|96:144|96:188,1,92
236,228,35484,2,0,P|256:184|256:140,1,92,8|0,0:0|0:0,0:0:0
256,48,35837,5,0,0:0:0
256,336,36190,1,8,0:0:0
256,48,36543,2,0,P|208:48|168:64,1,92
168,156,36896,2,0,P|216:156|256:140,1,92,8|0,0:0|0:0,0:0:0
336,92,37249,5,6,0:0:0
176,292,37602,2,2,P|256:332|336:292,1,184,2|0,0:0|0:0,0:0:0
256,192,38131,6,0,P|164:192,2,92,0|8|0,0:0|0:0|0:0,0:0:0
336,146,38661,2,0,P|320:102|288:66,1,92,0|0,0:0|0:0,0:0:0
336,238,39014,2,0,P|352:282|384:318,1,92,8|0,0:0|0:0,0:0:0
484,328,39367,1,0,0:0:0
438,237,39543,1,0,0:0:0
336,238,39720,2,0,P|256:188|252:104,1,184,8|0,0:0|0:0,0:0:0
464,48,40426,5,2,1:0:0
48,48,40778,1,2,1:0:0
88,152,40955,6,0,P|136:148|176:132,1,92,0|8,0:0|0:0,0:0:0
256,84,41308,1,0,0:0:0
176,40,41484,2,0,P|80:40,1,92
336,40,41837,2,0,P|428:40,1,92,8|0,0:0|0:0,0:0:0
256,84,42190,2,0,P|256:176|292:264,1,184,0|8,0:0|0:0,0:0:0
376,288,42720,1,0,0:0:0
200,288,42896,2,0,P|152:280|112:260,1,92
52,192,43249,5,2,1:0:0
460,192,43602,1,2,1:0:0
400,100,43778,5,0,0:0:0
340,192,43955,1,8,0:0:0
400,284,44131,1,0,0:0:0
400,100,44308,2,0,P|360:72|316:60,1,92
340,192,44661,2,0,P|300:220|256:232,1,92,8|0,0:0|0:0,0:0:0
92,231,45014,1,0,0:0:0
176,160,45190,1,0,0:0:0
176,304,45367,2,0,P|256:352|344:352,1,184,8|0,0:0|0:0,0:0:0
336,80,46073,5,2,1:0:0
176,304,46426,1,2,1:0:0
84,304,46602,6,0,P|52:272|40:228,2,92,0|8|0,0:0|0:0|0:0,0:0:0
176,304,47131,2,0,P|208:272|220:228,1,92,0|0,0:0|0:0,0:0:0
180,144,47484,1,8,0:0:0
312,240,47661,1,0,0:0:0
180,144,47837,2,0,P|156:104|156:60,1,92
332,59,48190,2,0,P|356:99|356:143,1,92,8|0,0:0|0:0,0:0:0
256,192,48543,1,0,0:0:0
436,64,48896,5,2,1:0:0
76,320,49249,1,2,1:0:0
180,356,49426,6,0,P|236:268|256:192,1,184
256,100,49955,1,2,1:0:0
369,154,50131,1,0,0:0:0
143,154,50308,1,0,1:0:0
428,324,50661,1,0,1:0:0
84,324,51014,1,2,1:0:0
144,48,51367,6,0,P|96:116|80:156|120:192|164:156|144:116,1,184,2|0,1:0|0:0,0:0:0
360,68,51720,6,0,P|380:40|380:40|424:56|424:56|380:152,1,184,0|0,1:0|0:0,0:0:0
144,232,52073,6,0,P|144:292|160:252,1,184,0|4,1:0|0:0,0:0:0
368,232,52426,6,0,P|368:292|352:252,1,184,0|0,1:0|0:0,0:0:0
256,192,52778,5,4,1:0:0
256,192,54190,6,0,P|256:100,1,92,0|0,0:0|0:0,0:0:0
256,284,54720,1,4,0:0:0
256,192,54808,12,0,56661,0:0:0
256,112,57014,6,0,P|300:92|344:88,1,92,14|0,0:0|0:0,0:0:0
184,192,57367,2,0,P|92:192,1,92,8|0,0:0|0:0,0:0:0
256,272,57720,2,0,P|300:292|344:296,1,92,10|0,0:0|0:0,0:0:0
412,224,58073,1,8,0:0:0
412,368,58249,1,0,0:0:0
412,224,58426,6,0,P|360:148|280:104,1,184,10|8,0:0|0:0,0:0:0
112,104,58955,1,0,0:0:0
196,32,59131,1,10,0:0:0
196,32,59220,1,0,0:0:0
196,32,59308,1,0,0:0:0
196,176,59484,2,0,P|180:220|152:256,1,92,8|0,0:0|0:0,0:0:0
256,300,59837,6,0,P|300:288|340:264,1,92,10|0,0:0|0:0,0:0:0
256,84,60190,2,0,P|212:96|172:120,1,92,8|0,0:0|0:0,0:0:0
152,228,60543,1,10,0:0:0
80,60,60720,1,0,0:0:0
152,228,60896,2,0,P|196:244|240:252,1,92,8|0,0:0|0:0,0:0:0
300,344,61249,6,0,P|353:256|325:182,1,184,10|8,0:0|0:0,0:0:0
260,36,61778,1,0,0:0:0
228,142,61955,1,10,0:0:0
228,142,62043,1,0,0:0:0
228,142,62131,1,0,0:0:0
364,80,62308,2,0,P|408:60|456:56,1,92,8|0,0:0|0:0,0:0:0
328,184,62661,6,0,P|284:204|236:208,1,92,10|0,0:0|0:0,0:0:0
92,200,63014,1,8,0:0:0
228,142,63190,1,0,0:0:0
248,52,63367,2,0,P|204:36|160:32,1,92,10|0,0:0|0:0,0:0:0
28,96,63720,1,8,0:0:0
172,132,63896,1,0,0:0:0
36,192,64073,5,10,0:0:0
256,348,64426,1,8,0:0:0
476,192,64778,2,0,P|492:144|496:100,2,92,10|0|8,0:0|0:0|0:0,0:0:0
330,221,65308,1,0,0:0:0
386,126,65484,6,0,P|312:72|224:52,1,184,10|8,0:0|0:0,0:0:0
126,258,66190,2,0,P|160:288|200:312,1,92,10|0,0:0|0:0,0:0:0
256,192,66543,2,0,P|222:162|182:138,1,92,8|0,0:0|0:0,0:0:0
76,100,66896,5,10,0:0:0
76,100,66984,1,0,0:0:0
76,100,67073,1,0,0:0:0
40,192,67249,5,10,0:0:0
40,192,67337,1,0,0:0:0
40,192,67426,1,0,0:0:0
76,284,67602,5,10,0:0:0
76,284,67690,1,0,0:0:0
76,284,67778,1,0,0:0:0
168,192,67955,1,10,0:0:0
189,183,68043,1,0,0:0:0
211,179,68131,1,0,0:0:0
233,183,68220,1,0,0:0:0
256,192,68308,6,0,P|296:216|340:232,1,92,14|0,0:0|0:0,0:0:0
420,160,68661,1,8,0:0:0
420,308,68837,1,0,0:0:0
420,160,69014,2,0,P|380:136|336:120,1,92,10|0,0:0|0:0,0:0:0
174,120,69367,1,8,0:0:0
256,44,69543,1,0,0:0:0
256,192,69720,6,0,P|216:276|144:332,1,184,10|8,0:0|0:0,0:0:0
34,331,70249,1,0,0:0:0
89,235,70426,1,10,0:0:0
89,235,70514,1,0,0:0:0
89,235,70602,1,0,0:0:0
145,140,70778,2,0,P|187:117|231:109,1,92,8|0,0:0|0:0,0:0:0
328,192,71131,5,10,0:0:0
328,28,71308,1,0,0:0:0
328,192,71484,2,0,P|352:232|384:264,1,92,8|0,0:0|0:0,0:0:0
384,100,71837,2,0,P|360:60|328:28,1,92,10|0,0:0|0:0,0:0:0
184,28,72190,2,0,P|152:60|128:100,1,92,8|0,0:0|0:0,0:0:0
132,240,72543,6,0,P|204:234|244:174|244:174|292:166,1,184,10|8,0:0|0:0,0:0:0
456,140,73073,1,0,0:0:0
363,80,73249,1,10,0:0:0
363,80,73337,1,0,0:0:0
363,80,73426,1,0,0:0:0
385,224,73602,2,0,P|376:272|356:312,1,92,8|0,0:0|0:0,0:0:0
256,352,73955,5,10,0:0:0
256,32,74308,1,8,0:0:0
142,78,74661,1,10,0:0:0
369,305,75014,1,8,0:0:0
416,192,75367,5,10,0:0:0
96,192,75720,1,8,0:0:0
142,305,76073,2,0,P|184:288|220:256,1,92,10|0,0:0|0:0,0:0:0
369,78,76426,2,0,P|328:96|292:128,1,92,8|0,0:0|0:0,0:0:0
256,352,76778,6,0,P|344:320|416:260,1,184,10|8,0:0|0:0,0:0:0
256,32,77484,2,0,P|214:49|178:81,1,92,10|0,0:0|0:0,0:0:0
29,259,77837,2,0,P|70:241|106:209,1,92,8|0,0:0|0:0,0:0:0
256,144,78190,6,0,P|300:128,2,46,10|0|0,0:0|0:0|0:0,0:0:0
152,112,78543,2,0,P|138:69,2,46,10|0|0,0:0|0:0|0:0,0:0:0
210,244,78896,1,10,0:0:0
228,256,78984,1,0,0:0:0
248,266,79073,1,0,0:0:0
269,273,79161,1,0,0:0:0
291,279,79249,1,10,0:0:0
313,283,79337,1,0,0:0:0
335,285,79426,1,0,0:0:0
358,285,79514,1,0,0:0:0
380,285,79602,6,0,P|428:288|472:296,1,92,4|0,0:0|0:0,0:0:0
408,192,79955,2,0,P|360:189|316:181,1,92,8|0,0:0|0:0,0:0:0
104,192,80308,2,0,P|152:189|196:181,1,92,0|0,0:0|0:0,0:0:0
344,108,80661,1,8,0:0:0
256,40,80837,1,0,0:0:0
168,108,81014,1,0,0:0:0
256,344,81367,5,2,1:0:0
256,40,81720,1,2,1:0:0
256,176,81896,6,0,P|256:268,2,92,0|8|0,0:0|0:0|0:0,0:0:0
344,108,82426,1,0,0:0:0
344,108,82602,1,0,0:0:0
168,108,82778,1,8,0:0:0
168,108,82955,1,0,0:0:0
256,176,83131,2,0,P|328:216|420:184,1,184,0|8,0:0|0:0,0:0:0
344,108,83661,2,0,P|256:80,1,92
36,60,84190,5,2,1:0:0
256,332,84543,1,2,1:0:0
368,332,84720,6,0,P|460:332,2,92,0|8|0,0:0|0:0|0:0,0:0:0
256,332,85249,2,0,P|228:296|212:252,1,92
232,108,85602,1,8,0:0:0
316,228,85778,1,0,0:0:0
232,108,85955,2,0,P|192:80|148:68,2,92,0|0|8,0:0|0:0|0:0,0:0:0
316,228,86484,2,0,P|356:256|400:268,1,92
476,60,87014,5,2,1:0:0
256,332,87367,1,2,1:0:0
176,256,87543,6,0,P|128:256|84:268,2,92,0|8|0,0:0|0:0|0:0,0:0:0
336,256,88073,2,0,P|384:256|428:244,1,92
468,144,88426,1,8,0:0:0
468,348,88602,1,0,0:0:0
468,144,88778,2,0,P|424:116|384:104,1,92,0|0,0:0|0:0,0:0:0
256,36,89131,1,8,0:0:0
256,184,89308,2,0,P|212:212|172:224,1,92,0|0,0:0|0:0,0:0:0
36,60,89837,5,2,1:0:0
256,332,90190,1,2,1:0:0
368,328,90367,6,0,P|352:248|276:224|276:224|256:192,1,184
256,100,90896,1,2,1:0:0
369,154,91073,1,0,0:0:0
143,154,91249,1,0,1:0:0
428,324,91602,1,0,1:0:0
84,324,91955,1,2,1:0:0
144,48,92308,6,0,P|96:116|80:156|120:192|164:156|144:116,1,184,2|0,1:0|0:0,0:0:0
360,68,92661,6,0,P|380:40|380:40|424:56|424:56|380:152,1,184,0|0,1:0|0:0,0:0:0
144,232,93014,6,0,P|144:292|160:252,1,184,0|4,1:0|2:0,0:0:0
368,232,93367,6,0,P|368:292|352:252,1,184,0|0,1:0|0:0,0:0:0
256,192,93720,5,4,1:0:0
256,192,95131,6,0,P|256:284,1,92,0|0,0:0|0:0,0:0:0
256,100,95661,1,4,0:0:0
256,192,95749,12,2,96543,1:0:0
256,56,96896,5,0,1:0:0
138,260,97249,1,0,1:0:0
373,260,97602,1,0,1:0:0
144,48,97955,6,0,P|96:116|80:156|120:192|164:156|144:116,1,184,2|0,1:0|0:0,0:0:0
360,68,98308,6,0,P|380:40|380:40|424:56|424:56|380:152,1,184,0|0,1:0|0:0,0:0:0
144,232,98661,6,0,P|144:292|160:252,1,184,0|4,1:0|2:0,0:0:0
368,232,99014,6,0,P|368:292|352:252,1,184,0|0,1:0|0:0,0:0:0
256,192,99367,5,4,1:0:0
256,192,101837,6,0,P|256:144,2,46,0|0|4,1:0|0:0|0:0,0:0:0
