osu file format v11

[General]
AudioFilename: Dream5.mp3
AudioLeadIn: 0
PreviewTime: 56925
Countdown: 0
SampleSet: Soft
StackLeniency: 0.7
Mode: 0
LetterboxInBreaks: 1

[Editor]
DistanceSpacing: 1.2
BeatDivisor: 4
GridSize: 4

[Metadata]
Title:Koi no Dial 6700
TitleUnicode:Koi no Dial 6700
Artist:Dream5
ArtistUnicode:Dream5
Creator:jamxx
Version:Hard
Source:jubeat
Tags:
BeatmapID:201475
BeatmapSetID:69987

[Difficulty]
HPDrainRate:4
CircleSize:4
OverallDifficulty:5
ApproachRate:7
SliderMultiplier:1.52
SliderTickRate:1

[Events]
//Background and Video events
0,0,"bg.jpg"
//Break Periods
2,99567,100937
//Storyboard Layer 0 (Background)
//Storyboard Layer 1 (Fail)
//Storyboard Layer 2 (Pass)
//Storyboard Layer 3 (Foreground)
//Storyboard Sound Samples
//Background Colour Transformations
3,100,163,162,255

[TimingPoints]
10426,352.941176470588,4,2,1,30,1,0
15984,-100,4,2,1,60,0,0
37161,-100,4,1,0,60,0,0
37955,-100,4,2,1,60,0,0
49955,-100,4,2,1,50,0,0
54190,-100,4,2,1,60,0,0
56661,-100,4,2,1,20,0,0
57014,-100,4,2,1,60,0,1
79602,-100,4,2,1,60,0,0
90896,-100,4,2,1,50,0,0

[Colours]
Combo1 : 128,255,128
Combo2 : 0,128,255
Combo3 : 255,128,192
Combo4 : 255,128,64

[HitObjects]
256,192,10426,12,0,12896,0:0:0
188,96,13249,6,0,P|256:67|324:96,1,152
324,288,13955,2,0,P|256:317|188:288,1,152
344,192,14661,2,0,P|420:192,2,76
256,192,15190,1,0,0:0:0
168,192,15367,2,0,P|92:192,2,76
324,96,16073,6,0,P|256:67|188:96,2,152,0|2|0,0:0|0:0|0:0,0:0:0
392,156,16955,2,0,P|403:192|392:228,1,76,0|2,0:0|0:0,0:0:0
324,288,17308,2,0,P|256:317|188:288,2,152,0|0|0,0:0|0:0|0:0,0:0:0
306,198,18190,2,0,P|304:112|352:68,1,152,0|2,0:0|0:0,0:0:0
404,244,18896,5,0,0:0:0
256,352,19249,1,2,0:0:0
108,244,19602,2,0,P|80:212|68:180,2,76,0|0|2,0:0|0:0|0:0,0:0:0
184,192,20131,2,0,P|256:171|328:192,1,152,0|0,0:0|0:0,0:0:0
404,244,20661,2,0,P|432:212|444:180,2,76,2|0|0,0:0|0:0|0:0,0:0:0
42,192,21720,6,0,P|70:120|126:72,2,152,0|2|0,0:0|0:0|0:0,0:0:0
134,192,22602,2,0,P|210:192,1,76,0|2,0:0|0:0,0:0:0
302,192,22955,2,0,P|274:264|218:312,2,152,0|0|0,0:0|0:0|0:0,0:0:0
256,112,23837,1,0,0:0:0
440,112,24190,1,2,0:0:0
256,112,24543,6,0,P|208:136|156:96|104:120,2,152,0|2|0,0:0|0:0|0:0,0:0:0
348,112,25425,1,0,0:0:0
348,204,25602,1,2,0:0:0
256,204,25778,2,0,P|208:228|156:188|104:212,1,152,0|0,0:0|0:0,0:0:0
56,288,26308,2,0,P|92:304|128:300,2,76,2|0|0,0:0|0:0|0:0,0:0:0
184,64,27367,6,0,P|236:116|256:192,1,152,0|2,0:0|0:0,0:0:0
120,124,28073,2,0,P|100:92|96:52,2,76,0|0|2,0:0|0:0|0:0,0:0:0
184,64,28602,2,0,P|257:64|325:103,2,152
120,124,29484,2,0,P|120:197|159:265,1,152,0|2,0:0|0:0,0:0:0
344,192,30190,5,0,0:0:0
256,40,30543,1,2,0:0:0
168,192,30896,2,0,P|92:192,2,76,0|0|2,0:0|0:0|0:0,0:0:0
256,142,31425,2,0,P|320:96|396:104,1,152,0|0,0:0|0:0,0:0:0
456,168,31955,2,0,P|476:144|484:100,2,76,2|0|0,0:0|0:0|0:0,0:0:0
256,248,32661,1,2,0:0:0
56,168,33014,6,0,P|104:108|172:76,1,152,4|8,0:0|0:0,0:0:0
256,248,33720,2,0,P|232:280|200:300,1,76
172,212,34073,2,0,P|196:180|228:160,1,76,8|0,0:0|0:0,0:0:0
316,160,34425,5,0,0:0:0
110,105,34778,1,8,0:0:0
165,310,35131,2,0,P|196:336|232:348,2,76,0|0|8,0:0|0:0|0:0,0:0:0
92,256,35661,1,0,0:0:0
28,192,35837,6,0,P|80:136|148:104,1,152,0|8,0:0|0:0,0:0:0
356,140,36543,2,0,P|332:172|300:192,1,76
272,104,36896,2,0,P|296:72|328:52,1,76,8|0,0:0|0:0,0:0:0
428,76,37249,5,2,0:0:0
428,308,37602,2,2,P|364:336|280:336,2,152,2|0|8,0:0|0:0|0:0,0:0:0
256,192,38661,6,2,P|174:192|110:220,2,152,4|8|0,0:0|0:0|0:0,0:0:0
348,192,39543,1,0,0:0:0
440,192,39720,2,0,P|464:160|480:128,2,76,8|0|0,0:0|0:0|0:0,0:0:0
288,292,40425,5,2,1:0:0
224,92,40778,2,0,P|148:76|72:76,1,152,2|8,1:0|0:0,0:0:0
256,192,41484,6,0,P|332:192,2,76,0|0|8,0:0|0:0|0:0,0:0:0
164,192,42014,1,0,0:0:0
88,244,42190,2,0,P|132:308|196:344,1,152,0|8,0:0|0:0,0:0:0
288,344,42720,2,0,P|364:344,1,76
436,176,43249,5,2,1:0:0
256,144,43602,2,0,P|180:144|108:168,1,152,2|8,1:0|0:0,0:0:0
256,276,44308,6,0,P|332:276|404:252,1,152,0|8,0:0|0:0,0:0:0
403,69,45014,2,0,P|366:45|332:40,2,76,0|0|8,0:0|0:0|0:0,0:0:0
403,160,45543,2,0,P|368:152|336:128,1,76
160,76,46073,5,2,1:0:0
20,192,46425,2,0,P|44:264|96:320,1,152,2|8,1:0|0:0,0:0:0
276,320,47131,6,0,P|352:320,2,76,0|0|8,0:0|0:0|0:0,0:0:0
184,320,47661,1,0,0:0:0
230,242,47837,2,0,P|244:168|232:92,2,152,0|8|0,0:0|0:0|0:0,0:0:0
64,164,48896,5,2,1:0:0
233,93,49249,2,0,P|295:138|337:200,1,152,2|8,1:0|0:0,0:0:0
156,316,49955,5,0,1:0:0
356,316,50308,1,0,1:0:0
256,204,50661,2,0,P|256:44,1,152,0|0,1:0|1:0,0:0:0
140,164,51367,6,0,P|88:224|84:276|156:276|128:228,1,152,0|0,1:0|1:0,0:0:0
384,196,52073,6,0,P|392:256|360:208,1,152,0|0,1:0|1:0,0:0:0
256,104,52778,5,4,1:0:0
256,192,54190,12,0,56661,0:0:0
348,192,57014,6,0,P|416:156|460:96,2,152,14|8|10,0:0|0:0|0:0,0:0:0
164,192,58073,2,0,P|88:192,1,76,8|0,0:0|0:0,0:0:0
60,280,58425,2,0,P|108:320|195:328,1,152,10|8,0:0|0:0,0:0:0
256,260,58955,1,0,0:0:0
317,328,59131,2,0,P|404:320|452:280,1,152,10|8,0:0|0:0,0:0:0
468,96,59837,5,10,0:0:0
356,240,60190,1,8,0:0:0
256,88,60543,1,10,0:0:0
156,240,60896,1,8,0:0:0
44,96,61249,2,0,P|96:52|177:43,1,152,10|8,0:0|0:0,0:0:0
256,88,61778,1,0,0:0:0
334,43,61955,2,0,P|416:52|468:96,1,152,10|8,0:0|0:0,0:0:0
467,278,62661,6,0,P|402:329|334:335,1,152,10|8,0:0|0:0,0:0:0
388,164,63367,2,0,P|323:215|255:221,1,152,10|8,0:0|0:0,0:0:0
256,40,64073,1,10,0:0:0
156,192,64425,1,8,0:0:0
256,344,64778,2,0,P|296:352|336:352,2,76,10|0|8,0:0|0:0|0:0,0:0:0
197,273,65308,1,0,0:0:0
252,192,65484,6,0,P|316:148|392:144,2,152,10|8|10,0:0|0:0|0:0,0:0:0
197,273,66367,1,0,0:0:0
120,320,66543,2,0,P|84:296|64:264,1,76,8|0,0:0|0:0,0:0:0
52,180,66896,6,0,P|40:144,2,38,10|0|0,0:0|0:0|0:0,0:0:0
136,144,67249,2,0,P|136:104,2,38,8|0|0,0:0|0:0|0:0,0:0:0
220,180,67602,2,0,P|292:204|368:208,1,152,10|8,0:0|0:0,0:0:0
488,72,68308,6,0,P|416:48|340:44,1,152,14|8,0:0|0:0,0:0:0
160,60,69014,1,10,0:0:0
328,128,69367,1,8,0:0:0
456,260,69720,2,0,P|388:300|316:300,1,152,10|8,0:0|0:0,0:0:0
256,232,70249,1,0,0:0:0
196,300,70425,2,0,P|124:300|56:260,1,152,10|8,0:0|0:0,0:0:0
56,77,71131,6,0,P|124:37|196:37,2,152,10|8|10,0:0|0:0|0:0,0:0:0
218,160,72190,2,0,P|294:160,1,76,8|0,0:0|0:0,0:0:0
358,224,72543,2,0,P|290:264|218:264,1,152,10|8,0:0|0:0,0:0:0
144,212,73072,1,0,0:0:0
218,160,73249,2,0,P|150:120|78:120,1,152,10|8,0:0|0:0,0:0:0
84,304,73955,5,10,0:0:0
256,360,74308,1,8,0:0:0
428,304,74661,1,10,0:0:0
256,240,75014,1,8,0:0:0
84,176,75367,1,10,0:0:0
256,112,75720,1,8,0:0:0
428,176,76073,2,0,P|468:168|500:152,2,76,10|0|8,0:0|0:0|0:0,0:0:0
340,148,76602,1,0,0:0:0
256,112,76778,6,0,P|180:112|104:128,2,152,10|8|10,0:0|0:0|0:0,0:0:0
268,203,77661,1,0,0:0:0
256,292,77837,2,0,P|220:308|184:312,1,76,8|0,0:0|0:0,0:0:0
104,268,78190,6,0,P|68:280,2,38,10|0|0,0:0|0:0|0:0,0:0:0
56,192,78543,2,0,P|16:192,2,38,8|0|0,0:0|0:0|0:0,0:0:0
104,116,78896,2,0,P|176:84|248:76,1,152,10|8,0:0|0:0,0:0:0
356,224,79602,6,0,P|284:256|212:264,2,152,4|8|0,0:0|0:0|0:0,0:0:0
384,136,80484,1,0,0:0:0
356,48,80661,2,0,P|320:36|280:32,2,76,8|0|0,0:0|0:0|0:0,0:0:0
468,192,81367,5,2,1:0:0
332,320,81720,2,0,P|280:264|256:192,1,152,2|8,1:0|0:0,0:0:0
344,32,82425,6,0,P|420:32,2,76,0|0|8,0:0|0:0|0:0,0:0:0
256,64,82955,1,0,0:0:0
168,32,83131,2,0,P|88:44|28:80,1,152,0|8,0:0|0:0,0:0:0
16,172,83661,2,0,P|61:168|89:152,1,76
256,64,84190,5,2,1:0:0
384,192,84543,2,0,P|352:264|304:320,1,152,2|8,1:0|0:0,0:0:0
128,268,85249,6,0,P|160:196|208:140,1,152,0|8,0:0|0:0,0:0:0
256,64,85778,1,0,0:0:0
164,64,85955,2,0,P|87:63|16:40,2,152,0|8|0,0:0|0:0|0:0,0:0:0
348,64,87014,5,2,1:0:0
256,220,87367,2,0,P|184:240|112:220,1,152,2|8,1:0|0:0,0:0:0
256,108,88073,6,0,P|328:88|400:108,1,152,0|8,0:0|0:0,0:0:0
440,192,88602,1,0,0:0:0
400,276,88778,2,0,P|328:296|256:276,1,152,0|8,0:0|0:0,0:0:0
92,192,89484,1,0,0:0:0
256,108,89837,5,2,1:0:0
420,192,90190,2,0,P|409:269|356:316,1,152,2|8,1:0|0:0,0:0:0
156,316,90896,5,0,1:0:0
356,316,91249,1,0,1:0:0
256,204,91602,2,0,P|256:44,1,152,0|0,1:0|1:0,0:0:0
108,196,92308,6,0,P|132:180|132:180|168:192|168:192|120:280,1,152,0|0,1:0|1:0,0:0:0
384,196,93014,6,0,P|392:256|360:208,1,152,0|0,1:0|1:0,0:0:0
256,104,93719,5,4,1:0:0
256,192,95131,12,0,96543,1:0:0
256,192,96896,2,0,P|256:352,2,152,0|0|0,1:0|1:0|1:0,0:0:0
108,196,97955,6,0,P|132:180|132:180|168:192|168:192|120:280,1,152,0|0,1:0|1:0,0:0:0
392,168,98661,6,0,P|340:228|336:280|408:280|380:232,1,152,0|0,1:0|1:0,0:0:0
256,128,99367,5,4,1:0:0
256,192,101837,6,0,P|256:152,2,38,0|0|4,1:0|1:0|1:0,1:0:0
