osu file format v14

[General]
AudioFilename: 01 Dream High.mp3
AudioLeadIn: 0
PreviewTime: 53485
Countdown: 0
SampleSet: Soft
StackLeniency: 0.7
Mode: 0
LetterboxInBreaks: 0
WidescreenStoryboard: 0

[Editor]
DistanceSpacing: 0.8
BeatDivisor: 4
GridSize: 4
TimelineZoom: 1

[Metadata]
Title:Dream High
TitleUnicode:Dream High
Artist:Dream High Cast
ArtistUnicode:Dream High Cast
Creator:Fenya
Version:Normal
Source:Dream High
Tags:Woo yeong Taeg yeon Suzy Kim Su hyun IU Drama K-POP
BeatmapID:141427
BeatmapSetID:45271

[Difficulty]
HPDrainRate:4
CircleSize:3
OverallDifficulty:4
ApproachRate:4
SliderMultiplier:1.4
SliderTickRate:1

[Events]
//Background and Video events
0,0,"dreamhighbg.png",0,0
//Break Periods
2,144393,157992
//Storyboard Layer 0 (Background)
//Storyboard Layer 1 (Fail)
//Storyboard Layer 2 (Pass)
//Storyboard Layer 3 (Foreground)
//Storyboard Sound Samples

[TimingPoints]
8131,472.44094488189,4,2,1,75,1,0
23131,-100,4,2,1,75,0,0
49705,-100,4,2,1,45,0,0
51595,-100,4,2,1,75,0,0
53485,-100,4,2,1,75,0,1
83721,-100,4,2,1,75,0,0
110060,-100,4,2,1,50,0,0
112186,-100,4,2,1,75,0,0
113957,-100,4,2,1,75,0,1
144193,-100,4,2,1,75,0,0
174430,-100,4,2,1,75,0,1
200768,-100,4,2,1,60,0,1
201005,-100,4,2,1,75,0,1
204666,-100,4,2,1,75,0,0

[Colours]
Combo1 : 224,224,224
Combo2 : 199,150,84

[HitObjects]
64,80,8131,6,0,P|124:56|200:80,1,140,2|0,0:0|0:0,0:0:0:0:
216,108,8839,1,0,0:0:0:0:
208,240,9548,2,0,B|276:286|344:240,2,140,0|2|0,0:0|0:0|0:0,0:0:0:0:
152,240,10729,1,2,0:0:0:0:
48,200,11201,5,0,0:0:0:0:
96,168,11438,1,0,0:0:0:0:
140,132,11674,2,0,P|224:52|344:132,1,280,2|2,0:0|0:0,0:0:0:0:
428,276,13327,5,0,0:0:0:0:
316,276,13800,2,0,B|248:308|180:276,1,140,2|0,0:0|0:0,0:0:0:0:
124,280,14508,1,2,0:0:0:0:
80,176,14981,6,0,L|80:104,1,70
128,76,15453,2,0,P|216:20|296:76,1,210,0|2,0:0|0:0,0:0:0:0:
296,128,16398,1,2,0:0:0:0:
360,220,16871,2,0,B|296:260|224:220,2,140,0|2|0,0:0|0:0|0:0,0:0:0:0:
400,180,18052,1,2,0:0:0:0:
328,92,18524,5,2,0:0:0:0:
216,92,18997,1,2,0:0:0:0:
160,92,19233,2,0,B|192:188|112:188|160:300,1,210,0|2,0:0|0:0,0:0:0:0:
324,144,20886,2,0,B|388:192|452:144,2,140,2|0|2,0:0|0:0|0:0,0:0:0:0:
240,68,22304,2,0,P|172:44|108:68,1,140
48,160,23249,6,0,B|112:208|176:160,1,140,4|8,0:0|0:0,0:0:0:0:
220,124,23957,1,0,0:0:0:0:
300,48,24430,2,0,B|372:48,1,70,0|8,0:0|0:0,0:0:0:0:
424,68,24902,2,0,B|480:124,1,70,0|2,0:0|0:0,0:0:0:0:
436,224,25611,6,0,B|444:308|364:328,1,140,8|2,0:0|0:0,0:0:0:0:
308,332,26319,1,0,0:0:0:0:
308,332,26556,1,8,0:0:0:0:
272,228,27028,2,0,B|188:256|204:340,2,140,0|8|0,0:0|0:0|0:0,0:0:0:0:
304,120,28445,5,8,0:0:0:0:
196,92,28918,1,0,0:0:0:0:
116,168,29390,1,8,0:0:0:0:
112,280,29863,6,0,B|176:328|240:280,1,140,0|8,0:0|0:0,0:0:0:0:
176,192,30808,1,4,0:0:0:0:
232,96,31280,1,8,0:0:0:0:
344,128,31753,1,0,0:0:0:0:
384,232,32225,2,0,B|384:328|288:328,1,140,8|2,0:0|0:0,0:0:0:0:
256,352,32934,1,0,0:0:0:0:
208,328,33170,2,0,B|128:328|127:232,1,140,8|0,0:0|0:0,0:0:0:0:
136,120,34115,1,8,0:0:0:0:
248,120,34587,5,2,0:0:0:0:
360,124,35060,2,0,B|440:140|448:220,2,140,8|0|8,0:0|0:0|0:0,0:0:0:0:
328,232,36477,1,2,0:0:0:0:
304,344,36949,2,0,B|224:328|216:248,2,140,8|0|8,0:0|0:0|0:0,0:0:0:0:
408,312,38367,5,4,0:0:0:0:
408,200,38839,2,0,B|408:112|320:112,1,140,8|0,0:0|0:0,0:0:0:0:
264,112,39548,1,0,0:0:0:0:
208,112,39784,2,0,B|208:16,2,70,8|0|2,0:0|0:0|0:0,0:0:0:0:
208,224,40729,5,8,0:0:0:0:
96,224,41201,1,0,0:0:0:0:
32,136,41674,1,8,0:0:0:0:
96,48,42146,2,0,B|160:8|232:48,2,140,2|8|0,0:0|0:0|0:0,0:0:0:0:
160,136,43564,1,8,0:0:0:0:
160,248,44036,5,0,0:0:0:0:
256,312,44508,1,8,0:0:0:0:
304,336,44745,1,0,0:0:0:0:
352,312,44981,1,0,0:0:0:0:
448,248,45453,2,0,B|488:184|448:112,1,140,8|4,0:0|0:0,0:0:0:0:
336,120,46398,5,8,0:0:0:0:
240,176,46871,2,0,B|168:176,2,70,0|0|8,0:0|0:0|0:0,0:0:0:0:
272,224,47579,2,0,P|328:248|400:224,1,140
400,112,48524,2,0,B|336:64|272:112,1,140,2|0,0:0|0:0,0:0:0:0:
216,112,49233,1,8,0:0:0:0:
256,192,49705,12,4,51595,0:0:0:0:
256,192,53012,5,8,0:0:0:0:
256,136,53249,1,0,0:0:0:0:
256,80,53485,6,0,B|168:80|168:168,1,140,4|8,0:0|0:0,0:0:0:0:
168,224,54193,1,2,0:0:0:0:
336,224,54902,2,0,B|400:184|400:256|480:208,2,140,8|2|8,0:0|0:0|0:0,0:0:0:0:
280,224,56083,1,2,0:0:0:0:
192,288,56556,5,0,0:0:0:0:
136,288,56792,1,8,0:0:0:0:
136,176,57264,2,0,B|97:112|169:104|131:44,2,140,2|8|0,0:0|0:0|0:0,0:0:0:0:
248,176,58682,2,0,B|336:196|328:292,2,140,8|2|8,0:0|0:0|0:0,0:0:0:0:
192,176,59863,1,2,0:0:0:0:
160,280,60335,5,0,0:0:0:0:
104,280,60571,2,0,B|16:285|4:185,2,140,8|2|8,0:0|0:0|0:0,0:0:0:0:
116,168,61989,1,2,0:0:0:0:
188,80,62461,1,8,0:0:0:0:
300,80,62934,1,2,0:0:0:0:
372,168,63406,1,8,0:0:0:0:
268,204,63879,6,0,B|196:252|140:204,1,140,2|8,0:0|0:0,0:0:0:0:
196,108,64823,2,0,B|132:60|68:108,1,140,0|8,0:0|0:0,0:0:0:0:
256,224,66241,2,0,B|328:264|392:224,2,140,8|2|8,0:0|0:0|0:0,0:0:0:0:
128,176,68130,5,8,0:0:0:0:
192,80,68603,2,0,B|128:40|56:80,2,140,4|8|2,0:0|0:0|0:0,0:0:0:0:
128,176,70020,1,8,0:0:0:0:
184,272,70493,1,2,0:0:0:0:
240,272,70729,1,0,0:0:0:0:
296,272,70965,2,0,B|384:272,1,70,8|2,0:0|0:0,0:0:0:0:
416,168,71674,6,0,B|488:168,2,70,0|8|0,0:0|0:0|0:0,0:0:0:0:
376,128,72382,2,0,B|312:88|240:128,2,140,2|8|0,0:0|0:0|0:0,0:0:0:0:
312,224,73800,1,8,0:0:0:0:
312,336,74272,1,2,0:0:0:0:
256,336,74508,1,0,0:0:0:0:
200,336,74745,2,0,B|128:336,1,70,8|2,0:0|0:0,0:0:0:0:
176,192,75690,5,8,0:0:0:0:
256,272,76162,1,2,0:0:0:0:
336,192,76634,1,8,0:0:0:0:
256,112,77107,1,2,0:0:0:0:
176,32,77579,6,0,B|88:44|76:120,2,140,8|2|8,0:0|0:0|0:0,0:0:0:0:
255,111,78997,1,0,0:0:0:0:
336,32,79469,2,0,B|420:44|432:124,2,140,8|2|8,0:0|0:0|0:0,0:0:0:0:
176,192,81359,5,8,0:0:0:0:
255,112,81831,1,0,0:0:0:0:
334,191,82304,1,8,0:0:0:0:
440,224,82776,2,0,B|408:168|480:144|440:80,1,140,0|8,0:0|0:0,0:0:0:0:
336,112,83721,5,4,0:0:0:0:
256,32,84193,1,8,0:0:0:0:
176,112,84666,1,2,0:0:0:0:
256,192,85138,2,0,B|296:256|216:264|264:344,2,140,8|2|8,0:0|0:0|0:0,0:0:0:0:
248,80,86556,5,0,0:0:0:0:
136,48,87028,2,0,B|48:48|48:136,1,140,8|2,0:0|0:0,0:0:0:0:
48,248,87973,2,0,B|47:333|135:333,1,140,8|0,0:0|0:0,0:0:0:0:
160,224,88918,1,8,0:0:0:0:
272,224,89390,6,0,B|272:128,1,70,2|0,0:0|0:0,0:0:0:0:
224,128,89863,2,0,B|224:56,2,70,8|0|2,0:0|0:0|0:0,0:0:0:0:
112,136,90808,2,0,B|72:200|144:200|112:272,1,140,8|4,0:0|0:0,0:0:0:0:
224,272,91753,5,8,0:0:0:0:
280,272,91989,2,0,B|240:208|312:208|280:136,1,140
276,84,92697,1,8,0:0:0:0:
164,80,93170,2,0,B|76:88|68:168,2,140,0|8|0,0:0|0:0|0:0,0:0:0:0:
220,84,94351,1,0,0:0:0:0:
220,84,94587,1,8,0:0:0:0:
268,184,95060,6,0,B|316:232|212:256|276:320,1,140,0|8,0:0|0:0,0:0:0:0:
324,312,95768,1,0,0:0:0:0:
380,312,96005,2,0,B|428:264|324:240|388:176,1,140,0|8,0:0|0:0,0:0:0:0:
492,184,96949,2,0,B|492:95|420:24|276:24|204:95|204:207,1,420,2|8,0:0|0:0,0:0:0:0:
144,80,98839,5,4,0:0:0:0:
32,112,99312,2,0,B|32:264,1,140,8|0,0:0|0:0,0:0:0:0:
120,320,100256,1,8,0:0:0:0:
168,288,100493,1,0,0:0:0:0:
224,288,100729,2,0,B|320:288,2,70,2|0|8,0:0|0:0|0:0,0:0:0:0:
224,176,101674,5,2,0:0:0:0:
112,160,102146,2,0,B|128:80|208:72,2,140,8|2|8,0:0|0:0|0:0,0:0:0:0:
112,216,103327,1,0,0:0:0:0:
144,264,103564,2,0,B|232:264,1,70,2|0,0:0|0:0,0:0:0:0:
272,264,104036,1,8,0:0:0:0:
351,192,104508,5,2,0:0:0:0:
271,112,104981,1,8,0:0:0:0:
191,191,105453,1,0,0:0:0:0:
116,108,105926,2,0,B|28:108|13:189,1,140,8|4,0:0|0:0,0:0:0:0:
120,216,106871,1,8,0:0:0:0:
192,288,107343,6,0,B|256:328|328:288,1,140,0|8,0:0|0:0,0:0:0:0:
384,192,108288,1,2,0:0:0:0:
312,104,108760,1,8,0:0:0:0:
256,96,108997,2,0,B|192:56|120:96,1,140
88,136,109705,1,8,0:0:0:0:
256,192,110178,12,6,112068,0:0:0:0:
64,208,113485,5,8,0:0:0:0:
64,208,113721,1,0,0:0:0:0:
60,152,113957,6,0,P|136:68|248:152,1,280,4|2,0:0|0:0,0:0:0:0:
152,212,115375,1,8,0:0:0:0:
244,276,115847,1,2,0:0:0:0:
336,212,116319,2,0,B|384:160,1,70,8|2,0:0|0:0,0:0:0:0:
248,60,117264,1,8,0:0:0:0:
192,156,117737,6,0,P|98:69|3:155,1,280,2|0,0:0|0:0,0:0:0:0:
96,220,119154,1,8,0:0:0:0:
208,220,119627,2,0,B|280:220,2,70,0|0|8,0:0|0:0|0:0,0:0:0:0:
152,216,120335,1,2,0:0:0:0:
208,56,121044,6,0,B|144:8|80:56,2,140,8|2|8,0:0|0:0|0:0,0:0:0:0:
248,96,122225,1,0,0:0:0:0:
288,56,122461,2,0,B|344:8|416:56,1,140,0|8,0:0|0:0,0:0:0:0:
416,168,123406,1,2,0:0:0:0:
344,256,123879,1,8,0:0:0:0:
232,256,124351,6,0,B|168:224|160:296|88:248,1,140,0|8,0:0|0:0,0:0:0:0:
48,160,125296,2,0,B|80:96|8:88|56:16,2,140,0|8|0,0:0|0:0|0:0,0:0:0:0:
160,156,126713,2,0,P|236:72|348:156,1,280,8|8,0:0|0:0,0:0:0:0:
296,312,128367,5,0,0:0:0:0:
296,312,128603,1,8,0:0:0:0:
408,312,129075,2,0,B|504:312|504:216,2,140,4|8|0,0:0|0:0|0:0,0:0:0:0:
296,312,130493,1,8,0:0:0:0:
296,256,130729,1,0,0:0:0:0:
296,144,131201,2,0,B|376:144,2,70,0|8|0,0:0|0:0|0:0,0:0:0:0:
200,88,132382,6,0,B|104:88|104:184,2,140,8|2|8,0:0|0:0|0:0,0:0:0:0:
256,88,133564,1,2,0:0:0:0:
424,88,134272,2,0,B|424:256,1,140,8|2,0:0|0:0,0:0:0:0:
328,288,135217,1,8,0:0:0:0:
328,288,135453,1,0,0:0:0:0:
224,336,135926,5,0,0:0:0:0:
216,280,136162,1,8,0:0:0:0:
160,288,136398,2,0,P|96:208|160:144,1,210
216,144,137343,2,0,L|360:144,1,140,0|8,0:0|0:0,0:0:0:0:
416,144,138052,1,8,0:0:0:0:
350,48,138524,6,0,B|280:48,1,70,2|0,0:0|0:0,0:0:0:0:
224,48,138997,1,8,0:0:0:0:
136,120,139469,1,0,0:0:0:0:
56,200,139942,1,8,0:0:0:0:
136,280,140414,2,0,B|196:340|258:278,1,140,4|8,0:0|0:0,0:0:0:0:
412,116,141831,6,0,P|318:29|223:115,1,280,8|8,0:0|0:0,0:0:0:0:
320,172,143249,1,0,0:0:0:0:
320,228,143485,1,0,0:0:0:0:
320,284,143721,2,0,B|258:322|186:282,1,140,2|4,0:0|0:0,0:0:0:0:
48,304,159312,6,0,B|192:304,1,140,4|8,0:0|0:0,0:0:0:0:
120,216,160256,2,0,B|260:216,1,140,2|8,0:0|0:0,0:0:0:0:
376,216,161201,1,2,0:0:0:0:
416,176,161438,1,0,0:0:0:0:
416,120,161674,1,8,0:0:0:0:
328,48,162146,2,0,B|240:48|240:144,1,140,2|8,0:0|0:0,0:0:0:0:
240,192,162855,6,0,B|240:288,1,70,0|2,0:0|0:0,0:0:0:0:
296,264,163327,2,0,B|368:264,1,70,0|8,0:0|0:0,0:0:0:0:
424,264,163800,1,0,0:0:0:0:
480,264,164036,2,0,B|480:352,2,70,0|0|8,0:0|0:0|0:0,0:0:0:0:
480,152,164981,6,0,B|480:56|376:56,1,140,2|8,0:0|0:0,0:0:0:0:
368,168,165926,2,0,B|368:240,2,70,0|0|8,0:0|0:0|0:0,0:0:0:0:
232,152,166871,5,2,0:0:0:0:
176,152,167107,1,0,0:0:0:0:
120,152,167343,2,0,B|120:56,2,70,8|0|0,0:0|0:0|0:0,0:0:0:0:
120,208,168052,1,0,0:0:0:0:
176,208,168288,1,8,0:0:0:0:
128,312,168760,6,0,B|216:312,1,70,2|0,0:0|0:0,0:0:0:0:
256,312,169233,1,8,0:0:0:0:
368,312,169705,1,0,0:0:0:0:
448,240,170178,2,0,B|448:160,1,70,8|0,0:0|0:0,0:0:0:0:
448,112,170650,5,2,0:0:0:0:
448,56,170886,1,0,0:0:0:0:
392,56,171123,2,0,B|296:56,1,70,8|0,0:0|0:0,0:0:0:0:
268,56,171595,2,0,L|184:56,1,70,2|0,0:0|0:0,0:0:0:0:
140,56,172068,1,8,0:0:0:0:
28,76,172540,6,0,B|28:164|140:164,1,140,2|8,0:0|0:0,0:0:0:0:
172,164,173249,1,0,0:0:0:0:
228,164,173485,2,0,B|316:164|316:268,1,140
204,264,174430,6,0,B|203:340|283:364|283:364|363:340|363:260,1,280,4|0,0:0|0:0,0:0:0:0:
284,180,175847,1,8,0:0:0:0:
340,180,176083,2,0,B|425:180|425:92,1,140
388,52,176792,1,8,0:0:0:0:
332,52,177028,1,0,0:0:0:0:
168,20,177737,5,8,0:0:0:0:
92,100,178209,2,0,P|5:193|91:288,1,280,2|0,0:0|0:0,0:0:0:0:
148,192,179627,2,0,B|300:192,2,140,8|2|8,0:0|0:0|0:0,0:0:0:0:
92,192,180808,1,2,0:0:0:0:
96,80,181280,1,0,0:0:0:0:
136,40,181516,1,8,0:0:0:0:
176,80,181753,6,0,B|320:80,2,140,0|0|2,0:0|0:0|0:0,0:0:0:0:
120,80,182934,1,0,0:0:0:0:
56,168,183406,1,8,0:0:0:0:
88,272,183879,1,2,0:0:0:0:
200,288,184351,1,8,0:0:0:0:
208,184,184823,6,0,B|224:104|320:104,1,140,0|8,0:0|0:0,0:0:0:0:
308,216,185768,2,0,B|392:216|408:136,1,140,2|8,0:0|0:0,0:0:0:0:
184,108,187186,2,0,P|278:22|372:108,1,280,8|8,0:0|0:0,0:0:0:0:
280,248,188839,1,0,0:0:0:0:
280,248,189075,1,8,0:0:0:0:
196,176,189548,6,0,B|196:104|282:80|282:80|362:104|362:184,1,280,4|0,0:0|0:0,0:0:0:0:
472,188,190965,1,8,0:0:0:0:
440,296,191438,2,0,B|352:296,1,70
316,296,191910,1,8,0:0:0:0:
260,296,192146,1,0,0:0:0:0:
104,232,192855,5,8,0:0:0:0:
104,120,193327,1,2,0:0:0:0:
216,120,193800,2,0,B|224:200|312:208,1,140,8|0,0:0|0:0,0:0:0:0:
336,104,194745,2,0,B|424:112|432:200,2,140,8|2|8,0:0|0:0|0:0,0:0:0:0:
280,104,195926,1,2,0:0:0:0:
168,112,196398,6,0,B|200:168|136:184|168:272,1,140,2|0,0:0|0:0,0:0:0:0:
160,304,197107,1,4,0:0:0:0:
272,304,197579,1,8,0:0:0:0:
272,248,197816,2,0,B|304:192|240:176|272:88,1,140,2|0,0:0|0:0,0:0:0:0:
232,72,198524,5,8,0:0:0:0:
176,56,198760,2,0,B|8:56,1,140,2|0,0:0|0:0,0:0:0:0:
36,56,199469,1,8,0:0:0:0:
80,160,199942,5,2,0:0:0:0:
88,216,200178,1,0,0:0:0:0:
136,244,200414,1,8,0:0:0:0:
248,260,200886,1,6,0:0:0:0:
352,212,201359,1,8,0:0:0:0:
156,104,202304,6,0,P|216:72|280:108,2,140,8|2|8,0:0|0:0|0:0,0:0:0:0:
220,260,203957,2,0,P|292:316|384:240,1,210,0|4,0:0|0:0,0:0:0:0:
