osu file format v14

[General]
AudioFilename: 01 Dream High.mp3
AudioLeadIn: 0
PreviewTime: 53485
Countdown: 0
SampleSet: Soft
StackLeniency: 0.7
Mode: 0
LetterboxInBreaks: 0
WidescreenStoryboard: 0

[Editor]
Bookmarks: 8131,38367,67658,80532,98839,144193,174430,206556
DistanceSpacing: 1.2
BeatDivisor: 4
GridSize: 4
TimelineZoom: 1.4

[Metadata]
Title:Dream High
TitleUnicode:Dream High
Artist:Dream High Cast
ArtistUnicode:Dream High Cast
Creator:Fenya
Version:Hard
Source:Dream High
Tags:Woo yeong Taeg yeon Suzy Kim Su hyun IU Drama K-POP
BeatmapID:141426
BeatmapSetID:45271

[Difficulty]
HPDrainRate:7
CircleSize:4
OverallDifficulty:7
ApproachRate:7
SliderMultiplier:1.4
SliderTickRate:1

[Events]
//Background and Video events
0,0,"dreamhighbg.png",0,0
//Break Periods
//Storyboard Layer 0 (Background)
//Storyboard Layer 1 (Fail)
//Storyboard Layer 2 (Pass)
//Storyboard Layer 3 (Foreground)
//Storyboard Sound Samples

[TimingPoints]
8131,472.44094488189,4,2,1,80,1,0
8131,-166.666666666667,4,2,1,80,0,0
20768,-100,4,2,1,80,0,0
23190,-100,4,2,1,60,0,0
23308,-100,4,2,1,80,0,0
53485,-100,4,2,1,80,0,1
83721,-100,4,2,1,80,0,0
111949,-100,4,2,1,40,0,0
113485,-100,4,2,1,80,0,0
113957,-100,4,2,1,80,0,1
144193,-100,4,2,1,80,0,0
174430,-100,4,2,1,80,0,1
203603,-100,4,2,1,30,0,1
204666,-100,4,2,1,60,0,0

[Colours]
Combo1 : 224,224,224
Combo2 : 199,150,84

[HitObjects]
48,72,8131,6,0,B|88:104|128:72,1,84.0000020027161,2|0,0:0|0:0,0:0:0:0:
168,48,8839,1,0,0:0:0:0:
416,256,9548,6,0,B|376:224|336:256,1,84.0000020027161,0|2,0:0|0:0,0:0:0:0:
296,288,10256,1,0,0:0:0:0:
248,312,10493,1,0,0:0:0:0:
200,288,10729,1,2,0:0:0:0:
104,176,11201,5,0,0:0:0:0:
104,176,11438,1,0,0:0:0:0:
152,176,11674,2,0,B|232:176|232:80,1,125.999996154785,2|0,0:0|0:0,0:0:0:0:
232,48,12619,1,2,0:0:0:0:
352,72,13327,5,0,0:0:0:0:
392,72,13564,2,0,B|476:72,1,84.0000020027161,0|2,0:0|0:0,0:0:0:0:
480,112,14272,1,2,0:0:0:0:
480,152,14508,1,0,0:0:0:0:
424,248,14981,6,0,B|384:272,1,42.0000010013581,0|2,0:0|0:0,0:0:0:0:
344,296,15453,2,0,B|288:344|224:296,1,126.000003004074,0|2,0:0|0:0,0:0:0:0:
208,256,16398,2,0,B|168:232|128:256,1,84.0000020027161
88,224,17107,1,2,0:0:0:0:
72,184,17343,2,0,P|56:144|72:104,1,83.9999974365235,0|2,0:0|0:0,0:0:0:0:
104,88,18052,1,0,0:0:0:0:
136,64,18288,1,0,0:0:0:0:
176,40,18524,5,2,0:0:0:0:
216,64,18760,1,0,0:0:0:0:
248,88,18997,1,0,0:0:0:0:
280,112,19233,2,0,B|312:152|282:188,1,84.0000020027161,2|2,0:0|0:0,0:0:0:0:
256,216,19942,2,0,B|224:256|256:296,1,84.0000020027161,2|0,0:0|0:0,0:0:0:0:
408,224,20886,5,0,0:0:0:0:
344,168,21123,2,0,L|344:96,1,70,0|2,0:0|0:0,0:0:0:0:
264,96,21595,1,0,0:0:0:0:
184,96,21831,2,0,B|184:192,1,70,2|0,0:0|0:0,0:0:0:0:
96,168,22304,2,0,B|96:88,2,70,0|2|0,0:0|0:0|0:0,0:0:0:0:
264,166,23249,6,0,B|264:96,1,70,4|0,0:0|0:0,0:0:0:0:
348,96,23721,1,8,0:0:0:0:
348,180,23957,2,0,B|348:250,1,70,0|2,0:0|0:0,0:0:0:0:
432,248,24430,2,0,B|432:178,1,70,0|8,0:0|0:0,0:0:0:0:
472,104,24902,1,0,0:0:0:0:
440,32,25138,1,2,0:0:0:0:
360,32,25375,1,0,0:0:0:0:
296,80,25611,6,0,B|200:80,1,70,8|0,0:0|0:0,0:0:0:0:
376,144,26083,2,0,B|456:144,1,70,2|0,0:0|0:0,0:0:0:0:
288,184,26556,1,8,0:0:0:0:
288,184,26792,2,0,B|200:184,2,70,0|2|0,0:0|0:0|0:0,0:0:0:0:
376,248,27501,2,0,B|472:248,1,70,8|0,0:0|0:0,0:0:0:0:
376,112,27973,1,2,0:0:0:0:
288,44,28209,1,0,0:0:0:0:
200,112,28445,1,8,0:0:0:0:
32,200,28918,5,2,0:0:0:0:
104,240,29154,2,0,B|104:328,1,70,0|8,0:0|0:0,0:0:0:0:
184,344,29627,1,0,0:0:0:0:
256,296,29863,2,0,B|320:336,1,70,2|0,0:0|0:0,0:0:0:0:
400,320,30335,1,8,0:0:0:0:
344,256,30571,1,0,0:0:0:0:
344,176,30808,5,4,0:0:0:0:
344,96,31044,2,0,B|264:96,1,70,0|8,0:0|0:0,0:0:0:0:
272,176,31516,2,0,B|200:176,1,70,0|2,0:0|0:0,0:0:0:0:
192,96,31989,2,0,B|120:96,1,70,0|8,0:0|0:0,0:0:0:0:
48,56,32461,1,0,0:0:0:0:
48,56,32697,5,2,0:0:0:0:
48,136,32934,2,0,B|48:224,2,70,0|8|0,0:0|0:0|0:0,0:0:0:0:
128,136,33642,1,2,0:0:0:0:
168,208,33879,1,0,0:0:0:0:
248,208,34115,1,8,0:0:0:0:
288,136,34351,1,0,0:0:0:0:
208,128,34587,6,0,B|208:32,1,70,2|0,0:0|0:0,0:0:0:0:
292,56,35060,1,8,0:0:0:0:
372,52,35296,1,0,0:0:0:0:
292,56,35532,1,0,0:0:0:0:
208,52,35768,2,0,P|176:80|208:226,1,210,0|2,0:0|0:0,0:0:0:0:
248,136,36713,5,0,0:0:0:0:
328,136,36949,2,0,B|408:136,1,70,8|0,0:0|0:0,0:0:0:0:
248,136,37422,1,2,0:0:0:0:
168,136,37658,2,0,B|72:136,2,70,0|8|0,0:0|0:0|0:0,0:0:0:0:
328,136,38367,5,4,0:0:0:0:
392,192,38603,2,0,B|392:264,1,70,0|8,0:0|0:0,0:0:0:0:
328,320,39075,1,2,0:0:0:0:
264,264,39312,2,0,B|264:192,1,70,2|0,0:0|0:0,0:0:0:0:
184,224,39784,2,0,B|184:154,1,70,8|0,0:0|0:0,0:0:0:0:
104,120,40256,6,0,L|104:192,2,70,0|0|8,0:0|0:0|0:0,0:0:0:0:
152,48,40965,2,0,P|184:40|224:48,1,70,0|2,0:0|0:0,0:0:0:0:
184,120,41438,1,0,0:0:0:0:
224,192,41674,2,0,P|192:200|154:192,1,70,8|0,0:0|0:0,0:0:0:0:
184,120,42146,5,2,0:0:0:0:
232,48,42382,1,0,0:0:0:0:
312,80,42619,1,8,0:0:0:0:
384,40,42855,2,0,L|456:40,2,70,2|2|0,0:0|0:0|0:0,0:0:0:0:
312,80,43564,1,8,0:0:0:0:
312,248,44036,6,0,L|240:248,1,70,2|0,0:0|0:0,0:0:0:0:
184,304,44508,1,8,0:0:0:0:
104,272,44745,1,2,0:0:0:0:
88,232,44863,1,0,0:0:0:0:
104,192,44981,1,2,0:0:0:0:
72,112,45217,2,0,P|104:104|144:112,2,70,0|8|0,0:0|0:0|0:0,0:0:0:0:
104,192,45926,6,0,P|160:216|232:192,1,140,4|8,0:0|0:0,0:0:0:0:
168,136,46634,1,2,0:0:0:0:
204,60,46871,2,0,P|174:52|134:60,2,70,2|0|8,0:0|0:0|0:0,0:0:0:0:
288,64,47579,1,0,0:0:0:0:
340,132,47816,5,2,0:0:0:0:
328,216,48052,1,0,0:0:0:0:
296,240,48170,1,0,0:0:0:0:
256,248,48288,1,8,0:0:0:0:
176,248,48524,2,0,L|106:248,2,70,2|2|0,0:0|0:0|0:0,0:0:0:0:
224,176,49233,1,8,0:0:0:0:
224,176,49469,1,0,0:0:0:0:
368,96,49705,6,0,L|296:96,1,70,2|0,0:0|0:0,0:0:0:0:
216,96,50178,1,8,0:0:0:0:
136,96,50414,2,0,L|66:96,2,70,0|2|0,0:0|0:0|0:0,0:0:0:0:
216,96,51123,1,8,0:0:0:0:
296,96,51359,1,0,0:0:0:0:
256,192,51595,12,2,53012,0:0:0:0:
120,96,53485,6,0,B|88:168|152:168|120:248,1,140,4|8,0:0|0:0,0:0:0:0:
188,288,54193,2,0,P|216:308|316:284,1,140
248,232,54903,1,8,0:0:0:0:
248,152,55139,2,0,B|248:80,1,70,0|2,0:0|0:0,0:0:0:0:
168,80,55611,2,0,B|168:160,2,70,0|8|2,0:0|0:0|0:0,0:0:0:0:
336,72,56556,5,0,0:0:0:0:
416,72,56792,1,8,0:0:0:0:
376,144,57028,2,0,B|376:208|425:208|425:272,1,140,0|0,0:0|0:0,0:0:0:0:
344,264,57737,1,8,0:0:0:0:
312,192,57973,1,0,0:0:0:0:
232,168,58210,1,2,0:0:0:0:
298,325,58682,5,8,0:0:0:0:
218,309,58918,1,0,0:0:0:0:
186,229,59155,1,2,0:0:0:0:
266,245,59390,2,0,L|314:189,1,70,0|8,0:0|0:0,0:0:0:0:
232,168,59863,1,2,0:0:0:0:
432,156,60336,6,0,P|464:148|504:156,1,70,0|8,0:0|0:0,0:0:0:0:
472,224,60808,2,0,B|472:312|368:312,1,140,0|2,0:0|0:0,0:0:0:0:
376,224,61517,1,8,0:0:0:0:
376,144,61753,2,0,B|288:144|288:240,1,140,0|2,0:0|0:0,0:0:0:0:
288,312,62462,5,8,0:0:0:0:
224,368,62698,1,0,0:0:0:0:
144,368,62934,1,2,0:0:0:0:
88,312,63170,1,0,0:0:0:0:
136,248,63407,1,8,0:0:0:0:
216,240,63643,2,0,B|216:168,1,70,0|2,0:0|0:0,0:0:0:0:
248,88,64115,5,0,0:0:0:0:
320,136,64351,1,8,0:0:0:0:
404,140,64587,2,0,P|400:176|316:220,1,140
320,136,65296,1,8,0:0:0:0:
248,88,65532,2,0,L|168:88,1,70
248,168,66005,2,0,L|168:168,1,70,0|8,0:0|0:0,0:0:0:0:
192,248,66477,6,0,P|248:280|312:248,1,140
248,192,67186,2,0,P|304:160|368:192,1,140,8|2,0:0|0:0,0:0:0:0:
440,152,67894,1,0,0:0:0:0:
440,152,68131,1,8,0:0:0:0:
432,68,68367,5,0,0:0:0:0:
348,68,68603,2,0,P|288:98|228:67,1,140,4|8,0:0|0:0,0:0:0:0:
148,64,69312,2,0,P|88:33|29:64,1,140
88,124,70021,1,8,0:0:0:0:
44,196,70257,1,0,0:0:0:0:
128,196,70493,1,2,0:0:0:0:
212,196,70729,2,0,B|212:268,2,70,0|8|0,0:0|0:0|0:0,0:0:0:0:
352,120,71674,6,0,B|352:48,2,70,0|8|0,0:0|0:0|0:0,0:0:0:0:
352,200,72382,2,0,P|296:232|232:200,1,140,2|8,0:0|0:0,0:0:0:0:
176,144,73091,2,0,P|120:112|56:144,1,140
120,200,73800,1,8,0:0:0:0:
120,280,74036,2,0,B|120:352,1,70,0|2,0:0|0:0,0:0:0:0:
208,352,74509,1,0,0:0:0:0:
208,352,74745,2,0,B|208:280,1,70,8|0,0:0|0:0,0:0:0:0:
208,200,75218,1,0,0:0:0:0:
288,200,75453,6,0,L|288:128,1,70,0|8,0:0|0:0,0:0:0:0:
372,132,75926,2,0,P|400:188|368:252,1,140,0|2,0:0|0:0,0:0:0:0:
316,188,76634,1,8,0:0:0:0:
264,132,76871,2,0,P|232:188|268:252,1,140
316,188,77580,1,8,0:0:0:0:
400,188,77816,2,0,B|400:124|336:124|336:60,1,140,0|2,0:0|0:0,0:0:0:0:
420,64,78525,1,8,0:0:0:0:
252,64,78997,5,2,0:0:0:0:
180,112,79233,1,0,0:0:0:0:
204,192,79470,1,8,0:0:0:0:
288,192,79705,2,0,P|344:224|408:192,1,140,2|0,0:0|0:0,0:0:0:0:
348,136,80414,1,8,0:0:0:0:
72,56,81359,6,0,B|72:120|120:120|120:184,2,140,8|2|8,0:0|0:0|0:0,0:0:0:0:
168,56,82540,1,0,0:0:0:0:
168,56,82777,1,0,0:0:0:0:
248,56,83013,2,0,B|248:136,2,70,2|10|0,0:0|0:0|0:0,0:0:0:0:
328,56,83721,5,4,0:0:0:0:
304,136,83957,2,0,P|344:144|376:136,1,70,0|8,0:0|0:0,0:0:0:0:
328,56,84430,1,0,0:0:0:0:
192,72,84902,6,0,P|152:64|120:72,1,70,0|8,0:0|0:0,0:0:0:0:
160,144,85375,1,0,0:0:0:0:
100,200,85611,2,0,P|156:232|224:192,1,140,0|8,0:0|0:0,0:0:0:0:
160,144,86319,1,0,0:0:0:0:
216,80,86556,5,0,0:0:0:0:
272,144,86792,1,0,0:0:0:0:
216,208,87028,2,0,B|216:296,1,70,8|0,0:0|0:0,0:0:0:0:
296,308,87501,2,0,P|352:340|420:300,1,140,0|8,0:0|0:0,0:0:0:0:
356,248,88209,1,0,0:0:0:0:
260,192,88445,1,2,0:0:0:0:
356,136,88682,1,0,0:0:0:0:
252,88,88918,1,8,0:0:0:0:
172,296,89390,5,2,0:0:0:0:
76,240,89627,1,0,0:0:0:0:
172,184,89863,1,8,0:0:0:0:
76,128,90099,1,0,0:0:0:0:
172,72,90335,2,0,L|244:72,2,70,2|0|8,0:0|0:0|0:0,0:0:0:0:
244,144,91044,2,0,L|174:144,1,70,0|4,0:0|0:0,0:0:0:0:
100,184,91516,5,0,0:0:0:0:
172,224,91753,2,0,L|244:224,1,70,8|0,0:0|0:0,0:0:0:0:
172,296,92225,2,0,L|244:296,2,70,2|0|8,0:0|0:0|0:0,0:0:0:0:
172,296,92934,1,0,0:0:0:0:
256,160,93170,5,2,0:0:0:0:
320,112,93406,1,0,0:0:0:0:
256,240,93642,1,8,0:0:0:0:
320,296,93879,1,0,0:0:0:0:
384,240,94115,2,0,L|456:240,1,70,2|0,0:0|0:0,0:0:0:0:
384,168,94587,2,0,L|454:168,1,70,8|0,0:0|0:0,0:0:0:0:
464,88,95060,6,0,P|400:56|336:88,1,140,2|8,0:0|0:0,0:0:0:0:
400,136,95768,1,0,0:0:0:0:
400,224,96005,1,2,0:0:0:0:
400,304,96241,2,0,B|400:344,2,35,0|0|8,0:0|0:0|0:0,0:0:0:0:
400,224,96713,1,0,0:0:0:0:
328,264,96949,5,2,0:0:0:0:
268,208,97186,1,0,0:0:0:0:
300,132,97422,1,8,0:0:0:0:
384,140,97658,1,0,0:0:0:0:
384,56,97894,2,0,B|464:56,2,70,2|0|10,0:0|0:0|0:0,0:0:0:0:
176,56,98839,6,0,B|88:64,1,70,4|0,0:0|0:0,0:0:0:0:
48,120,99312,1,8,0:0:0:0:
16,200,99548,1,0,0:0:0:0:
96,216,99784,1,2,0:0:0:0:
152,280,100020,1,0,0:0:0:0:
192,296,100138,1,0,0:0:0:0:
232,280,100256,1,8,0:0:0:0:
296,224,100493,2,0,B|376:224,2,70,0|2|0,0:0|0:0|0:0,0:0:0:0:
446,224,101201,1,8,0:0:0:0:
504,144,101438,5,2,0:0:0:0:
448,64,101674,2,0,B|376:32,1,70,2|0,0:0|0:0,0:0:0:0:
312,80,102146,1,8,0:0:0:0:
232,48,102382,2,0,B|192:120|104:112,1,140,2|0,0:0|0:0,0:0:0:0:
72,184,103091,1,8,0:0:0:0:
120,248,103327,1,0,0:0:0:0:
144,280,103445,1,0,0:0:0:0:
184,288,103564,1,2,0:0:0:0:
280,288,103800,1,2,0:0:0:0:
376,272,104036,5,8,0:0:0:0:
376,176,104272,2,0,B|376:104,1,70,0|2,0:0|0:0,0:0:0:0:
304,40,104745,2,0,B|304:128,1,70,0|8,0:0|0:0,0:0:0:0:
232,144,105217,1,0,0:0:0:0:
232,184,105335,1,0,0:0:0:0:
232,224,105453,1,2,0:0:0:0:
160,272,105690,1,2,0:0:0:0:
304,272,105926,2,8,B|392:304|432:216,1,140,8|4,0:0|0:0,0:0:0:0:
320,104,106871,5,8,0:0:0:0:
288,184,107107,2,0,B|254:201|216:184,2,70,0|2|0,0:0|0:0|0:0,0:0:0:0:
192,104,107816,1,8,0:0:0:0:
256,48,108052,1,0,0:0:0:0:
320,104,108288,2,0,B|392:152,1,70,2|0,0:0|0:0,0:0:0:0:
376,224,108760,1,8,0:0:0:0:
320,288,108997,1,0,0:0:0:0:
240,264,109233,6,0,B|152:264|152:176,1,140,2|8,0:0|0:0,0:0:0:0:
152,178,109942,1,0,0:0:0:0:
144,96,110178,2,0,B|232:96|232:184,1,140,2|8,0:0|0:0,0:0:0:0:
315,181,110886,2,0,B|315:95|403:95,1,140,2|0,0:0|0:0,0:0:0:0:
400,176,111595,1,8,0:0:0:0:
400,176,111831,1,0,0:0:0:0:
256,192,112068,12,8,113485,0:0:0:0:
184,192,113957,6,0,B|184:104|272:104,1,140,4|8,0:0|0:0,0:0:0:0:
352,104,114666,2,0,B|352:192|264:192,1,140
208,256,115375,1,8,0:0:0:0:
128,224,115611,2,0,B|64:160,1,70,0|2,0:0|0:0,0:0:0:0:
80,88,116083,2,0,B|144:24,2,70,0|8|2,0:0|0:0|0:0,0:0:0:0:
240,136,117028,5,0,0:0:0:0:
320,112,117264,1,8,0:0:0:0:
360,184,117501,2,0,B|456:184|456:272,1,140,0|2,0:0|0:0,0:0:0:0:
376,272,118209,1,8,0:0:0:0:
296,272,118445,1,0,0:0:0:0:
248,200,118682,1,2,0:0:0:0:
152,64,119154,5,8,0:0:0:0:
80,112,119390,1,0,0:0:0:0:
152,160,119627,1,2,0:0:0:0:
224,112,119863,2,0,B|264:128|312:104,1,70,0|8,0:0|0:0,0:0:0:0:
256,40,120335,1,2,0:0:0:0:
408,112,120808,6,0,B|456:112|480:152,1,70,0|8,0:0|0:0,0:0:0:0:
408,192,121280,2,0,B|400:280|304:288,1,140,0|2,0:0|0:0,0:0:0:0:
320,200,121989,1,8,0:0:0:0:
328,120,122225,2,0,B|240:128|232:224,1,140,0|2,0:0|0:0,0:0:0:0:
264,304,122934,5,8,0:0:0:0:
184,336,123170,1,0,0:0:0:0:
104,320,123406,1,2,0:0:0:0:
56,248,123642,1,0,0:0:0:0:
64,160,123879,1,8,0:0:0:0:
120,96,124115,2,0,B|152:80|192:88,1,70,0|2,0:0|0:0,0:0:0:0:
272,88,124587,5,0,0:0:0:0:
304,168,124823,1,8,0:0:0:0:
368,224,125060,2,0,B|305:286|240:224,1,140,0|2,0:0|0:0,0:0:0:0:
304,168,125768,1,8,0:0:0:0:
224,160,126005,6,8,B|160:200|91:161,1,140,0|0,0:0|0:0,0:0:0:0:
24,216,126714,2,0,B|-14:147|25:83,1,140,8|2,0:0|0:0,0:0:0:0:
264,88,127422,5,2,0:0:0:0:
224,112,127540,1,0,0:0:0:0:
200,144,127658,1,8,0:0:0:0:
344,88,127894,1,2,0:0:0:0:
384,112,128012,1,0,0:0:0:0:
416,144,128130,1,8,0:0:0:0:
304,216,128367,2,0,B|304:136,2,70,0|8|0,0:0|0:0|0:0,0:0:0:0:
128,192,129075,6,0,B|200:192|240:120,1,140,4|8,0:0|0:0,0:0:0:0:
160,104,129784,2,0,B|192:32|280:32,1,140,2|0,0:0|0:0,0:0:0:0:
344,72,130493,1,8,0:0:0:0:
408,120,130729,1,0,0:0:0:0:
376,200,130965,1,2,0:0:0:0:
304,248,131201,2,0,B|352:304,2,70,0|8|2,0:0|0:0|0:0,0:0:0:0:
120,232,132146,6,0,B|48:232,2,70,0|8|0,0:0|0:0|0:0,0:0:0:0:
208,232,132855,2,0,B|272:232|272:144|200:144,1,140,2|8,0:0|0:0,0:0:0:0:
128,144,133564,2,0,B|64:144|64:56|136:56,1,140
208,48,134272,1,8,0:0:0:0:
288,56,134508,2,0,B|368:96,1,70,0|2,0:0|0:0,0:0:0:0:
424,128,134981,1,0,0:0:0:0:
472,192,135217,2,0,B|472:264,1,70,8|0,0:0|0:0,0:0:0:0:
392,256,135690,1,0,0:0:0:0:
336,192,135926,5,0,0:0:0:0:
336,192,136162,1,8,0:0:0:0:
280,256,136398,2,0,B|248:328|168:320,1,140,2|2,0:0|0:0,0:0:0:0:
200,232,137107,1,8,0:0:0:0:
200,232,137343,2,0,B|240:160|320:168,1,140
384,208,138052,1,8,0:0:0:0:
464,208,138288,2,0,B|464:144|400:144|400:80,1,140,0|2,0:0|0:0,0:0:0:0:
480,72,138997,1,8,0:0:0:0:
280,72,139469,5,2,0:0:0:0:
200,80,139705,1,0,0:0:0:0:
160,152,139942,1,8,0:0:0:0:
200,224,140178,1,0,0:0:0:0:
200,224,140414,2,0,B|264:176|336:224,1,140,2|8,0:0|0:0,0:0:0:0:
384,284,141123,2,0,P|412:300|524:264,1,140
496,192,141831,6,0,B|496:128|448:128|448:64,2,140,8|2|8,0:0|0:0|0:0,0:0:0:0:
360,88,143012,1,0,0:0:0:0:
360,88,143249,1,0,0:0:0:0:
272,64,143485,2,0,B|272:128|223:128|223:192,1,140,2|2,0:0|0:0,0:0:0:0:
144,224,144193,5,4,0:0:0:0:
112,304,144430,2,0,P|144:312|184:304,1,70,0|2,0:0|0:0,0:0:0:0:
240,248,144902,1,0,0:0:0:0:
280,232,145020,1,0,0:0:0:0:
320,248,145138,1,2,0:0:0:0:
376,304,145375,2,0,P|408:312|448:304,2,70,0|2|0,0:0|0:0|0:0,0:0:0:0:
408,224,146083,1,2,0:0:0:0:
344,168,146319,5,0,0:0:0:0:
352,128,146438,1,0,0:0:0:0:
344,88,146556,2,0,B|344:48|320:24,1,70,2|0,0:0|0:0,0:0:0:0:
216,88,147028,2,0,B|216:48|240:24,1,70,2|0,0:0|0:0,0:0:0:0:
192,160,147501,2,0,B|168:184|168:224,2,70,2|0|2,0:0|0:0|0:0,0:0:0:0:
192,160,148091,5,0,0:0:0:0:
192,160,148209,1,0,0:0:0:0:
264,112,148445,1,2,0:0:0:0:
304,96,148564,1,0,0:0:0:0:
344,112,148682,1,0,0:0:0:0:
304,184,148918,2,0,B|304:256,1,70,2|0,0:0|0:0,0:0:0:0:
144,296,149627,5,0,0:0:0:0:
104,280,149745,1,0,0:0:0:0:
88,240,149863,1,2,0:0:0:0:
168,208,150099,2,0,L|224:144,1,70,0|2,0:0|0:0,0:0:0:0:
288,112,150571,1,0,0:0:0:0:
408,216,150808,2,0,B|352:152,2,70,2|0|2,0:0|0:0|0:0,0:0:0:0:
416,296,151516,5,0,0:0:0:0:
384,320,151634,1,0,0:0:0:0:
344,336,151753,2,0,L|264:336,1,70,2|0,0:0|0:0,0:0:0:0:
128,336,152225,2,0,L|208:336,1,70,2|0,0:0|0:0,0:0:0:0:
240,336,152579,1,0,0:0:0:0:
240,296,152697,1,2,0:0:0:0:
280,224,152934,1,0,0:0:0:0:
240,208,153052,1,0,0:0:0:0:
200,224,153170,1,2,0:0:0:0:
128,184,153406,6,0,P|120:152|128:104,1,70,0|2,0:0|0:0,0:0:0:0:
152,88,153760,1,0,0:0:0:0:
184,64,153879,1,0,0:0:0:0:
264,40,154115,1,2,0:0:0:0:
344,64,154351,5,0,0:0:0:0:
384,80,154469,1,0,0:0:0:0:
408,112,154587,2,0,P|416:152|408:192,1,70,2|0,0:0|0:0,0:0:0:0:
384,264,155060,1,2,0:0:0:0:
320,312,155296,1,0,0:0:0:0:
240,312,155532,6,0,B|240:352,2,35,2|0|0,0:0|0:0|0:0,0:0:0:0:
168,232,156005,1,2,0:0:0:0:
240,144,156241,2,0,B|240:104,2,35,0|0|2,0:0|0:0|0:0,0:0:0:0:
320,224,156713,2,0,L|392:224,2,70,0|2|0,0:0|0:0|0:0,0:0:0:0:
256,192,157422,12,8,158839,0:0:0:0:
80,88,159312,6,0,L|80:160,1,70,2|0,0:0|0:0,0:0:0:0:
144,208,159784,1,8,0:0:0:0:
208,88,160020,2,0,L|208:168,2,70,0|2|0,0:0|0:0|0:0,0:0:0:0:
288,208,160729,1,8,0:0:0:0:
344,272,160965,5,0,0:0:0:0:
384,280,161083,1,0,0:0:0:0:
424,272,161201,1,2,0:0:0:0:
472,208,161438,1,0,0:0:0:0:
448,128,161674,2,0,L|384:88,1,70,8|0,0:0|0:0,0:0:0:0:
312,48,162146,2,0,L|232:48,2,70,2|0|8,0:0|0:0|0:0,0:0:0:0:
312,136,162855,6,0,L|240:136,1,70,0|2,0:0|0:0,0:0:0:0:
312,224,163327,2,0,L|232:224,1,70,0|8,0:0|0:0,0:0:0:0:
160,216,163800,2,0,L|160:160,2,35,0|0|2,0:0|0:0|0:0,0:0:0:0:
88,176,164154,2,0,L|88:211,2,35
88,136,164508,1,8,0:0:0:0:
160,88,164745,6,0,L|160:16,1,70,0|2,0:0|0:0,0:0:0:0:
232,88,165217,2,0,L|232:8,1,70,0|8,0:0|0:0,0:0:0:0:
320,24,165690,1,0,0:0:0:0:
400,96,165926,2,0,L|400:26,2,70,2|0|8,0:0|0:0|0:0,0:0:0:0:
400,176,166634,6,0,L|400:248,1,70,0|2,0:0|0:0,0:0:0:0:
336,296,167107,1,0,0:0:0:0:
296,312,167225,1,0,0:0:0:0:
256,320,167343,1,8,0:0:0:0:
96,296,167579,1,0,0:0:0:0:
136,312,167698,1,0,0:0:0:0:
176,320,167816,1,2,0:0:0:0:
216,248,168052,2,0,L|216:168,2,70,0|8|0,0:0|0:0|0:0,0:0:0:0:
296,224,168760,5,2,0:0:0:0:
360,168,168997,2,0,P|392:160|430:168,1,70,0|8,0:0|0:0,0:0:0:0:
392,240,169469,1,0,0:0:0:0:
392,280,169587,1,0,0:0:0:0:
392,320,169705,2,0,L|480:320,2,70,2|0|8,0:0|0:0|0:0,0:0:0:0:
232,272,170650,5,2,0:0:0:0:
232,232,170768,1,0,0:0:0:0:
232,192,170886,1,0,0:0:0:0:
200,112,171123,2,0,P|232:104|272:112,1,70,8|0,0:0|0:0,0:0:0:0:
384,272,171595,1,2,0:0:0:0:
384,232,171713,1,0,0:0:0:0:
384,192,171831,1,0,0:0:0:0:
416,112,172068,2,0,P|376:104|344:112,1,70,8|0,0:0|0:0,0:0:0:0:
280,64,172540,6,0,L|192:64,1,70,2|0,0:0|0:0,0:0:0:0:
280,144,173012,2,0,L|200:144,1,70,8|0,0:0|0:0,0:0:0:0:
280,224,173485,2,0,L|192:224,1,70,2|0,0:0|0:0,0:0:0:0:
128,224,173957,1,8,0:0:0:0:
48,72,174430,6,0,P|112:48|192:72,1,140,4|8,0:0|0:0,0:0:0:0:
248,120,175138,1,0,0:0:0:0:
320,72,175375,2,0,P|384:48|456:72,1,140,0|8,0:0|0:0,0:0:0:0:
392,128,176083,1,0,0:0:0:0:
360,208,176319,2,0,P|392:216|432:208,1,70
392,128,176792,1,8,0:0:0:0:
312,96,177028,1,0,0:0:0:0:
280,176,177264,5,2,0:0:0:0:
240,248,177501,1,0,0:0:0:0:
160,224,177737,1,8,0:0:0:0:
80,224,177973,2,0,P|88:296|160:320,1,140,2|0,0:0|0:0,0:0:0:0:
224,328,178682,1,8,0:0:0:0:
296,288,178918,1,0,0:0:0:0:
352,224,179154,6,0,P|296:192|232:224,1,140,2|8,0:0|0:0,0:0:0:0:
184,152,179863,1,0,0:0:0:0:
104,152,180099,2,0,L|104:64,1,70,2|0,0:0|0:0,0:0:0:0:
24,152,180571,2,0,L|24:72,1,70,8|0,0:0|0:0,0:0:0:0:
24,248,181280,1,0,0:0:0:0:
64,264,181398,1,0,0:0:0:0:
104,248,181516,1,8,0:0:0:0:
192,248,181753,1,0,0:0:0:0:
272,248,181989,6,0,P|336:280|392:248,1,140,2|8,0:0|0:0,0:0:0:0:
332,188,182697,1,0,0:0:0:0:
396,140,182934,1,2,0:0:0:0:
380,60,183170,1,0,0:0:0:0:
316,108,183406,1,8,0:0:0:0:
232,112,183642,6,0,P|176:80|112:112,1,140,2|2,0:0|0:0,0:0:0:0:
80,144,184233,1,0,0:0:0:0:
64,184,184351,1,8,0:0:0:0:
64,264,184587,1,2,0:0:0:0:
144,264,184823,2,0,P|208:288|280:264,1,140,2|8,0:0|0:0,0:0:0:0:
144,176,185532,2,0,P|208:152|280:176,1,140,2|0,0:0|0:0,0:0:0:0:
344,216,186241,1,8,0:0:0:0:
416,120,187186,6,0,L|336:120,1,70,2|0,0:0|0:0,0:0:0:0:
234,192,187658,2,0,L|304:192,2,70,2|0|2,0:0|0:0|0:0,0:0:0:0:
232,280,188367,1,0,0:0:0:0:
152,272,188603,2,0,B|152:184,1,70,2|0,0:0|0:0,0:0:0:0:
72,114,189075,2,0,B|72:184,1,70,8|0,0:0|0:0,0:0:0:0:
152,152,189548,6,0,P|216:128|288:152,1,140,4|8,0:0|0:0,0:0:0:0:
480,152,190256,2,0,P|416:128|344:152,1,140,0|0,0:0|0:0,0:0:0:0:
312,224,190965,1,8,0:0:0:0:
368,288,191201,2,0,B|416:288,2,35,0|0|2,0:0|0:0|0:0,0:0:0:0:
312,352,191674,1,0,0:0:0:0:
256,288,191910,1,8,0:0:0:0:
176,288,192146,2,0,B|96:288,1,70,2|0,0:0|0:0,0:0:0:0:
176,216,192619,2,0,L|104:216,1,70,0|8,0:0|0:0,0:0:0:0:
72,136,193091,6,0,P|128:104|192:136,1,140
272,144,193800,1,8,0:0:0:0:
352,144,194036,2,0,L|432:144,1,70,0|2,0:0|0:0,0:0:0:0:
488,200,194508,1,0,0:0:0:0:
488,200,194745,1,8,0:0:0:0:
424,256,194981,2,0,B|352:256,1,70,0|2,0:0|0:0,0:0:0:0:
424,328,195453,2,0,B|352:328,1,70,0|8,0:0|0:0,0:0:0:0:
272,328,195926,1,2,0:0:0:0:
122,328,196162,6,0,B|192:328,1,70
272,328,196634,1,8,0:0:0:0:
272,240,196871,1,0,0:0:0:0:
272,200,196989,1,0,0:0:0:0:
272,160,197107,1,4,0:0:0:0:
216,64,197343,1,0,0:0:0:0:
328,64,197579,1,8,0:0:0:0:
344,144,197816,6,0,P|400:112|408:32,1,140,2|0,0:0|0:0,0:0:0:0:
328,64,198524,1,8,0:0:0:0:
248,64,198760,2,0,B|176:64,1,70,0|2,0:0|0:0,0:0:0:0:
42,120,199233,2,0,B|112:120,1,70,0|8,0:0|0:0,0:0:0:0:
168,184,199705,5,2,0:0:0:0:
232,240,199942,1,0,0:0:0:0:
272,248,200060,1,0,0:0:0:0:
312,240,200178,1,0,0:0:0:0:
376,184,200414,1,8,0:0:0:0:
448,144,200650,2,0,L|448:64,1,70,0|4,0:0|0:0,0:0:0:0:
296,72,201123,2,0,B|216:72,2,70,0|8|0,0:0|0:0|0:0,0:0:0:0:
232,152,201831,2,0,B|302:152,1,70
232,232,202304,6,0,B|320:232,1,70,8|0,0:0|0:0,0:0:0:0:
454,232,202776,2,0,B|384:232,1,70,2|0,0:0|0:0,0:0:0:0:
344,90,203249,2,0,B|344:160,1,70,8|0,0:0|0:0,0:0:0:0:
256,192,203721,12,4,204666,0:0:0:0:
