osu file format v14

[General]
AudioFilename: 01 Dream High.mp3
AudioLeadIn: 0
PreviewTime: 53485
Countdown: 0
SampleSet: Soft
StackLeniency: 0.7
Mode: 0
LetterboxInBreaks: 0
WidescreenStoryboard: 0

[Editor]
Bookmarks: 144193,206083
DistanceSpacing: 1
BeatDivisor: 4
GridSize: 4
TimelineZoom: 1

[Metadata]
Title:Dream High
TitleUnicode:Dream High
Artist:Dream High Cast
ArtistUnicode:Dream High Cast
Creator:Fenya
Version:Easy
Source:Dream High
Tags:Woo yeong Taeg yeon Suzy Kim Su hyun IU Drama K-POP
BeatmapID:152183
BeatmapSetID:45271

[Difficulty]
HPDrainRate:2
CircleSize:3
OverallDifficulty:2
ApproachRate:2
SliderMultiplier:1
SliderTickRate:1

[Events]
//Background and Video events
0,0,"dreamhighbg.png",0,0
//Break Periods
2,144393,157279
//Storyboard Layer 0 (Background)
//Storyboard Layer 1 (Fail)
//Storyboard Layer 2 (Pass)
//Storyboard Layer 3 (Foreground)
//Storyboard Sound Samples

[TimingPoints]
8131,472.44094488189,4,2,1,75,1,0
23131,-100,4,2,1,50,0,0
23367,-100,4,2,1,75,0,0
38249,-100,4,2,1,50,0,0
38485,-100,4,2,1,75,0,0
49705,-100,4,2,1,45,0,0
51595,-100,4,2,1,75,0,0
53485,-100,4,2,1,75,0,1
83721,-100,4,2,1,75,0,0
110060,-100,4,2,1,50,0,0
113957,-100,4,2,1,75,0,1
142186,-100,4,2,1,30,0,1
144193,-100,4,2,1,50,0,0
144312,-100,4,2,1,75,0,0
166753,-100,4,2,1,60,0,0
166989,-100,4,2,1,75,0,0
174430,-100,4,2,1,75,0,1
204666,-100,4,2,1,75,0,0

[Colours]
Combo1 : 224,224,224
Combo2 : 199,150,84

[HitObjects]
88,224,8131,6,0,B|160:264|232:224,1,150,2|0,0:0|0:0,0:0:0:0:
160,96,9548,1,0,0:0:0:0:
260,96,10020,2,0,P|328:72|408:104,1,150,2|0,0:0|0:0,0:0:0:0:
328,228,11438,1,0,0:0:0:0:
240,272,11910,6,0,B|160:312|92:268,1,150,2|0,0:0|0:0,0:0:0:0:
176,144,13327,1,0,0:0:0:0:
276,144,13800,2,0,B|332:128|348:56,2,100,2|0|2,0:0|0:0|0:0,0:0:0:0:
224,232,15217,1,0,0:0:0:0:
152,168,15690,6,0,B|136:104|200:72,1,100,2|0,0:0|0:0,0:0:0:0:
256,152,16634,1,2,0:0:0:0:
360,152,17107,1,0,0:0:0:0:
456,168,17579,2,0,B|464:104|408:72,1,100,2|0,0:0|0:0,0:0:0:0:
328,56,18524,6,0,B|208:56,1,100,2|0,0:0|0:0,0:0:0:0:
132,80,19469,2,0,B|88:103|96:167,1,100,2|2,0:0|0:0,0:0:0:0:
272,88,20886,6,0,B|368:152|464:88,2,200,2|2|2,0:0|0:0|0:0,0:0:0:0:
168,88,23249,6,0,P|120:96|80:136,1,100,4|8,0:0|0:0,0:0:0:0:
168,184,24193,1,0,0:0:0:0:
232,264,24666,1,8,0:0:0:0:
320,320,25138,6,0,B|384:320|400:256,1,100,0|8,0:0|0:0,0:0:0:0:
404,164,26083,2,0,B|404:100|340:84,1,100,0|8,0:0|0:0,0:0:0:0:
251,87,27028,2,0,B|198:99|198:163,2,100,0|8|0,0:0|0:0|0:0,0:0:0:0:
304,172,28445,1,8,0:0:0:0:
120,96,29390,5,8,0:0:0:0:
216,48,29863,2,0,B|264:120|184:168|232:248,1,200,0|4,0:0|0:0,0:0:0:0:
176,328,31280,1,8,0:0:0:0:
280,328,31753,2,0,B|336:336|368:288,1,100,0|8,0:0|0:0,0:0:0:0:
376,192,32697,5,0,0:0:0:0:
352,96,33170,1,8,0:0:0:0:
256,64,33642,2,0,B|208:32|156:68,1,100,0|8,0:0|0:0,0:0:0:0:
104,144,34587,5,0,0:0:0:0:
152,232,35060,1,8,0:0:0:0:
248,232,35532,1,0,0:0:0:0:
352,232,36005,2,0,P|416:168|352:104,1,200,8|8,0:0|0:0,0:0:0:0:
152,104,37894,1,8,0:0:0:0:
224,40,38367,6,0,B|274:54|322:38,1,100,4|8,0:0|0:0,0:0:0:0:
384,112,39312,2,0,B|432:88|480:112,1,100,0|8,0:0|0:0,0:0:0:0:
428,196,40256,6,0,B|380:220|332:196,1,100,2|8,0:0|0:0,0:0:0:0:
284,108,41201,1,0,0:0:0:0:
212,44,41674,1,8,0:0:0:0:
132,108,42146,6,0,B|84:132|36:108,2,100,2|8|0,0:0|0:0|0:0,0:0:0:0:
208,176,43564,1,8,0:0:0:0:
280,108,44036,1,2,0:0:0:0:
352,176,44508,2,0,P|400:192|456:172,2,100,8|0|8,0:0|0:0|0:0,0:0:0:0:
400,88,45926,5,4,0:0:0:0:
300,72,46398,1,8,0:0:0:0:
240,152,46871,2,0,B|176:152|144:216,2,100,0|8|2,0:0|0:0|0:0,0:0:0:0:
248,252,48288,5,8,0:0:0:0:
348,252,48760,2,0,B|452:252,1,100,0|8,0:0|0:0,0:0:0:0:
256,192,49705,12,4,51595,0:0:0:0:
176,140,53485,6,0,P|260:92|344:148,1,200,4|0,0:0|0:0,0:0:0:0:
256,192,54902,1,8,0:0:0:0:
196,276,55375,2,0,B|148:300|100:276,2,100,2|8|2,0:0|0:0|0:0,0:0:0:0:
152,188,56792,1,8,0:0:0:0:
204,104,57264,6,0,B|284:72|308:144|404:96,1,200,2|0,0:0|0:0,0:0:0:0:
440,192,58682,1,8,0:0:0:0:
384,272,59154,1,2,0:0:0:0:
288,240,59627,2,0,B|240:208|192:240,1,100,8|0,0:0|0:0,0:0:0:0:
104,192,60571,1,8,0:0:0:0:
136,96,61044,6,0,B|184:72|232:96,2,100,2|8|0,0:0|0:0|0:0,0:0:0:0:
184,184,62461,1,8,0:0:0:0:
232,272,62934,2,0,B|344:272,1,100,2|8,0:0|0:0,0:0:0:0:
432,296,63879,5,2,0:0:0:0:
480,208,64351,1,8,0:0:0:0:
424,120,64823,2,0,B|408:64|344:56,1,100,2|8,0:0|0:0,0:0:0:0:
256,232,66241,2,0,P|172:288|104:232,1,200,8|8,0:0|0:0,0:0:0:0:
96,40,68131,5,8,0:0:0:0:
184,88,68603,2,4,P|200:144|184:200,1,100,4|8,0:0|0:0,0:0:0:0:
100,224,69548,1,2,0:0:0:0:
184,276,70020,5,8,0:0:0:0:
272,228,70493,2,0,B|336:236|368:172,2,100,2|8|0,0:0|0:0|0:0,0:0:0:0:
280,128,71910,1,8,0:0:0:0:
180,124,72382,6,0,P|100:180|143:262,1,200
224,212,73800,1,8,0:0:0:0:
324,228,74272,1,2,0:0:0:0:
392,300,74745,2,0,B|432:261|423:204,1,100,8|2,0:0|0:0,0:0:0:0:
428,108,75690,5,8,0:0:0:0:
344,56,76162,2,0,B|296:24|248:56,2,100,4|8|0,0:0|0:0|0:0,0:0:0:0:
292,140,77579,2,0,B|244:164|196:140,2,100,8|2|8,0:0|0:0|0:0,0:0:0:0:
244,52,78997,5,2,0:0:0:0:
144,52,79469,1,8,0:0:0:0:
108,144,79942,1,0,0:0:0:0:
60,232,80414,2,0,B|108:256|156:232,1,100,8|0,0:0|0:0,0:0:0:0:
208,148,81359,5,8,0:0:0:0:
272,224,81831,1,0,0:0:0:0:
360,280,82304,2,0,B|272:368|184:280,1,200,8|8,0:0|0:0,0:0:0:0:
272,224,83720,5,4,0:0:0:0:
188,168,84193,1,8,0:0:0:0:
88,168,84666,1,0,0:0:0:0:
88,68,85138,2,0,B|192:68,1,100,8|0,0:0|0:0,0:0:0:0:
272,124,86083,5,8,0:0:0:0:
360,176,86556,2,0,B|464:176,1,100,0|8,0:0|0:0,0:0:0:0:
460,276,87501,2,0,B|340:276,1,100,2|8,0:0|0:0,0:0:0:0:
272,224,88445,1,0,0:0:0:0:
128,80,89390,5,2,0:0:0:0:
56,152,89863,1,8,0:0:0:0:
80,248,90335,1,2,0:0:0:0:
176,288,90808,2,0,B|280:288,1,100,8|4,0:0|0:0,0:0:0:0:
376,264,91753,1,8,0:0:0:0:
408,168,92225,5,0,0:0:0:0:
328,104,92697,1,8,0:0:0:0:
240,64,93170,2,0,B|192:40|144:64,2,100,2|8|0,0:0|0:0|0:0,0:0:0:0:
192,152,94587,1,8,0:0:0:0:
296,152,95060,6,0,B|360:152|376:200,2,100,2|8|2,0:0|0:0|0:0,0:0:0:0:
284,252,96477,1,8,0:0:0:0:
308,348,96949,2,0,P|216:328|192:232,1,200,2|0,0:0|0:0,0:0:0:0:
368,112,98839,5,4,0:0:0:0:
288,56,99312,2,0,B|188:56,1,100,8|0,0:0|0:0,0:0:0:0:
188,155,100256,2,0,B|84:155,1,100,8|2,0:0|0:0,0:0:0:0:
88,255,101201,1,8,0:0:0:0:
184,280,101674,2,0,B|232:304|280:280,1,100,0|8,0:0|0:0,0:0:0:0:
232,192,102619,6,0,B|280:160|328:192,2,100,2|8|2,0:0|0:0|0:0,0:0:0:0:
128,192,104036,1,8,0:0:0:0:
136,96,104508,2,0,B|168:48|240:48,1,100,0|8,0:0|0:0,0:0:0:0:
320,48,105453,6,0,B|376:48|416:112,2,100,0|8|4,0:0|0:0|0:0,0:0:0:0:
320,152,106871,1,8,0:0:0:0:
240,216,107343,1,0,0:0:0:0:
160,152,107816,1,8,0:0:0:0:
240,96,108288,5,0,0:0:0:0:
336,64,108760,2,0,B|448:64,2,100,8|0|8,0:0|0:0|0:0,0:0:0:0:
256,192,110178,12,6,112068,0:0:0:0:
248,144,113957,6,0,B|296:200|392:104|456:168,1,200,4|0,0:0|0:0,0:0:0:0:
392,240,115375,1,8,0:0:0:0:
344,328,115848,2,0,B|392:352|440:328,2,100,2|8|0,0:0|0:0|0:0,0:3:0:0:
288,248,117265,1,8,0:0:0:0:
304,148,117737,6,0,P|216:168|188:264,1,200,2|2,0:0|0:0,0:0:0:0:
88,284,119155,1,8,0:0:0:0:
164,348,119627,1,2,0:0:0:0:
260,324,120099,2,0,B|324:324|340:260,1,100,8|2,0:0|0:0,0:0:0:0:
336,176,121044,1,8,0:0:0:0:
296,88,121517,6,0,B|248:64|200:88,2,100,2|8|0,0:0|0:0|0:0,0:0:0:0:
248,176,122934,1,8,0:0:0:0:
200,264,123407,2,0,B|248:288|296:264,1,100,2|8,0:0|0:0,0:0:0:0:
368,192,124352,5,2,0:0:0:0:
368,96,124824,1,8,0:0:0:0:
288,40,125296,2,0,B|184:40,1,100,2|8,0:0|0:0,0:0:0:0:
188,240,126713,2,0,P|260:300|320:236,1,200,8|8,0:0|0:0,0:0:0:0:
400,56,128603,5,8,0:0:0:0:
296,56,129076,2,0,B|296:156,1,100,4|8,0:0|0:0,0:0:0:0:
200,128,130021,1,0,0:0:0:0:
104,168,130493,1,8,0:0:0:0:
152,256,130966,2,0,B|200:280|248:256,2,100,2|8|0,0:0|0:0|0:0,0:0:0:0:
200,168,132383,5,8,0:0:0:0:
256,88,132855,2,0,B|328:56|384:112|472:72,1,200,2|0,0:0|0:0,0:0:0:0:
480,176,134273,1,8,0:0:0:0:
448,272,134745,1,0,0:0:0:0:
352,304,135218,2,0,B|296:328|248:304,1,100,8|0,0:0|0:0,0:0:0:0:
160,272,136163,5,8,0:0:0:0:
160,176,136635,2,0,B|104:160|88:104,2,100,4|8|0,0:0|0:0|0:0,0:0:0:0:
264,176,138052,2,0,B|320:160|344:104,2,100,8|2|8,0:0|0:0|0:0,0:0:0:0:
208,88,139470,5,2,0:0:0:0:
160,176,139942,1,8,0:0:0:0:
112,264,140415,1,2,0:0:0:0:
216,264,140887,2,0,B|264:296|312:264,1,100,8|0,0:0|0:0,0:0:0:0:
408,264,141832,1,8,0:0:0:0:
256,192,142304,12,4,144193,0:0:0:0:
208,288,158839,5,8,0:0:0:0:
128,224,159312,2,0,B|112:176|112:176|128:120,1,100,4|8,0:0|0:0,0:0:0:0:
208,72,160256,2,0,B|224:120|224:120|208:184,1,100,0|8,0:0|0:0,0:0:0:0:
272,248,161201,5,2,0:0:0:0:
372,248,161674,1,8,0:0:0:0:
460,296,162146,2,0,B|492:248|460:200,1,100,0|8,0:0|0:0,0:0:0:0:
376,152,163091,5,2,0:0:0:0:
424,64,163564,2,0,B|376:40|328:64,2,100,8|0|8,0:0|0:0|0:0,0:0:0:0:
376,152,164981,5,2,0:0:0:0:
300,216,165453,1,8,0:0:0:0:
272,312,165926,2,0,B|212:304|204:244,1,100,0|8,0:0|0:0,0:0:0:0:
132,180,166871,5,4,0:0:0:0:
60,108,167343,1,8,0:0:0:0:
132,36,167816,1,2,0:0:0:0:
204,108,168288,1,8,0:0:0:0:
276,176,168760,6,0,B|324:200|372:176,1,100,2|8,0:0|0:0,0:0:0:0:
320,92,169705,1,0,0:0:0:0:
220,92,170178,1,8,0:0:0:0:
120,84,170650,6,0,B|74:53|26:85,1,100,2|8,0:0|0:0,0:0:0:0:
76,172,171595,2,0,B|124:204|172:172,1,100,0|8,0:0|0:0,0:0:0:0:
232,96,172540,2,0,B|280:64|328:96,2,100,2|8|0,0:0|0:0|0:0,0:0:0:0:
284,180,173957,1,8,0:0:0:0:
360,244,174430,6,0,P|296:296|204:244,1,200,4|0,0:0|0:0,0:0:0:0:
200,144,175847,1,8,0:0:0:0:
112,192,176319,2,0,B|84:144|116:96,2,100,2|8|0,0:0|0:0|0:0,0:0:0:0:
200,144,177737,1,8,0:0:0:0:
260,64,178209,6,0,P|304:112|256:224,1,200,2|0,0:0|0:0,0:0:0:0:
200,144,179627,1,8,0:0:0:0:
124,208,180099,1,2,0:0:0:0:
48,144,180571,2,0,B|48:88|96:56,1,100,8|0,0:0|0:0,0:0:0:0:
192,56,181516,1,8,0:0:0:0:
292,60,181989,6,0,B|336:89|336:145,1,100,4|8,0:0|0:0,0:0:0:0:
332,244,182934,2,0,B|308:296|248:296,2,100,2|8|0,0:0|0:0|0:0,0:0:0:0:
244,196,184351,1,8,0:0:0:0:
232,96,184823,2,0,B|174:96|152:149,1,100,2|8,0:0|0:0,0:0:0:0:
56,164,185768,6,0,P|16:196|56:320,1,200,2|0,0:0|0:0,0:0:0:0:
120,240,187186,2,0,B|232:240,2,100,8|2|8,0:0|0:0|0:0,0:0:0:0:
284,124,189075,5,8,0:0:0:0:
372,172,189548,2,0,B|388:124|388:124|372:72,1,100,4|8,0:0|0:0,0:0:0:0:
284,124,190493,1,0,0:0:0:0:
188,124,190965,1,8,0:0:0:0:
97,171,191438,2,0,B|84:124|84:124|100:76,2,100,2|8|0,0:0|0:0|0:0,0:0:0:0:
172,236,192855,1,8,0:0:0:0:
272,236,193327,6,0,P|312:276|432:232,1,200,2|0,0:0|0:0,0:0:0:0:
352,168,194745,1,8,0:0:0:0:
320,72,195217,2,0,B|264:72|248:136,1,100,2|8,0:0|0:0,0:0:0:0:
208,224,196162,1,0,0:0:0:0:
116,180,196635,1,8,0:0:0:0:
148,84,197107,6,0,B|92:84|68:36,2,100,4|8|0,0:0|0:0|0:0,0:0:0:0:
248,84,198524,2,0,B|305:83|329:131,2,100,8|2|8,0:0|0:0|0:0,0:0:0:0:
240,184,199942,5,2,0:0:0:0:
144,216,200414,1,8,0:0:0:0:
144,320,200887,1,4,0:0:0:0:
240,288,201359,2,0,B|288:320|336:288,1,100,8|0,0:0|0:0,0:0:0:0:
432,280,202304,6,0,B|384:184|472:184|416:80,1,200,8|8,0:0|0:0,0:0:0:0:
336,144,203721,1,0,0:0:0:0:
248,96,204193,2,0,B|224:144|240:192,1,100,2|4,0:0|0:0,0:0:0:0:
