osu file format v6

[General]
AudioFilename: Everlasting Snow.mp3
AudioLeadIn: 0
PreviewTime: 90818
Countdown: 0
SampleSet: Normal
StackLeniency: 0.7
Mode: 0
LetterboxInBreaks: 1

[Editor]
DistanceSpacing: 0.600000023841858
BeatDivisor: 4
GridSize: 8

[Metadata]
Title:Everlasting Snow
Artist:Dream
Creator:Mystearica
Version:Normal
Source:
Tags:J-Pop Alace

[Difficulty]
HPDrainRate:1
CircleSize:4
OverallDifficulty:2
SliderMultiplier:1.4
SliderTickRate:0.5

[Events]
//Background and Video events
0,0,"bg.jpg"
//Break Periods
2,111638,119878
//Storyboard Layer 0 (Background)
//Storyboard Layer 1 (Fail)
//Storyboard Layer 2 (Pass)
//Storyboard Layer 3 (Foreground)
//Storyboard Sound Samples
//Background Colour Transformations
3,100,0,0,0

[TimingPoints]
28938,625,4,1,1,60,1,0
36281,-200,4,1,1,60,0,0
37531,-100,4,1,1,60,0,0
46438,-100,4,1,1,0,0,0
48000,-100,4,1,1,70,0,0
56438,-100,4,1,1,40,0,0
58625,-100,4,1,1,70,0,0
67063,-100,4,1,1,40,0,0
67375,-100,4,1,1,50,0,0
68000,-100,4,1,1,60,0,0
68625,-100,4,1,1,70,0,0
75188,-100,4,1,1,50,0,0
75500,-100,4,1,1,70,0,0
86438,-100,4,1,1,40,0,0
86750,-100,4,1,1,60,0,0
91438,-100,4,1,1,70,0,1
108938,-100,4,1,1,40,0,1
111438,-100,4,1,1,50,0,0
130031,-100,4,1,1,40,0,0
130344,-100,4,1,1,60,0,0
135813,-100,4,1,1,40,0,0
135969,-100,4,1,1,60,0,0
139563,-100,4,1,1,40,0,0
139719,-100,4,1,1,60,0,0
145500,-100,4,1,1,40,0,0
145656,-100,4,1,1,50,0,0
160656,-100,4,1,1,60,0,0
161281,-100,4,1,1,44,0,0
161906,-100,4,1,1,24,0,0
162375,-100,4,1,1,10,0,0
163469,-100,4,1,1,40,0,0
163938,-100,4,1,1,50,0,1
165813,-100,4,1,1,40,0,1
165969,-100,4,1,1,50,0,1
171281,-100,4,1,1,40,0,1
172844,-100,4,1,1,50,0,1
181438,-100,4,1,1,40,0,1
182688,-100,4,1,1,25,0,1
183938,-100,4,1,1,10,0,1
185188,-100,4,1,1,0,0,0

[Colours]
Combo1 : 247,111,189
Combo2 : 255,255,255
Combo3 : 119,147,242

[HitObjects]
160,80,28938,1,0
131,144,29250,1,0
127,214,29563,1,0
147,281,29875,1,0
352,304,30500,5,0
381,240,30813,1,0
385,170,31125,1,0
365,103,31438,1,0
256,216,32688,5,0
256,176,33000,1,0
256,136,33313,1,0
152,72,33938,6,0,B|88:128|152:224,1,140
192,144,34875,1,0
208,216,35188,1,0
248,152,35500,1,0
264,224,35813,2,0,B|360:240,1,70
304,160,36438,2,0,B|432:184,1,105
408,256,37688,1,0
328,256,38000,1,0
368,320,38313,1,4
256,96,38938,6,0,B|224:176,1,70
256,96,39563,2,0,B|288:176,1,70
256,288,40500,2,0,B|256:192,3,70
104,104,42688,5,0
127,72,43000,1,0
157,46,43313,1,0
256,144,43938,6,0,B|184:104,1,70,0|0
256,144,44563,2,0,B|336:96,1,70,0|0
256,144,45188,2,0,B|176:192,1,70,0|0
256,144,45813,2,0,B|328:184,1,70,0|0
256,208,46438,12,0,47688
256,72,48938,5,0
256,136,49250,2,0,B|192:168,1,70
256,192,49875,2,0,B|320:224,1,70
128,136,51125,5,0
128,208,51438,1,0
192,176,51750,2,0,B|264:232,1,70,0|0
184,256,52375,1,0
248,288,52688,2,0,B|448:288,1,140
388,288,53625,5,0
384,216,53938,2,0,B|216:216,1,140
104,216,55188,2,0,B|176:288,1,70
80,256,55813,2,0,B|104:352,1,70
256,208,56438,12,4,58313
376,80,58938,6,0,B|296:128,1,70
384,120,59563,2,0,B|312:232,1,70
408,152,60188,2,0,B|344:304,1,140
296,240,61125,6,0,B|192:240,2,70
256,184,62063,1,0
184,184,62375,1,0
144,128,62688,2,0,B|352:128,1,140,0|4
336,80,63625,6,0,B|376:64|432:88,2,70
368,144,64563,2,0,B|368:320,1,140
296,280,65500,2,0,B|232:208,1,70
192,272,66125,1,0
184,200,66438,2,0,B|8:200,1,140,0|4
160,120,67688,5,4
272,200,68313,5,4
384,120,68938,5,4
402,193,69250,1,0
382,267,69563,2,0,B|299:219,2,70,0|0|0
304,152,70813,6,0,B|384:192,2,70
240,184,71750,2,0,B|304:224,1,70
232,248,72375,2,0,B|296:288,1,70,0|4
248,152,73313,5,0
208,208,73625,1,0
280,208,73938,1,0
304,272,74250,1,0
232,272,74563,2,0,B|152:272,2,70,0|0|4
256,136,75813,6,0,B|304:224,2,70
224,184,76750,2,0,B|248:280,1,70,0|0
192,224,77375,2,0,B|192:304,1,70,0|4
344,136,78313,6,0,B|432:200,1,70,0|0
400,176,78938,2,0,B|328:232,1,70,0|0
344,218,79563,2,0,B|416:280,2,70
256,152,80813,5,0
208,120,81125,1,0
160,88,81438,2,0,B|160:264,1,140,4|0
112,200,82375,1,0
64,168,82688,1,0
160,232,83313,6,0,B|160:320,1,70
208,328,83938,1,0
264,232,84563,6,0,B|264:312,1,70
312,328,85188,1,0
352,288,85500,2,0,B|352:176,3,70,0|0|0|4
200,144,87375,6,0,B|224:224|336:224,1,140
312,152,88313,2,0,B|352:136|400:168,1,70
376,224,88938,1,0
328,280,89250,1,0
256,280,89563,1,0
328,280,89875,1,4
128,72,91125,6,0,B|184:136,1,70,0|0
104,112,91750,2,0,B|96:192,1,70,0|0
168,184,92375,1,0
136,248,92688,2,0,B|216:272|288:208,1,140
240,160,93625,6,0,B|272:136|344:152,3,70
328,216,94875,1,0
376,272,95188,2,0,B|448:208|376:120,1,140
352,88,96125,6,0,B|392:64|424:88,3,70
256,88,97688,5,0
212,97,98000,1,0
176,125,98313,1,0
155,165,98625,1,0
153,207,98938,2,0,B|256:168|256:296|408:160,1,210
340,242,100188,1,0
311,273,100500,1,0
271,289,100813,1,0
229,285,101125,5,0
160,288,101438,2,0,B|96:248,1,70
88,184,102063,2,0,B|176:136,1,70
168,216,102688,2,0,B|312:216,1,140
376,216,103625,5,0
344,176,103938,1,0
376,128,104250,1,0
424,160,104563,1,0
408,216,104875,1,0
376,168,105188,2,0,B|376:344,1,140
320,312,106125,6,0,B|232:256,1,70
296,336,106750,2,0,B|184:352,1,70,0|0
216,208,107688,6,0,B|312:248,1,70
248,168,108313,2,0,B|152:128,1,70
256,208,108938,12,4,111438
112,72,121438,5,0
184,72,121750,1,0
152,136,122063,2,0,B|224:160,1,70
184,216,122688,1,0
352,88,123625,6,0,B|272:160,1,70
368,160,124250,1,0
312,200,124563,1,0
376,224,124875,1,0
448,240,125188,2,0,B|328:344,1,140,0|4
320,264,126125,6,0,B|240:328,3,70
144,240,127688,5,0
208,200,128000,1,0
144,152,128313,2,0,B|240:96,1,70
272,152,128938,2,0,B|296:232|296:232|416:320,1,210
397,306,130188,1,4
176,96,131438,6,0,B|72:144,1,70
96,200,132063,2,0,B|160:280,1,70
176,184,132688,2,0,B|272:320,1,140,0|0
336,304,133625,5,0
336,224,133938,1,0
272,176,134250,2,0,B|208:104,1,70
152,160,134875,1,0
88,200,135188,2,0,B|192:336,1,140,0|4
112,328,136125,5,0
112,328,136438,2,0,B|232:200,1,140
232,88,137688,2,0,B|144:88,2,70
256,152,138625,1,0
296,96,138938,2,0,B|424:200,1,140,0|4
264,192,140188,6,0,B|168:328,1,140
192,168,141438,2,0,B|144:232,1,70
112,160,142063,2,0,B|176:80,2,70
248,96,143313,6,0,B|304:168,1,70
256,208,143938,1,0
296,264,144250,2,0,B|240:336,1,70
253,319,144875,1,0
253,319,145188,2,0,B|192:256,1,70,0|4
168,208,145813,5,0
128,264,146125,1,0
104,200,146438,2,0,B|168:128,1,70
80,136,147063,2,0,B|136:80,2,70
256,120,148313,5,0
256,152,148625,1,0
256,184,148938,1,0
256,216,149250,2,0,B|256:304,2,70
256,216,150188,1,0
256,216,150500,1,0
256,216,150813,5,0
328,216,151125,1,0
304,152,151438,2,0,B|384:152,1,70
392,216,152063,2,0,B|392:288,2,70
328,280,153313,6,0,B|328:200,2,70,0|0|0
256,160,154563,1,0
256,232,154875,2,0,B|256:312,1,70
352,200,155813,1,0
352,272,156125,2,0,B|352:368,1,70
280,224,157063,6,0,B|240:152,1,70
248,248,157688,2,0,B|184:192,1,70
224,280,158313,2,0,B|152:256,1,70
216,320,158938,2,0,B|64:320,1,140,4|0
120,248,159875,6,0,B|248:136,1,140
288,96,160813,2,0,B|360:152,1,70
288,208,161438,2,0,B|336:280,1,70
240,272,162063,2,0,B|240:352,1,70
112,72,163625,5,0
168,136,163938,1,0
96,176,164250,2,0,B|152:232,1,70
208,288,164875,1,0
208,288,165188,2,0,B|312:192,1,140,0|4
232,160,166125,6,0,B|136:160,1,70
112,224,166750,2,0,B|216:224,1,70
240,288,167375,2,0,B|160:288,1,70
232,224,168000,2,0,B|312:224,1,70,0|0
302,224,168625,5,0
304,152,168938,2,0,B|384:152,1,70,4|0
360,224,169563,2,0,B|480:336,1,140
464,248,170500,5,0
464,208,170813,1,0
464,168,171125,1,0
256,208,171438,12,4,172688
256,192,173000,5,0
256,192,173313,1,0
256,192,173625,6,0,B|192:272,1,70
256,192,174250,2,0,B|320:272,1,70
256,304,174875,1,0
256,304,175188,1,0
256,304,175813,1,4
256,304,176125,6,0,B|192:224,1,70,0|0
256,304,176750,2,0,B|320:224,2,70
256,232,177688,2,0,B|256:56,1,140,0|4
256,24,178625,6,0,B|352:80,1,70
256,24,179250,2,0,B|160:80,1,70
256,184,180188,1,0
200,232,180500,1,0
256,280,180813,1,0
312,232,181125,1,0
256,208,181438,12,0,185188
