osu file format v6

[General]
AudioFilename: Everlasting Snow.mp3
AudioLeadIn: 0
PreviewTime: 90818
Countdown: 0
SampleSet: Soft
StackLeniency: 0.7
Mode: 0
LetterboxInBreaks: 1

[Editor]
DistanceSpacing: 0.899999976158142
BeatDivisor: 4
GridSize: 8

[Metadata]
Title:Everlasting Snow
Artist:Dream
Creator:Mystearica
Version:Hard
Source:
Tags:J-Pop Alace

[Difficulty]
HPDrainRate:8
CircleSize:5
OverallDifficulty:6
SliderMultiplier:1.8
SliderTickRate:0.5

[Events]
//Background and Video events
0,0,"bg.jpg"
//Break Periods
2,46325,47888
2,111638,120388
//Storyboard Layer 0 (Background)
//Storyboard Layer 1 (Fail)
//Storyboard Layer 2 (Pass)
//Storyboard Layer 3 (Foreground)
//Storyboard Sound Samples
//Background Colour Transformations
3,100,0,0,0

[TimingPoints]
28938,625,4,2,1,40,1,0
29094,-100,4,2,1,70,0,0
38938,-100,4,2,1,50,0,0
39250,-100,4,2,1,70,0,0
46125,-100,4,2,1,50,0,0
46438,-100,4,2,1,70,0,0
58781,-100,4,2,1,50,0,0
59094,-100,4,2,1,70,0,0
78781,-100,4,2,1,51,0,0
79094,-100,4,2,1,70,0,0
81281,-100,4,2,1,50,0,0
81750,-100,4,2,1,70,0,0
86281,-100,4,2,1,50,0,0
86750,-100,4,2,1,70,0,0
89875,-100,4,2,1,50,0,0
91750,-100,4,2,1,80,0,0
96359,-100,4,2,1,50,0,0
96594,-100,4,2,1,80,0,0
101438,-100,4,2,1,52,0,0
101594,-100,4,2,1,80,0,0
106594,-100,4,2,1,80,0,0
107375,-100,4,2,1,50,0,0
107844,-100,4,2,1,80,0,0
108938,-100,4,2,1,0,0,0
111438,-100,4,2,1,50,0,0
121594,-100,4,2,1,71,0,0
131281,-100,4,2,1,51,0,0
131594,-100,4,2,1,71,0,0
146281,-100,4,2,1,51,0,0
146594,-100,4,2,1,71,0,0
151281,-100,4,2,1,50,0,0
151594,-100,4,2,1,71,0,0
153781,-100,4,2,1,51,0,0
154250,-100,4,2,1,71,0,0
158781,-100,4,2,1,51,0,0
159250,-100,4,2,1,71,0,0
162375,-100,4,2,1,51,0,0
164250,-100,4,2,1,81,0,0
168938,-100,4,2,1,50,0,0
169094,-100,4,2,1,81,0,0
173938,-100,4,2,1,51,0,0
174094,-100,4,2,1,81,0,0
180031,-100,4,2,1,50,0,0
180344,-100,4,2,1,81,0,0
181438,-100,4,2,1,0,0,0
183938,-100,4,2,1,29,0,1

[Colours]
Combo1 : 247,111,189
Combo2 : 255,255,255
Combo3 : 119,147,242

[HitObjects]
72,40,28938,2,0,B|160:72,1,90,4|0
96,120,29563,2,0,B|184:152,1,90,2|0
224,80,30188,1,0
256,104,30344,1,0
256,144,30500,1,0
248,224,30813,1,2
440,344,31438,6,0,B|352:312,1,90
416,264,32063,2,0,B|328:232,1,90,2|0
288,304,32688,1,0
256,280,32844,1,0
256,240,33000,1,0
296,168,33313,1,2
56,296,33938,6,0,B|144:224|104:128,1,180,0|2
176,104,34875,1,0
184,144,35031,1,0
192,184,35188,2,0,B|192:240|256:256,1,90
208,328,35813,1,2
288,304,36125,1,0
312,224,36438,2,0,B|392:168|368:56,1,180,0|2
369,65,37375,1,0
288,88,37688,5,0
208,64,38000,1,0
224,144,38313,2,0,L|230:153|221:159|228:168|219:175|226:184|217:191|224:200|215:207|221:216|212:223|219:232|210:239|217:248|208:254|215:263|206:270|212:279|203:286|210:295,1,180,2|4
56,72,39563,5,2
200,144,40188,1,0
152,208,40500,1,0
80,248,40813,1,2
216,328,41438,1,0
368,272,42063,1,2
464,136,42688,1,0
392,96,43000,1,0
344,32,43313,1,2
256,40,43938,5,0
224,64,44094,1,0
296,104,44406,1,0
264,128,44563,1,2
232,152,44719,1,0
200,176,44875,1,0
272,216,45188,1,0
240,240,45344,1,0
208,264,45500,1,0
176,288,45656,1,0
144,312,45813,1,2
112,336,45969,1,0
80,360,46125,1,4
112,88,48938,5,0
168,112,49250,1,0
224,136,49563,1,2
96,144,50188,1,0
136,192,50500,1,0
176,240,50813,1,2
240,256,51125,5,0
272,248,51281,1,0
296,232,51438,2,0,B|336:200|336:152,1,90
368,96,52063,1,2
304,88,52375,1,0
272,88,52531,1,0
240,96,52688,5,0
176,88,53000,1,0
192,152,53313,1,2
80,208,53938,5,0
144,216,54250,1,0
208,208,54563,1,2
288,304,55188,1,0
240,264,55500,1,0
208,208,55813,1,2
192,144,56125,1,0
256,128,56438,2,0,B|264:176|272:216|296:240|368:272,1,180,0|2
400,312,57375,1,0
416,248,57688,2,0,B|472:152|416:72,1,180,0|2
56,112,58938,5,4
120,96,59250,1,0
184,96,59563,1,2
248,104,59875,1,0
248,104,60031,1,0
248,104,60188,1,0
312,120,60500,1,0
368,152,60813,1,2
312,184,61125,5,0
288,208,61281,1,0
264,224,61438,2,0,B|216:256|168:232,1,90
112,240,62063,1,2
144,184,62375,1,0
136,152,62531,1,0
144,120,62688,5,0
192,72,63000,1,0
208,136,63313,1,2
144,352,63938,5,0
192,304,64250,1,0
224,248,64563,1,2
96,232,65188,1,0
160,248,65500,1,0
224,248,65813,1,2
288,232,66125,1,0
344,200,66438,2,0,B|424:152|440:48,1,180,0|2
439,54,67688,5,4
112,104,68313,1,4
112,104,68938,5,0
112,176,69250,1,0
176,144,69563,1,2
240,104,69875,1,0
240,176,70188,1,0
240,176,70813,5,2
272,240,71125,1,0
304,304,71438,1,0
344,360,71750,1,0
384,304,72063,1,2
416,240,72375,1,0
456,176,72688,1,0
93,51,73313,5,2
160,80,73625,1,0
98,123,73938,1,0
164,151,74250,1,0
109,197,74563,1,2
43,169,74875,1,0
31,95,75188,1,0
304,48,75813,5,2
208,96,76125,1,0
296,144,76438,1,0
216,192,76750,1,0
288,240,77063,1,2
224,288,77375,1,0
280,336,77688,1,0
418,51,78313,5,2
352,80,78625,1,0
347,151,78938,1,4
413,123,79250,1,0
480,95,79563,1,2
468,169,79875,1,0
402,197,80188,1,0
200,344,80813,5,2
256,296,81125,1,0
312,344,81438,1,4
160,80,82063,5,2
93,44,82375,1,0
88,84,82531,1,0
51,68,82688,1,0
49,144,83000,1,0
48,144,83313,5,2
50,219,83625,1,0
87,203,83781,1,0
92,243,83938,1,0
158,208,84250,1,0
192,272,84563,6,0,B|232:320|280:296,1,90,2|0
256,232,85188,2,0,B|294:211|334:259,1,90
328,328,85813,2,0,B|368:376|416:352,1,90,2|0
400,288,86438,1,4
256,32,87063,5,2
256,32,87375,2,0,B|232:96|288:136|256:216,1,180
258,208,88313,1,2
258,208,88625,1,0
160,256,88938,5,0
256,320,89250,1,0
352,256,89563,1,0
256,208,89875,12,4,91438
128,296,92063,5,2
256,144,92688,1,0
384,296,93313,1,2
440,240,93625,5,0
440,240,93781,1,0
440,240,93938,1,0
384,184,94250,1,0
456,152,94563,1,2
392,104,94875,1,0
328,56,95188,5,0
296,80,95344,1,0
256,96,95500,1,0
216,80,95656,1,0
184,56,95813,1,2
256,160,96125,5,0
256,160,96281,1,0
256,160,96438,1,4
216,232,96750,1,0
296,232,97063,1,2
168,336,97688,6,0,B|264:352,1,90
344,336,98313,2,0,B|248:352,1,90,2|0
256,280,98938,2,0,B|272:224|240:168|256:96,1,180,0|2
216,32,99875,1,0
296,32,100188,1,0
256,104,100500,1,0
256,104,100656,1,0
256,104,100813,1,2
328,144,101125,5,0
344,184,101281,1,0
352,224,101438,2,0,B|368:272|344:328,1,90,4|0
280,360,102063,2,0,B|264:320|288:264,1,90,2|0
256,240,102531,1,0
232,208,102688,2,0,B|264:120|232:24,1,180,0|2
176,88,103625,5,0
152,124,103781,1,0
124,153,103938,2,0,B|94:194|34:206,1,90
16,280,104563,2,0,B|72:272|112:304,1,90,2|0
136,320,105031,1,0
176,336,105188,2,0,B|264:368|360:320,1,180,0|2
304,264,106125,5,0
312,224,106281,1,0
304,184,106438,1,0
208,264,106750,1,0
200,224,106906,1,0
208,184,107063,1,2
224,48,107688,5,0
288,48,108000,1,0
288,112,108313,1,2
224,112,108625,1,0
256,208,108938,12,4,111438
64,112,121438,5,4
120,144,121750,1,0
152,160,121906,1,0
184,168,122063,1,2
216,168,122219,1,0
248,160,122375,1,0
304,136,122688,1,0
328,120,122844,1,0
352,96,123000,1,0
392,48,123313,1,2
448,96,123625,5,0
448,96,123781,1,0
448,96,123938,2,0,B|472:152|440:200,1,90
384,176,124563,2,0,B|368:240|392:272,1,90,2|0
376,296,125031,1,0
360,328,125188,2,0,B|320:360|272:352,2,90,0|0|2
296,256,126125,5,0
288,224,126281,1,0
296,192,126438,1,0
248,152,126750,1,0
256,120,126906,1,0
248,88,127063,1,2
280,32,127375,1,0
208,32,127688,5,0
152,64,128000,1,0
120,120,128313,1,2
112,184,128625,1,0
144,240,128938,2,0,B|184:336|296:344,1,180,0|2
344,360,129875,1,0
328,296,130188,2,0,B|304:208|360:120,1,180,0|2
168,40,131438,5,4
224,72,131750,1,0
256,128,132063,1,2
264,160,132219,1,0
248,192,132375,1,0
288,240,132688,1,0
272,272,132844,1,0
280,304,133000,1,0
248,360,133313,1,2
320,368,133625,5,0
336,344,133781,1,0
352,320,133938,2,0,B|384:280|432:288,1,90
464,232,134563,2,0,B|416:216|432:152,1,90,2|0
408,136,135031,1,0
384,152,135188,2,0,B|328:240|224:216,1,180,0|2
229,217,136125,5,0
229,217,136281,1,0
229,217,136438,1,0
392,48,137063,1,2
448,304,137688,1,0
384,312,138000,1,0
320,304,138313,1,2
264,272,138625,1,0
232,216,138938,2,0,B|176:128|184:40,1,180,0|2
183,45,140188,5,4
464,96,140813,1,4
464,96,141438,5,0
400,128,141750,1,0
336,160,142063,1,2
272,192,142375,1,0
208,224,142688,1,0
208,224,143313,5,2
208,152,143625,1,0
144,184,143938,1,0
144,256,144250,1,0
208,296,144563,1,2
272,256,144875,1,0
272,184,145188,1,0
272,184,145813,5,2
208,152,146125,1,0
272,112,146438,1,4
336,152,146750,1,0
336,224,147063,1,2
272,256,147375,1,0
208,224,147688,1,0
208,48,148313,5,2
304,96,148625,1,0
216,144,148938,1,0
296,192,149250,1,0
224,240,149563,1,2
288,288,149875,1,0
232,336,150188,1,0
80,192,150813,5,2
152,160,151125,1,0
208,96,151438,1,4
256,32,151750,1,0
304,96,152063,1,2
360,160,152375,1,0
432,192,152688,1,0
328,344,153313,5,2
256,280,153625,1,0
184,344,153938,1,4
352,80,154563,5,2
419,44,154875,1,0
424,84,155031,1,0
461,68,155188,1,0
463,144,155500,1,0
464,144,155813,5,2
462,219,156125,1,0
425,203,156281,1,0
420,243,156438,1,0
354,208,156750,1,0
320,272,157063,6,0,B|280:320|232:296,1,90,2|0
256,232,157688,2,0,B|218:211|178:259,1,90
184,328,158313,2,0,B|144:376|96:352,1,90,2|0
112,288,158938,1,4
256,32,159563,5,2
256,32,159875,2,0,B|280:96|224:136|256:216,1,180
254,208,160813,1,2
254,208,161125,1,0
368,256,161438,5,0
256,336,161750,1,0
144,256,162063,1,0
256,208,162375,12,4,163938
400,88,164563,5,2
112,88,165188,1,0
256,256,165813,1,2
448,272,166125,5,0
448,272,166281,1,0
448,272,166438,2,0,B|368:216,1,90
456,184,167063,2,0,B|376:128,1,90,2|0
328,72,167688,5,0
296,48,167844,1,0
256,32,168000,1,0
216,48,168156,1,0
184,72,168313,1,2
136,136,168625,5,0
136,136,168781,1,0
136,136,168938,2,0,B|56:192,1,90,4|0
144,224,169563,2,0,B|64:280,1,90,2|0
136,320,170188,6,0,B|184:336|232:304,1,90
232,232,170813,2,0,B|280:208|328:224,1,90,2|0
304,304,171438,2,0,B|400:328|472:248,1,180,0|2
488,176,172375,1,0
408,200,172688,1,0
424,120,173000,1,0
424,120,173156,1,0
424,120,173313,1,2
336,56,173625,5,0
296,64,173781,1,0
264,88,173938,1,4
272,168,174250,1,0
200,128,174563,1,2
200,208,174875,1,0
168,224,175031,1,0
128,224,175188,1,0
88,216,175344,1,0
56,192,175500,1,0
24,120,175813,1,2
88,72,176125,5,0
119,101,176281,1,0
159,108,176438,1,0
243,114,176750,1,0
192,180,177063,1,2
275,186,177375,1,0
315,193,177531,1,0
336,227,177688,1,0
368,256,177844,1,0
411,256,178000,1,0
479,213,178313,1,2
448,136,178625,6,0,B|472:88,2,45
360,136,179250,2,0,B|344:80,2,45,0|0|2
96,120,180188,5,4
160,168,180500,1,0
224,216,180813,1,2
304,232,181125,1,0
256,208,181438,12,0,183938
