osu file format v9

[General]
AudioFilename: Subbed.mp3
AudioLeadIn: 0
PreviewTime: -1
Countdown: 1
SampleSet: Normal
StackLeniency: 0.7
Mode: 0
LetterboxInBreaks: 1

[Editor]
DistanceSpacing: 0.8
BeatDivisor: 8
GridSize: 4

[Metadata]
Title:Feelings dancing in the moonlit night
Artist:Draw the emotional
Creator:iamhuoi
Version:Eclipse
Source:Touhou Project
Tags:touhou project remilia scarlet dancing in the moonlight draw the emotional

[Difficulty]
HPDrainRate:4
CircleSize:6
OverallDifficulty:5
ApproachRate:4
SliderMultiplier:1.4
SliderTickRate:1

[Events]
//Background and Video events
0,0,"r44.jpg"
//Break Periods
2,33657,47258
2,62447,63225
2,80108,93951
2,130673,144395
2,161640,176330
//Storyboard Layer 0 (Background)
//Storyboard Layer 1 (Fail)
//Storyboard Layer 2 (Pass)
//Storyboard Layer 3 (Foreground)
//Storyboard Sound Samples
//Background Colour Transformations
3,100,163,162,255

[TimingPoints]
17852.2903225806,967.741935483871,4,1,0,100,1,0

[Colours]
Combo1 : 102,0,102
Combo2 : 255,166,255
Combo3 : 255,138,255
Combo4 : 186,117,255
Combo5 : 128,128,255
Combo6 : 255,132,132

[HitObjects]
64,220,17126,1,0
132,188,17368,2,0,B|236:188,4,105
99,106,21723,2,0,B|221:-32|383:106,1,315
72,238,25352,2,0,B|34:285|61:327,1,87.5
170,217,27045,2,0,B|222:322|150:322,1,122.5
329,228,28981,2,0,B|281:213|319:304,3,87.5
256,192,31521,12,0,33457
90,211,48578,5,0
165,155,48940,2,0,B|209:101|333:122,2,175
439,130,53174,2,0,B|434:330,2,192.5
396,241,56561,2,0,B|360:251,4,35
358,175,58134,2,0,B|274:182,2,70
314,94,60070,6,0,B|142:126|26:247,1,315
49,190,64545,5,0
99,196,64908,1,0
176,196,65876,1,0
176,196,65997,1,0
264,196,66965,2,0,B|259:277,1,70
57,180,68416,1,0
107,178,68900,2,0,B|237:178,3,122.5
146,109,72408,1,0
198,116,72892,1,0
221,233,73860,5,0
346,112,74828,2,0,B|392:244|337:331,2,227.5
95,219,78699,2,0,B|186:218,2,87.5
256,192,95271,12,0,97449
150,234,97932,5,0
187,161,98174,2,0,B|396:158,3,210
72,138,103376,2,0,B|39:182|59:227,1,87.5
126,139,104828,2,0,B|157:203|106:231,1,105
428,145,106279,2,0,B|449:203|413:233,2,87.5
388,221,108336,2,0,B|334:379|231:382|70:320,1,385
143,242,111723,1,0
202,249,112086,2,0,B|359:249,1,157.5
421,127,113537,5,0
421,127,114021,2,0,B|204:123,1,210
215,123,116199,1,0
213,140,118134,2,0,B|246:244|196:345,2,210
467,48,122005,2,0,B|359:164|218:163,1,280
459,169,125029,2,0,B|446:216,4,35
366,177,126481,2,0,B|359:256,1,70
256,192,127449,12,0,130473
48,133,145715,6,0,B|117:100|216:132,2,157.5
214,195,148618,2,0,B|355:199,1,140
421,237,150553,2,0,B|344:345,1,122.5
361,217,152610,2,0,B|296:257|289:330,1,140
295,196,154424,2,0,B|271:273|210:325,1,157.5
230,184,156481,2,0,B|136:294,1,140
106,202,158416,1,0
256,192,159384,12,0,161440
94,187,177650,5,0
131,194,178739,2,0,B|289:197,2,157.5
368,159,181521,2,0,B|333:207,2,52.5
311,171,182731,2,0,B|294:222|267:208,1,52.5
270,136,183699,2,0,B|217:149|209:177,1,70
116,80,185029,2,0,B|117:244,2,157.5
450,326,187932,2,0,B|281:364|113:320,1,332.5
98,132,190836,2,0,B|100:156,3,17.5
144,125,191682,2,0,B|142:151,2,17.5
177,121,192287,2,0,B|177:156,1,35
256,192,192892,12,0,194465
360,122,194949,6,0,B|327:224|240:248,1,175
299,101,196884,2,0,B|199:136|164:221,1,175
164,119,198820,2,0,B|174:162,2,35
223,112,199787,2,0,B|230:148,2,35
276,114,200755,2,0,B|284:147,2,35
401,141,201723,2,0,B|301:304,1,192.5
133,324,203658,2,0,B|226:322,3,87.5
468,180,206078,2,0,B|394:270,1,105
389,189,207166,2,0,B|343:249,1,70
256,192,208618,12,0,209949
78,156,210553,6,0,B|147:107|221:263|279:241,2,227.5
414,109,214545,2,0,B|379:162,3,52.5
353,89,215997,2,0,B|302:161,1,87.5
299,104,216965,2,0,B|239:188,1,105
84,193,218053,1,0
174,205,218537,2,0,B|343:207,1,157.5
428,126,220352,2,0,B|421:147,5,17.5
324,104,222408,2,0,B|317:122,3,17.5
256,192,223376,1,0
256,192,224344,12,0,227247
