osu file format v9

[General]
AudioFilename: 02 Red madness and my desire.mp3
AudioLeadIn: 0
PreviewTime: 98009
Countdown: 0
SampleSet: Normal
StackLeniency: 0.7
Mode: 0
LetterboxInBreaks: 1

[Editor]
Bookmarks: 98009
DistanceSpacing: 0.8
BeatDivisor: 4
GridSize: 4

[Metadata]
Title:Red madness and my desire
Artist:Draw the Emotional
Creator:Nathien
Version:Normal
Source:Touhou
Tags:Funny Party In the Fog U.N. Owen Was Her? Embodiment of Scarlet Devil EoSD MuryokuP F9 Yuyoyuppe Flandre

[Difficulty]
HPDrainRate:4
CircleSize:4
OverallDifficulty:4
ApproachRate:4
SliderMultiplier:2.00000000596046
SliderTickRate:2

[Events]
//Background and Video events
0,0,"Flandre-bg.png"
//Break Periods
2,22578,23365
2,27850,28636
2,64750,65506
2,90302,96689
//Storyboard Layer 0 (Background)
//Storyboard Layer 1 (Fail)
//Storyboard Layer 2 (Pass)
//Storyboard Layer 3 (Foreground)
//Storyboard Sound Samples
//Background Colour Transformations
3,100,163,162,255

[TimingPoints]
1293,658.93600660066,4,1,2,100,1,0
64550,1138.21111111111,4,1,2,100,1,0
66826,750.850000000002,4,1,2,100,1,0
90102,658.935160780179,4,1,2,100,1,0

[Colours]
Combo1 : 222,67,235
Combo2 : 221,23,13
Combo3 : 230,152,6
Combo4 : 237,232,7
Combo5 : 56,231,52
Combo6 : 80,84,248
Combo7 : 122,22,160

[HitObjects]
128,192,1293,2,0,B|224:112,1,100.000000298023,4|0
268,76,1951,1,8
376,192,2610,2,0,B|280:276,1,100.000000298023
256,192,3269,2,0,B|164:272,2,100.000000298023,8|0|4
412,156,4587,6,0,B|332:92,1,100.000000298023,8|0
252,96,5246,1,0
156,224,5905,2,0,B|236:288|236:288,2,100.000000298023,8|0|0
164,64,7223,5,8
256,64,7552,1,0
336,64,7882,1,0
416,64,8211,1,0
420,144,8541,2,0,B|356:224,2,100.000000298023,8|0|4
268,196,9859,5,8
388,304,10518,2,0,B|260:304,1,100.000000298023,0|0
208,308,11177,1,8
132,288,11506,1,8
92,220,11835,5,4
252,220,12494,1,8
412,220,13153,1,0
412,60,13812,1,8
252,52,14471,6,0,B|172:52|172:116,1,100.000000298023,0|0
172,184,15130,1,8
252,192,15460,1,0
252,272,15789,2,0,B|300:336|348:304,1,100.000000298023,0|0
416,312,16448,1,8
484,264,16777,1,0
408,236,17107,6,0,B|504:140|360:76,1,200.000000596046,0|8
292,76,18095,1,2
212,80,18425,2,4,B|84:96|132:240,1,200.000000596046,0|8
284,192,19743,5,0
124,192,20402,1,8
48,52,21061,1,0
128,52,21390,1,0
208,52,21720,1,8
256,204,22378,1,4
256,192,24685,6,0,B|256:256,2,50.0000001490115,0|0|2
32,192,26332,5,0
68,120,26662,1,0
124,64,26991,1,0
200,36,27320,1,0
280,32,27650,1,2
256,192,29956,6,0,B|256:96,2,50.0000001490115,0|0|2
480,192,31604,5,2
432,256,31933,1,2
368,304,32262,1,2
288,336,32592,1,2
208,344,32921,1,4
256,192,33580,5,0
256,112,33910,1,2
188,152,34239,2,0,B|80:148|80:148|80:56,1,200.000000596046
160,56,35228,1,2
84,56,35557,2,0,B|424:56|424:56|424:200|424:200|300:200,1,600.000001788138
176,296,38193,6,0,B|64:296,1,100.000000298023,4|2
68,216,38852,2,0,B|76:136|-12:136,1,100.000000298023,0|2
56,68,39511,2,0,B|168:68,1,100.000000298023,0|2
188,140,40170,2,0,B|136:148|140:216,1,100.000000298023,0|2
168,304,40829,2,0,B|256:124|256:124|368:312,1,400.000001192092,4|4
256,192,42311,12,0,43464
176,192,44123,5,0
176,116,44453,1,0
256,116,44782,2,0,B|368:116|400:244,1,200.000000596046,0|8
476,252,45771,6,0,B|476:332|396:332,1,100.000000298023,0|6
344,328,46430,1,0
264,328,46759,2,0,B|152:312|152:184,1,200.000000596046,8|0
156,108,47747,6,0,B|172:44|236:60,1,100.000000298023,0|8
308,64,48406,1,8
388,68,48736,1,4
288,192,49395,6,0,B|176:192,2,100.000000298023,8|0|0
128,192,50713,2,0,B|64:224|112:304,2,100.000000298023,8|0|4
288,192,52031,5,8
268,268,52360,1,0
196,304,52690,1,2
124,268,53019,1,0
96,192,53348,1,2
256,176,54007,6,0,B|352:160|352:160|336:272,1,200.000000596046,4|8
192,192,55325,1,2
352,192,55984,2,0,B|352:88,1,100.000000298023,8|0
432,92,56643,5,4
272,92,57302,2,0,B|272:300,1,200.000000596046,0|0
112,292,58620,2,8,B|112:180,1,100.000000298023,2|0
112,112,59279,2,0,B|32:16,2,100.000000298023,4|0|8
256,180,60597,6,0,B|144:180,2,100.000000298023,4|0|8
264,340,61915,2,0,B|168:340|168:340|216:228,1,200.000000596046,4|8
256,180,62903,1,0
336,180,63232,2,0,B|368:84|368:84|256:100,1,200.000000596046,0|8
208,244,64550,1,4
256,192,66826,5,4
176,192,67201,1,0
176,112,67576,1,4
256,112,67952,1,0
336,112,68327,5,8
336,208,68703,1,0
256,208,69078,1,2
256,288,69453,1,0
176,284,69829,2,0,B|80:204|160:108,1,200.000000596046,2|2
312,68,71331,6,8,B|312:148,2,66.6666668653487
364,64,72081,1,0
416,68,72332,2,8,B|416:148,2,66.6666668653487
256,64,73583,6,0,B|256:272,1,200.000000596046,0|8
412,300,75085,2,0,B|324:228,1,100.000000298023,2|0
412,212,75836,1,2
416,128,76211,1,0
336,128,76587,2,0,B|268:212|264:212,1,100.000000298023,2|0
256,128,77337,1,6
352,64,78839,5,2
192,64,79590,1,2
352,64,80341,1,8
192,64,81092,1,2
280,196,81843,1,2
200,336,82593,1,2
280,196,83344,6,8,B|280:100,2,66.6666668653487
228,200,84095,1,0
176,200,84345,2,8,B|176:120,2,66.6666668653487
176,40,85597,5,4
336,40,86348,1,8
176,40,87098,1,2
336,40,87849,1,2
256,176,88600,1,2
176,316,89351,1,8
336,316,90102,1,2
40,136,98009,6,4,B|276:292|496:-12|256:-108|20:8|256:264|396:220|492:112,1,750.000002235173,4|0
488,164,100644,2,0,B|524:440|308:384|248:-72|196:376|200:344|16:384|40:156,1,700.000002086161,0|4
112,192,103280,5,4
224,76,103939,1,0
384,76,104598,1,0
496,192,105257,1,0
336,192,105916,1,4
176,192,106575,1,0
256,208,108552,5,4
260,48,109211,2,0,B|324:48|356:112,2,100.000000298023,2|0|2
348,184,110528,1,8
256,316,111187,6,4,B|192:300|208:204,2,100.000000298023
200,168,112505,2,0,B|408:168,1,200.000000596046,2|0
388,328,113823,6,0,B|276:328,1,100.000000298023,2|10
208,328,114482,2,0,B|96:328,1,100.000000298023,2|10
104,248,115141,2,0,B|104:136,1,100.000000298023,2|10
104,68,115800,2,0,B|216:68,1,100.000000298023,2|10
284,64,116459,6,0,B|428:64,1,100.000000298023,2|10
388,144,117118,2,0,B|276:144,1,100.000000298023,2|10
288,224,117777,1,0
256,192,119095,5,4
256,112,119424,1,0
256,192,119754,1,8
256,312,120248,1,0
176,312,120577,1,0
152,196,121071,1,8
256,76,121730,5,4
416,76,122389,1,8
416,196,122884,1,0
416,276,123213,1,0
296,276,123707,1,8
336,144,124366,6,8,B|128:144,1,200.000000596046,0|8
140,264,125519,1,0
220,268,125849,1,0
220,148,126343,1,8
380,192,127002,5,4
228,140,127661,1,8
232,260,128155,1,0
312,260,128484,1,0
308,152,128979,1,8
144,152,129638,5,0
144,312,130297,1,8
300,192,130955,2,8,B|396:192|412:336,1,200.000000596046,0|8
252,348,132273,6,0,B|124:332|124:204,1,200.000000596046,0|8
256,128,133591,2,0,B|352:96|352:96|320:224,1,200.000000596046,0|8
488,196,134909,6,0,B|504:292|504:292|392:276,1,200.000000596046,0|8
244,248,136227,2,0,B|308:168|308:168|164:152,1,200.000000596046,0|8
56,192,137545,6,0,B|208:40,1,200.000000596046,0|8
356,52,138863,2,0,B|216:196,1,200.000000596046,0|8
368,192,140181,1,4
256,192,140840,12,4,145452
