osu file format v9

[General]
AudioFilename: 02 Red madness and my desire.mp3
AudioLeadIn: 0
PreviewTime: 98009
Countdown: 0
SampleSet: Soft
StackLeniency: 0.7
Mode: 0
LetterboxInBreaks: 1

[Editor]
DistanceSpacing: 0.8
BeatDivisor: 8
GridSize: 4

[Metadata]
Title:Red madness and my desire
Artist:Draw the Emotional
Creator:Nathien
Version:Lunatic
Source:Touhou
Tags:Funny Party In the Fog U.N. Owen Was Her? Embodiment of Scarlet Devil EoSD MuryokuP F9 Yuyoyuppe Flandre

[Difficulty]
HPDrainRate:6
CircleSize:4
OverallDifficulty:7
ApproachRate:8
SliderMultiplier:3.49999990463257
SliderTickRate:2

[Events]
//Background and Video events
0,0,"Flandre-bg.png"
//Break Periods
//Storyboard Layer 0 (Background)
//Storyboard Layer 1 (Fail)
//Storyboard Layer 2 (Pass)
//Storyboard Layer 3 (Foreground)
//Storyboard Sound Samples
//Background Colour Transformations
3,100,163,162,255

[TimingPoints]
1293,658.93600660066,4,1,2,100,1,0
22461,-100,4,2,0,75,0,0
30121,-100,4,2,0,100,0,0
31604,-100,4,1,2,100,0,0
64550,569.108775657321,4,2,0,100,1,0
64550,-133.333333333333,4,2,0,100,0,0
66826,750.850000000002,4,1,2,100,1,0
90102,658.935160780179,4,1,2,100,1,0
90184,-100,4,2,0,100,0,0
100480,-100,4,1,2,100,0,0
100809,-100,4,2,0,100,0,0
103115,-100,4,1,2,100,0,0
104186,-100,4,2,0,100,0,0
104269,-100,4,1,2,100,0,0
104433,-100,4,2,0,100,0,0
104598,-100,4,1,2,100,0,0
104763,-100,4,2,0,100,0,0
104928,-100,4,1,2,100,0,0
105504,-100,4,2,0,100,0,0
105586,-100,4,1,2,100,0,0
105751,-100,4,2,0,100,0,0
105916,-100,4,1,2,100,0,0

[Colours]
Combo1 : 222,67,235
Combo2 : 221,23,13
Combo3 : 230,152,6
Combo4 : 237,232,7
Combo5 : 56,231,52
Combo6 : 80,84,248
Combo7 : 122,22,160

[HitObjects]
340,276,1293,2,0,B|256:176|256:176|172:276,1,262.499992847443,2|0
136,272,1869,1,0
120,240,1951,1,8
104,100,2281,6,0,B|140:64,3,43.7499988079071
168,68,2610,2,0,B|260:16|340:112,1,174.999995231629,2|0
352,120,3022,1,0
360,156,3105,1,0
356,192,3187,1,0
344,224,3269,1,8
256,284,3516,5,0
256,180,3764,1,0
296,44,4093,1,0
260,40,4175,1,0
224,44,4258,1,2
312,152,4587,6,0,B|256:88|256:88|192:152,1,174.999995231629,8|0
180,184,4999,1,0
176,220,5081,1,0
184,256,5164,1,0
204,284,5246,1,0
344,284,5576,2,0,B|408:268,4,43.7499988079071,0|0|0|0|8
448,192,6235,5,0
308,192,6564,2,0,B|232:192,1,43.7499988079071
228,192,6729,1,0
220,52,7058,1,0
256,52,7141,1,0
288,60,7223,1,8
304,288,7552,6,0,B|240:288,4,43.7499988079071
160,288,8211,5,0
128,256,8294,1,0
112,224,8376,1,0
112,192,8458,1,0
128,160,8541,1,8
224,208,8788,1,0
336,208,9035,1,2
352,64,9364,6,0,B|416:64,2,43.7499988079071,0|0|2
208,64,9859,1,8
64,64,10188,2,0,B|56:116,1,43.7499988079071
64,144,10353,2,0,B|112:208,1,43.7499988079071
128,192,10518,2,0,B|160:128|160:128|256:176,1,174.999995231628,2|0
288,176,10929,1,0
320,160,11012,1,0
344,132,11094,1,0
364,104,11177,1,8
384,76,11259,1,0
416,64,11341,1,0
452,68,11424,1,0
476,96,11506,1,8
456,236,11835,6,0,B|424:284,2,43.7499988079071
320,196,12330,2,0,B|304:244,2,43.7499988079071,0|0|8
188,240,12824,2,0,B|140:288,1,43.7499988079071
124,288,12989,2,0,B|60:288,1,43.7499988079071
60,260,13153,1,2
80,120,13483,6,0,B|112:88,1,43.7499988079071
136,68,13648,2,0,B|216:52,1,43.7499988079071
212,56,13812,2,0,B|356:56,2,131.249996423721,8|0|2
224,192,14636,2,0,B|224:240,2,43.7499988079071
368,192,15130,5,8
228,192,15460,2,0,B|164:192,2,43.7499988079071
224,156,15707,1,0
220,120,15789,2,0,B|124:120|124:120|124:200,1,174.999995231628
124,236,16201,2,0,B|124:284,1,43.7499988079071
160,288,16366,2,0,B|224:288,1,43.7499988079071,0|8
336,304,16777,6,0,B|432:304|432:304|432:224,1,174.999995231628
432,192,17189,1,0
432,160,17272,2,0,B|432:64|432:64|336:64,1,174.999995231628
320,64,17684,1,0
288,64,17766,6,0,B|96:64,1,174.999995231628,8|0
112,96,18178,2,0,B|112:160,1,43.7499988079071
112,176,18342,2,0,B|112:224,1,43.7499988079071,0|2
256,240,18754,2,0,B|304:240,4,43.7499988079071,0|0|0|0|8
256,128,19331,2,0,B|256:80|272:32|336:32,1,131.249996423721
192,48,19907,1,0
160,48,19990,1,0
128,64,20072,1,2
128,208,20402,6,0,B|128:288|176:288|256:256,1,174.999995231629,8|0
288,240,20813,2,0,B|336:224,1,43.7499988079071
352,208,20978,2,0,B|320:160,1,43.7499988079071
256,288,21390,1,0
256,256,21472,2,0,B|256:208,1,43.7499988079071
256,176,21637,1,0
256,144,21720,2,0,B|256:48,1,87.4999976158143,8|0
224,64,21967,1,0
192,64,22049,1,0
256,176,22378,5,4
256,320,22708,2,0,B|160:320|112:224,1,174.999995231629
208,124,23367,2,0,B|252:208|356:196,1,174.999995231629
256,96,24026,2,0,B|336:96|368:144,2,87.4999976158143
256,236,24685,6,0,B|240:316|384:348,1,174.999995231629
380,276,25179,1,0
380,204,25344,1,0
384,136,25508,1,0
376,68,25673,2,0,B|328:180|264:164|248:100,1,174.999995231629
220,60,26167,5,0
152,44,26332,1,0
120,108,26497,1,0
140,176,26662,1,0
192,224,26826,1,0
256,252,26991,1,0
456,56,27650,2,0,B|488:168|424:216,1,174.999995231629
284,200,28309,2,0,B|376:148|332:40,1,174.999995231629
208,64,28968,1,0
64,64,29297,6,0,B|64:160|128:80,1,87.4999976158143
176,112,29627,2,0,B|96:192|272:224,1,174.999995231629
292,88,30286,6,0,B|388:88,1,87.4999976158143
428,140,30615,2,0,B|428:236,1,87.4999976158143
384,284,30945,2,0,B|272:284,1,87.4999976158143
252,228,31274,2,0,B|252:116,1,87.4999976158143
180,148,31604,5,2
52,84,31933,1,2
180,28,32262,1,2
144,88,32427,1,0
180,84,32510,1,0
216,80,32592,1,8
256,208,32921,5,4
256,352,33251,1,8
112,336,33580,1,0
112,272,33745,1,0
112,208,33910,1,8
112,64,34239,1,0
112,128,34404,1,0
112,192,34569,1,8
252,188,34898,1,0
324,192,35063,1,0
396,188,35228,1,8
400,48,35557,6,0,B|368:160|288:144|288:48,1,174.999995231629,0|8
160,64,36216,1,0
128,128,36381,1,0
144,192,36546,1,8
256,272,36875,1,0
320,272,37040,1,0
288,208,37205,1,8
256,144,37369,1,0
288,144,37452,1,0
320,144,37534,1,8
384,144,37699,6,0,B|400:64|320:64,1,87.4999976158143,0|8
320,64,37946,1,8
288,64,38028,1,8
256,64,38111,1,8
224,64,38193,2,0,B|112:48|112:48|144:128,1,174.999995231629,0|8
48,224,38852,5,0
112,224,39017,1,0
176,224,39181,1,8
320,224,39511,1,0
256,224,39676,1,0
192,224,39840,1,8
256,112,40170,1,0
256,112,40334,1,0
256,112,40499,1,8
400,128,40829,5,0
400,272,41158,1,8
260,288,41488,1,0
200,324,41652,1,0
128,324,41817,1,8
68,284,41982,1,0
52,252,42064,5,0
52,220,42147,1,8
52,184,42229,1,8
64,152,42311,1,0
80,120,42394,1,0
108,100,42476,1,8
144,96,42558,1,8
176,108,42641,1,0
200,132,42723,1,0
220,160,42805,1,10
236,192,42888,1,0
264,216,42970,1,0
300,220,43053,1,0
336,216,43135,5,2
396,176,43300,1,2
412,108,43464,1,0
272,48,43794,2,0,B|208:112,2,87.4999976158143,0|0|8
208,32,44288,1,0
176,32,44370,1,0
144,32,44453,1,4
128,176,44782,2,0,B|128:272,1,87.4999976158143
256,192,45276,6,0,B|220:140,2,43.7499988079071,0|0|8
304,144,45606,1,8
368,144,45771,2,0,B|368:224|288:224,1,87.4999976158143,0|2
352,288,46100,1,0
208,304,46430,1,0
144,304,46594,1,0
80,304,46759,1,8
48,240,46924,2,0,B|16:176,2,43.7499988079071,0|0|8
176,192,47418,5,0
176,128,47583,1,0
112,128,47747,1,0
44,136,47912,2,0,B|44:180,2,43.7499988079071,0|0|8
48,64,48242,1,0
112,64,48406,1,0
256,64,48736,5,4
400,64,49065,1,0
400,128,49230,1,0
400,192,49395,1,8
400,128,49560,2,0,B|336:128,2,43.7499988079071
256,160,50054,5,0
192,160,50218,1,0
208,304,50548,2,0,B|144:304,2,43.7499988079071,0|0|8
288,288,50877,1,0
352,272,51042,1,0
368,336,51207,1,0
352,272,51372,1,4
336,128,51701,5,0
272,112,51866,1,0
208,112,52031,1,8
144,112,52195,1,0
144,112,52278,1,0
144,112,52360,1,0
256,192,52690,1,4
256,256,52854,1,0
256,112,53184,1,0
256,112,53266,1,0
256,112,53348,1,2
256,192,53431,12,4,54007
256,192,54337,6,0,B|256:96,2,87.4999976158143,0|0|8
256,256,54831,2,0,B|256:320,2,37.5000000745057
256,108,55325,1,4
256,48,55490,2,0,B|160:48|160:48|160:144,1,174.999995231629
160,164,55902,1,0
160,200,55984,2,0,B|256:200,1,87.4999976158143,8|0
320,200,56314,1,0
320,132,56478,1,0
392,132,56643,5,4
400,288,56973,1,0
336,288,57137,1,0
272,288,57302,1,8
200,288,57467,2,0,B|132:288,2,43.7499988079071
208,144,57961,6,0,B|288:144,1,75.0000001490115
128,144,58455,1,0
128,144,58538,1,0
128,144,58620,1,8
64,144,58785,1,0
64,80,58949,1,8
208,80,59279,6,0,B|208:176|208:176|304:176,1,174.999995231629,4|0
352,176,59773,1,0
320,112,59938,1,8
336,48,60103,2,0,B|384:48,2,37.5000000745057
288,192,60597,6,0,B|160:192,2,87.4999976158143,4|0|8
352,160,61091,1,0
352,160,61173,1,0
352,160,61256,1,8
416,192,61420,1,0
404,260,61585,1,0
352,308,61750,1,0
284,320,61915,1,0
256,184,62244,6,0,B|256:88,2,87.4999976158143,0|0|8
260,256,62738,2,0,B|260:304,2,43.7499988079071
160,144,63232,1,2
160,80,63397,1,0
160,224,63727,1,0
160,224,63809,1,0
160,224,63891,1,8
156,196,64550,6,0,B|216:224|232:224|260:80,1,196.875002145767
156,196,65332,1,0
356,192,65688,6,0,B|296:164|280:164|252:284,1,164.062501788139
356,192,66399,1,0
176,48,66826,5,4
336,48,67013,1,0
176,192,67201,1,0
336,192,67389,1,0
176,336,67576,1,4
336,336,67764,1,0
256,192,67952,1,0
400,272,68327,5,8
400,112,68515,1,0
256,272,68703,1,0
256,112,68890,1,0
96,272,69078,1,2
96,112,69266,1,0
256,192,69453,1,0
400,192,69641,1,0
96,192,69829,2,0,B|96:32|96:32|208:32|208:32|208:112,1,349.999990463257
352,144,71143,1,0
384,144,71237,1,0
416,144,71331,6,8,B|416:272,2,116.666663487752
320,144,72081,1,0
224,144,72332,2,0,B|224:288,2,116.666663487752,8|8|12
256,192,72926,12,0,73583
256,192,74334,5,8
256,192,74428,12,4,75085
80,240,75836,1,2
208,352,76023,1,0
192,128,76211,1,0
320,256,76399,1,0
288,160,76587,2,0,B|224:224,2,87.4999976158143,2|0|0
352,96,77150,1,0
352,96,77244,1,0
352,96,77337,1,8
256,192,77431,12,0,77994
256,192,78088,12,4,78839
256,192,79590,1,2
272,224,79684,1,0
272,256,79778,1,0
256,288,79872,1,0
224,304,79965,1,0
192,304,80059,1,0
160,288,80153,1,0
144,256,80247,1,0
144,224,80341,1,8
256,192,80435,12,4,81092
256,192,81843,5,2
256,160,81936,1,0
272,128,82030,1,0
304,112,82124,1,0
336,112,82218,1,0
368,128,82312,1,0
384,160,82406,1,0
384,192,82499,1,0
368,224,82593,1,2
64,304,83156,1,0
64,272,83250,1,0
64,240,83344,6,8,B|64:96,2,116.666663487752,8|8|8
160,240,84095,1,0
256,240,84345,2,8,B|256:112,2,116.666663487752,8|8|12
256,192,84940,12,0,85597
256,64,86348,5,8
224,64,86441,1,0
192,80,86535,1,0
160,96,86629,1,0
144,128,86723,1,0
128,160,86817,1,0
128,192,86911,1,0
128,224,87005,1,0
144,256,87098,1,2
416,192,87849,1,2
256,192,87943,12,0,88600
256,192,89101,5,0
256,240,89226,1,0
256,288,89351,1,8
256,192,90102,5,2
256,160,90184,1,0
272,128,90266,1,0
292,100,90349,1,0
320,80,90431,5,0
352,72,90513,1,0
388,76,90596,1,0
420,88,90678,1,0
440,116,90760,5,0
448,152,90843,1,0
436,184,90925,1,0
420,216,91008,1,0
396,240,91090,5,0
372,264,91172,1,0
344,284,91255,1,0
312,300,91337,1,0
276,308,91419,5,0
240,316,91502,1,0
208,308,91584,1,0
176,296,91666,1,0
152,268,91749,5,0
124,248,91831,1,0
100,220,91914,1,0
84,188,91996,1,0
84,152,92078,5,0
92,116,92161,1,0
116,88,92243,1,0
256,192,92984,5,0
256,224,93067,1,0
272,256,93149,1,0
304,272,93231,1,0
336,272,93314,1,0
368,256,93396,1,0
400,240,93479,1,0
416,208,93561,1,0
432,176,93643,5,0
416,144,93726,1,0
400,112,93808,1,0
368,96,93890,1,0
336,80,93973,1,0
256,192,94714,5,0
256,160,94796,1,0
256,128,94879,1,0
240,96,94961,1,0
208,80,95044,5,0
176,80,95126,1,0
144,96,95208,1,0
112,112,95291,1,0
96,144,95373,5,0
88,176,95455,1,0
88,212,95538,1,0
92,248,95620,1,0
108,280,95702,5,0
136,304,95785,1,0
168,320,95867,1,0
204,324,95950,1,0
240,320,96032,1,0
276,320,96114,5,0
312,316,96197,1,0
344,308,96279,1,0
256,192,97020,5,0
256,160,97103,1,0
256,128,97185,1,0
256,96,97267,1,0
256,64,97350,1,0
256,192,98009,5,4
256,192,98338,1,8
224,112,98668,1,8
108,52,98997,1,8
24,180,99327,1,8
144,328,99656,1,8
424,328,99986,1,8
492,60,100315,1,8
256,192,100480,5,0
256,192,100644,1,0
288,128,100974,1,8
356,64,101303,1,8
500,88,101633,1,8
472,268,101962,1,8
256,332,102292,1,8
32,164,102621,1,8
320,16,102951,1,8
136,144,103280,5,4
240,144,103610,1,0
240,48,103939,1,0
336,48,104186,2,0,B|336:96,1,43.7499988079071,8|0
336,144,104433,1,8
336,208,104598,1,0
336,272,104763,1,8
336,336,104928,1,0
224,336,105257,5,0
128,336,105504,2,0,B|128:288,1,43.7499988079071,8|8
128,240,105751,1,8
128,176,105916,5,4
208,96,106245,1,0
336,96,106575,1,0
352,240,106904,2,8,B|288:240,3,43.7499988079071
32,48,108057,6,0,B|80:48,2,43.7499988079071,0|0|8
32,192,108552,6,4,B|32:288|32:288|128:288|128:288|128:192|128:208|128:208|208:208,2,349.999990463257,4|0|0
240,160,110364,1,0
272,160,110446,1,0
304,160,110528,1,8
336,224,110693,1,0
304,288,110858,1,0
176,336,111187,2,4,B|80:288|144:160,2,174.999995231629
316,336,112176,5,8
372,292,112341,1,0
396,264,112423,1,0
412,232,112505,1,8
408,196,112588,1,8
392,164,112670,1,0
364,144,112752,1,0
328,140,112835,1,8
292,144,112917,1,8
260,136,112999,1,0
236,112,113082,1,0
228,80,113164,1,10
140,188,113494,5,0
144,328,113823,2,0,B|240:328|240:328|240:232,1,174.999995231629,4|0
328,140,114482,2,0,B|232:140,2,87.4999976158143,4|0|8
440,56,115141,2,0,B|440:168,2,87.4999976158143,0|0|8
300,56,115800,2,0,B|396:56,2,87.4999976158143,0|0|8
208,160,116459,6,0,B|304:160|304:160|304:256,1,174.999995231629,4|8
424,164,117118,2,0,B|312:164,2,87.4999976158143,0|0|8
440,96,117612,1,0
408,80,117694,1,0
376,68,117777,1,8
340,64,117859,1,0
304,60,117942,1,0
268,60,118024,1,0
232,64,118106,1,0
200,80,118189,1,8
176,104,118271,1,8
152,128,118353,5,0
136,160,118436,1,8
128,196,118518,1,0
128,232,118600,1,0
140,264,118683,1,0
160,292,118765,1,8
192,308,118848,1,2
224,316,118930,1,2
288,284,119095,5,4
416,128,119589,1,0
448,96,119671,1,0
464,64,119754,1,8
288,176,120248,1,0
144,176,120577,2,0,B|128:128,2,43.7499988079071
48,272,121071,1,8
192,304,121401,1,0
336,304,121730,1,4
272,96,122225,5,0
240,80,122307,1,0
208,68,122389,1,8
240,304,122884,1,0
96,304,123213,2,0,B|32:304,2,43.7499988079071
256,240,123707,1,8
256,176,123872,1,0
256,112,124037,1,0
352,192,124366,5,0
144,192,124860,2,0,B|80:192,2,37.5000000745057,0|0|8
48,80,125519,1,0
160,64,125849,2,0,B|208:64,2,37.5000000745057
304,80,126343,1,8
416,80,126672,1,0
416,208,127002,1,4
240,192,127496,2,0,B|240:240,2,37.5000000745057,0|0|8
304,32,128155,1,0
416,48,128484,6,0,B|416:112,2,37.5000000745057
416,192,128979,1,8
352,192,129143,6,0,B|352:240,2,43.7499988079071
176,192,129638,1,0
368,112,130132,2,0,B|368:176,2,43.7499988079071,0|0|8
224,112,130626,2,0,B|240:176,2,43.7499988079071
256,96,130873,1,0
288,80,130955,1,0
432,96,131285,5,0
432,128,131367,1,0
432,160,131450,1,0
416,192,131532,1,0
384,208,131614,1,8
384,320,131862,1,0
352,336,131944,2,0,B|240:336,2,87.4999976158143
336,272,132438,6,0,B|288:224,2,43.7499988079071
160,224,132932,1,8
144,80,133262,1,0
176,80,133344,1,0
208,80,133426,1,0
240,80,133509,1,0
272,80,133591,1,0
416,96,133921,5,0
416,128,134003,1,0
416,160,134085,1,0
416,192,134168,1,0
416,224,134250,1,8
320,144,134580,1,0
176,144,134909,2,0,B|176:208,2,43.7499988079071
32,144,135403,2,0,B|32:192,2,43.7499988079071,0|0|8
128,32,135897,5,0
160,32,135980,1,0
192,32,136062,1,0
224,32,136145,1,0
256,32,136227,1,0
400,32,136556,1,0
400,64,136639,1,0
400,96,136721,1,0
400,128,136804,1,0
400,160,136886,1,8
400,272,137133,6,0,B|256:272,1,131.249996423721
128,288,137710,2,0,B|128:240,2,43.7499988079071,0|0|4
128,144,138204,2,8,B|144:80|240:96|272:160,1,174.999995231629,8|0
288,176,138616,1,0
320,192,138698,1,0
352,192,138780,1,0
384,192,138863,1,0
272,272,139192,2,0,B|208:272,4,43.7499988079071,0|0|0|0|8
272,304,139604,2,0,B|224:320,3,43.7499988079071,0|0|0|8
96,304,140181,5,0
