osu file format v9

[General]
AudioFilename: 02 Red madness and my desire.mp3
AudioLeadIn: 0
PreviewTime: 98009
Countdown: 0
SampleSet: Normal
StackLeniency: 0.7
Mode: 0
LetterboxInBreaks: 1

[Editor]
DistanceSpacing: 0.8
BeatDivisor: 4
GridSize: 4

[Metadata]
Title:Red madness and my desire
Artist:Draw the Emotional
Creator:Nathien
Version:Hard
Source:Touhou
Tags:Funny Party In the Fog U.N. Owen Was Her? Embodiment of Scarlet Devil EoSD MuryokuP F9 Yuyoyuppe Flandre

[Difficulty]
HPDrainRate:6
CircleSize:4
OverallDifficulty:6
ApproachRate:7
SliderMultiplier:3.00000000596046
SliderTickRate:2

[Events]
//Background and Video events
0,0,"Flandre-bg.png"
//Break Periods
2,64750,65926
2,94255,97109
//Storyboard Layer 0 (Background)
//Storyboard Layer 1 (Fail)
//Storyboard Layer 2 (Pass)
//Storyboard Layer 3 (Foreground)
//Storyboard Sound Samples
//Background Colour Transformations
3,100,163,162,255

[TimingPoints]
1293,658.93600660066,4,1,2,100,1,0
30121,-100,4,2,0,100,0,0
31604,-100,4,1,2,100,0,0
64550,1138.21111111111,4,1,2,100,1,0
66826,750.850000000002,4,1,2,100,1,0
90102,658.935160780179,4,1,2,100,1,0
98173,-100,4,2,0,100,0,0
100480,-100,4,1,2,100,0,0
100809,-100,4,2,0,100,0,0
103115,-100,4,1,2,100,0,0
104186,-100,4,2,0,100,0,0
104269,-100,4,1,2,100,0,0
104433,-100,4,2,0,100,0,0
104598,-100,4,1,2,100,0,0
104763,-100,4,2,0,100,0,0
104928,-100,4,1,2,100,0,0
105504,-100,4,2,0,100,0,0
105586,-100,4,1,2,100,0,0
105751,-100,4,2,0,100,0,0
105916,-100,4,1,2,100,0,0

[Colours]
Combo1 : 222,67,235
Combo2 : 221,23,13
Combo3 : 230,152,6
Combo4 : 237,232,7
Combo5 : 56,231,52
Combo6 : 80,84,248
Combo7 : 122,22,160

[HitObjects]
256,272,1293,2,0,B|144:160,1,150.000000298023
240,84,1951,1,8
360,84,2281,1,0
448,164,2610,2,0,B|348:284,1,150.000000298023,0|0
232,276,3269,1,8
192,232,3434,2,0,B|192:152,2,75.0000001490115,0|0|4
152,276,3928,1,0
56,192,4258,5,0
52,72,4587,2,0,B|208:72,1,150.000000298023,8|0
208,192,5246,1,0
200,72,5576,1,0
320,72,5905,2,0,B|380:124|380:124,2,75.0000001490115,8|0|4
308,132,6399,1,0
312,192,6564,1,0
192,188,6893,5,0
188,68,7223,1,8
308,72,7552,1,0
428,76,7882,1,0
428,196,8211,1,0
308,196,8541,1,8
308,196,8706,1,0
308,196,8870,2,0,B|308:116,2,75.0000001490115,0|0|4
68,192,9859,1,8
308,196,10518,6,0,B|180:196,1,75.0000001490115,0|8
236,316,11012,2,0,B|316:316,1,75.0000001490115,0|8
308,196,11506,1,0
256,84,11835,1,2
136,84,12165,5,0
112,140,12330,1,8
104,200,12494,1,0
124,256,12659,1,8
164,300,12824,1,0
256,224,13153,5,2
340,308,13483,1,0
372,256,13648,1,8
380,196,13812,1,0
372,136,13977,1,0
340,84,14142,1,8
148,256,14471,6,0,B|144:308|200:304,1,75.0000001490115,0|10
388,136,14965,2,0,B|388:72|308:88,1,75.0000001490115,0|10
256,192,15460,1,2
180,68,15789,6,0,B|116:68|132:148,1,75.0000001490115,0|10
344,312,16283,2,0,B|408:312|392:232,1,75.0000001490115,0|10
256,192,16777,1,10
152,248,17107,5,2
132,128,17436,1,2
212,40,17766,1,2
332,48,18095,1,2
408,140,18425,1,2
404,260,18754,1,2
296,312,19084,1,2
260,76,19743,5,2
336,168,20072,1,2
428,92,20402,1,10
324,36,20731,1,2
204,36,21061,1,2
96,92,21390,1,2
180,180,21720,1,2
256,88,22049,1,2
256,208,22378,1,4
256,192,24026,5,0
256,252,24191,1,0
256,312,24355,1,2
32,192,26332,5,0
76,80,26662,1,0
188,36,26991,1,0
308,28,27320,1,0
412,88,27650,1,2
256,192,29297,5,0
256,132,29462,1,0
256,72,29627,1,2
36,168,30286,6,0,B|68:120,3,37.5000000745057
76,116,30615,2,0,B|108:100,3,37.5000000745057
136,84,30945,2,0,B|184:84,4,37.5000000745057
480,192,31604,5,2
412,292,31933,1,2
300,336,32262,1,2
180,328,32592,1,2
76,264,32921,1,4
172,192,33251,5,8
208,96,33580,1,0
208,96,33745,1,0
272,96,33910,1,8
384,96,34239,1,0
384,96,34404,1,0
384,160,34569,1,8
272,160,34898,1,0
272,160,35063,1,0
208,160,35228,1,8
80,48,35557,6,0,B|112:128,1,75.0000001490115
107,117,35887,2,0,B|160:48,1,75.0000001490115,2|0
152,57,36216,2,0,B|192:128,1,75.0000001490115
189,123,36546,2,0,B|240:32,1,75.0000001490115,2|0
225,57,36875,2,0,B|272:128,1,75.0000001490115
266,120,37205,2,0,B|304:48,1,75.0000001490115,2|0
301,53,37534,1,0
256,304,38193,5,0
256,176,38522,1,8
256,48,38852,1,0
256,48,39017,1,0
256,112,39181,1,8
256,304,39511,1,0
256,304,39676,1,0
256,240,39840,1,8
256,112,40170,5,0
256,112,40334,1,0
256,176,40499,1,8
384,176,40829,1,0
384,288,41158,1,8
272,288,41488,1,0
272,288,41652,1,0
208,288,41817,1,8
208,288,41982,1,0
256,192,42311,12,0,43464
320,128,43794,5,0
260,128,43959,1,0
200,128,44123,1,8
140,128,44288,2,0,B|92:128,2,37.5000000745057,0|0|2
224,40,44782,2,0,B|304:40,1,75.0000001490115
420,52,45276,6,0,B|452:36,2,37.5000000745057,0|0|8
424,112,45606,1,8
424,172,45771,2,0,B|424:252|344:252,1,75.0000001490115,0|2
356,284,46100,1,0
240,316,46430,5,0
180,304,46594,1,0
124,288,46759,1,8
68,264,46924,2,0,B|36:216,2,37.5000000745057,0|0|8
160,188,47418,1,0
152,128,47583,1,0
92,128,47747,1,0
60,76,47912,2,0,B|60:28,2,37.5000000745057,0|0|8
112,48,48242,1,0
172,48,48406,1,0
292,48,48736,5,4
352,152,49065,1,0
304,188,49230,1,0
240,192,49395,1,8
179,192,49560,2,0,B|113:193,2,37.5000000745057
176,96,50054,5,0
176,96,50218,1,0
282,39,50548,2,0,B|334:38,2,37.5000000745057,0|0|8
284,100,50877,1,0
344,100,51042,1,0
410,103,51207,1,0
412,164,51372,1,4
432,280,51701,5,0
380,308,51866,1,0
320,316,52031,1,8
200,320,52360,1,0
88,280,52690,1,2
84,160,53019,1,0
204,160,53348,1,2
444,156,54007,6,0,B|316:60|316:60|188:156,1,300.000000596046,0|8
152,176,54831,2,0,B|152:240,2,37.5000000745057
156,296,55325,1,2
336,304,55819,1,0
336,244,55984,2,0,B|336:148,1,75.0000001490115,8|0
336,108,56314,1,0
296,64,56478,1,0
240,44,56643,1,4
120,48,56973,5,0
120,108,57137,1,0
120,168,57302,1,8
180,168,57467,2,0,B|228:168,2,37.5000000745057
184,288,57961,6,0,B|264:288,1,75.0000001490115
80,288,58620,2,0,B|80:176,1,75.0000001490115,10|0
76,152,58949,1,8
196,148,59279,2,0,B|260:228,2,75.0000001490115,0|0|0
256,44,59938,1,8
316,40,60103,2,0,B|364:40,2,37.5000000745057
292,156,60597,6,0,B|192:156,2,75.0000001490115,4|0|8
352,164,61091,1,0
400,192,61256,1,8
400,252,61420,1,0
348,284,61585,1,0
288,284,61750,1,0
228,284,61915,1,0
132,216,62244,6,0,B|132:136,2,75.0000001490115,0|0|8
132,276,62738,2,0,B|132:324,2,37.5000000745057
216,192,63232,1,2
256,148,63397,1,0
376,144,63727,1,0
380,264,64056,1,0
176,192,64550,1,4
256,56,66826,5,4
192,68,67013,1,0
140,96,67201,1,0
64,200,67576,1,4
76,264,67764,1,0
116,312,67952,1,0
260,60,68327,5,8
320,56,68515,1,0
384,68,68703,1,0
436,112,68890,1,0
456,176,69078,1,2
388,284,69453,1,0
328,268,69641,1,0
280,224,69829,2,0,B|104:336|24:144,1,300.000000596046,2|2
432,144,71331,6,8,B|432:256,2,100.000000198682
352,144,72081,1,0
272,144,72332,2,8,B|272:272,2,100.000000198682
48,80,73583,6,0,B|352:80,1,300.000000596046,0|8
384,320,75085,2,0,B|304:320,2,75.0000001490115,2|0|0
452,208,75836,1,2
400,88,76211,1,0
336,64,76399,1,0
272,64,76587,2,0,B|272:144,2,75.0000001490115,2|0|0
148,72,77337,1,6
384,64,78839,5,2
144,64,79590,1,2
384,64,80341,1,8
144,64,81092,1,4
256,272,81843,1,2
256,32,82593,1,2
64,224,83344,6,8,B|64:80,2,100.000000198682
144,224,84095,1,0
224,224,84345,2,0,B|224:96,2,100.000000198682
464,192,85597,5,4
256,64,86348,1,8
48,192,87098,1,2
256,320,87849,1,2
256,80,88600,1,2
256,320,89351,1,8
256,192,90102,1,2
256,192,90266,12,0,94055
256,192,98009,5,0
252,152,98338,1,8
208,88,98668,1,8
124,56,98997,1,8
44,120,99327,1,8
56,252,99656,1,8
200,332,99986,1,8
404,288,100315,1,8
256,192,100480,5,0
256,192,100644,1,0
268,136,100974,1,8
324,76,101303,1,8
436,64,101633,1,8
492,192,101962,1,8
408,312,102292,1,8
204,340,102621,1,8
36,224,102951,1,8
152,256,103280,5,4
240,144,103610,1,0
236,24,103939,1,0
356,28,104269,1,0
356,88,104433,1,8
356,148,104598,1,0
356,208,104763,1,8
356,268,104928,1,0
236,268,105257,5,0
116,268,105586,1,0
116,208,105751,1,8
116,148,105916,1,4
224,92,106245,1,0
344,92,106575,1,0
340,212,106904,2,8,B|292:212,3,37.5000000745057
24,52,108057,2,0,B|72:52,2,37.5000000745057,0|0|8
256,192,108552,5,4
256,64,109211,2,0,B|352:64|368:160,2,150.000000298023,2|0|2
336,208,110528,1,8
328,268,110693,1,0
272,304,110858,1,0
160,288,111187,6,4,B|64:240|128:144,2,150.000000298023
80,80,112505,2,0,B|240:80,1,150.000000298023,2|2
384,80,113164,1,2
464,304,113823,6,0,B|304:304,1,150.000000298023,2|10
314,304,114317,1,0
314,303,114482,2,0,B|138:303,1,150.000000298023,2|10
162,304,114976,1,0
164,305,115141,2,0,B|164:145,1,150.000000298023,2|10
163,154,115635,1,0
163,156,115800,2,0,B|323:92,1,150.000000298023,2|10
302,101,116294,1,0
302,103,116459,6,0,B|398:231,1,150.000000298023,2|10
392,223,116953,1,0
394,223,117118,2,0,B|227:222,1,150.000000298023,2|10
256,96,117777,1,4
256,192,119095,5,4
256,192,119424,1,0
256,320,119754,1,8
80,320,120248,1,0
68,200,120577,2,0,B|52:152,1,37.5000000745057
164,60,121071,1,8
284,60,121401,1,0
404,60,121730,5,4
408,300,122389,1,8
228,300,122884,1,0
108,296,123213,2,0,B|44:296,2,37.5000000745057
164,192,123707,1,8
188,136,123872,1,0
236,120,124037,1,0
332,192,124366,5,0
152,192,124860,2,0,B|88:192,2,37.5000000745057,0|0|8
256,340,125519,1,0
376,332,125849,2,0,B|424:332,2,37.5000000745057
412,216,126343,1,8
408,96,126672,1,0
288,92,127002,5,4
108,92,127496,2,0,B|108:140,2,37.5000000745057,0|0|8
256,192,128155,1,0
376,188,128484,2,0,B|376:252,2,37.5000000745057
380,308,128979,1,8
172,188,129638,5,0
256,272,129967,1,0
356,340,130297,1,8
360,220,130626,1,0
344,100,130955,2,8,B|520:116|472:356,1,300.000000596046,0|8
356,320,131944,1,0
236,320,132273,6,0,B|76:240|140:64,1,300.000000596046,0|8
260,76,133262,1,0
380,80,133591,1,0
452,176,133921,1,0
384,276,134250,1,8
316,176,134580,1,0
196,176,134909,6,0,B|260:304|260:304|100:256,1,300.000000596046,0|8
72,144,135897,1,0
112,260,136227,2,0,B|224:168|224:168|28:136,1,300.000000596046,0|8
24,64,137215,5,0
84,68,137380,1,0
144,68,137545,2,0,B|464:68,1,300.000000596046,0|8
444,188,138533,1,0
444,308,138863,2,0,B|124:308,1,300.000000596046,0|8
356,192,140181,1,4
256,192,140840,12,4,145452
