osu file format v13

[General]
AudioFilename: Morning glow.mp3
AudioLeadIn: 2000
PreviewTime: 86989
Countdown: 0
SampleSet: Soft
StackLeniency: 0.7
Mode: 0
LetterboxInBreaks: 1
WidescreenStoryboard: 0

[Editor]
Bookmarks: 76796
DistanceSpacing: 1.1
BeatDivisor: 4
GridSize: 4
TimelineZoom: 1.7

[Metadata]
Title:Morning glow
TitleUnicode:Morning glow
Artist:Draw the Emotional
ArtistUnicode:Draw the Emotional
Creator:UnitedWeSin
Version:Lunatic
Source:Touhou
Tags:collapse of the sky yuyoyuppe ゆよゆっぺ kadochi カドチ c78 聖 白蓮 hijiri byakuren 法界の火 fires of hokkai 東方星蓮船 Undefined Fantastic Object. 締め切り前日のおまいら shimekiri zenjitsu no o maira uws
BeatmapID:363298
BeatmapSetID:146626

[Difficulty]
HPDrainRate:7
CircleSize:4
OverallDifficulty:8
ApproachRate:9
SliderMultiplier:1.8
SliderTickRate:2

[Events]
//Background and Video events
0,0,"bg.jpg",0,0
//Break Periods
2,182217,196581
//Storyboard Layer 0 (Background)
//Storyboard Layer 1 (Fail)
//Storyboard Layer 2 (Pass)
//Storyboard Layer 3 (Foreground)
//Storyboard Sound Samples
//Background Colour Transformations
3,100,163,162,255

[TimingPoints]
39,329.67032967033,4,2,1,30,1,0
39,-142.857142857143,4,2,1,30,0,0
698,-142.857142857143,4,2,2,30,0,0
3995,-142.857142857143,4,2,1,30,0,0
5973,-142.857142857143,4,2,2,30,0,0
10588,-142.857142857143,4,2,1,30,0,0
11247,-142.857142857143,4,2,2,30,0,0
14544,-142.857142857143,4,2,1,30,0,0
16522,-142.857142857143,4,2,2,30,0,0
21137,-125,4,2,1,50,0,0
21632,-125,4,2,2,50,0,0
25093,-125,4,2,1,50,0,0
27401,-125,4,2,2,50,0,0
31687,-125,4,2,1,50,0,0
32181,-125,4,2,2,50,0,0
35643,-125,4,2,1,50,0,0
37621,-125,4,2,2,50,0,0
39599,-200,4,2,1,50,0,0
42236,-83.3333333333333,4,1,1,70,0,1
42319,-83.3333333333333,4,1,1,70,0,0
63335,-100,4,2,1,50,0,0
84434,-166.666666666667,4,2,1,50,0,0
86989,-166.666666666667,4,2,1,5,0,0
87071,-83.3333333333333,4,1,1,70,0,1
108170,-166.666666666667,4,2,1,80,0,1
112621,-100,4,1,1,60,0,1
113445,-83.3333333333333,4,1,1,60,0,0
114269,-83.3333333333333,4,2,1,30,0,0
114352,-83.3333333333333,4,1,1,60,0,0
114517,-83.3333333333333,4,2,1,30,0,0
114599,-83.3333333333333,4,1,1,60,0,0
116907,-83.3333333333333,4,2,1,30,0,0
116989,-83.3333333333333,4,1,1,60,0,0
117154,-83.3333333333333,4,2,1,30,0,0
117236,-83.3333333333333,4,1,1,60,0,0
119544,-83.3333333333333,4,2,1,30,0,0
119626,-83.3333333333333,4,1,1,60,0,0
119791,-83.3333333333333,4,2,1,30,0,0
119874,-83.3333333333333,4,1,1,60,0,0
122181,-83.3333333333333,4,2,1,30,0,0
122264,-83.3333333333333,4,1,1,60,0,0
122429,-83.3333333333333,4,2,1,30,0,0
122511,-83.3333333333333,4,1,1,60,0,0
123335,-100,4,1,1,70,0,0
123500,-100,4,2,1,40,0,0
123665,-90.9090909090909,4,1,1,70,0,0
123830,-90.9090909090909,4,2,1,40,0,0
123995,-83.3333333333333,4,1,1,60,0,0
124819,-83.3333333333333,4,2,1,30,0,0
124901,-83.3333333333333,4,1,1,60,0,0
125066,-83.3333333333333,4,2,1,30,0,0
125148,-83.3333333333333,4,1,1,60,0,0
127456,-83.3333333333333,4,2,1,30,0,0
127539,-83.3333333333333,4,1,1,60,0,0
127703,-83.3333333333333,4,2,1,30,0,0
127786,-83.3333333333333,4,1,1,60,0,0
130093,-83.3333333333333,4,2,1,30,0,0
130176,-83.3333333333333,4,1,1,60,0,0
130341,-83.3333333333333,4,2,1,30,0,0
130423,-83.3333333333333,4,1,1,60,0,0
132731,-83.3333333333333,4,2,1,30,0,0
132813,-83.3333333333333,4,1,1,60,0,0
132978,-83.3333333333333,4,2,1,30,0,0
133060,-83.3333333333333,4,1,1,60,0,0
133885,-100,4,1,1,70,0,0
134049,-100,4,2,1,40,0,0
134214,-90.9090909090909,4,1,1,70,0,0
134379,-90.9090909090909,4,2,1,40,0,0
134544,-100,4,1,1,60,0,0
145093,-100,4,1,1,60,0,0
155643,-90.9090909090909,4,1,1,70,0,0
166192,-100,4,1,1,60,0,0
171467,-90.9090909090909,4,1,1,70,0,1
176742,-100,4,2,1,50,0,0
176824,-100,4,2,1,5,0,0
197181,-100,4,2,2,30,0,0
197841,-166.666666666667,4,2,2,50,0,0
198500,-166.666666666667,4,2,2,30,0,0
200148,-166.666666666667,4,2,2,40,0,0
200973,-166.666666666667,4,2,2,30,0,0
201467,-166.666666666667,4,2,2,20,0,0
201797,-166.666666666667,4,2,2,50,0,0
203775,-166.666666666667,4,2,2,30,0,0
205423,-166.666666666667,4,2,2,40,0,0
207071,-166.666666666667,4,2,2,50,0,0
209049,-166.666666666667,4,2,2,30,0,0
210698,-166.666666666667,4,2,2,40,0,0
211522,-166.666666666667,4,2,2,30,0,0
212017,-166.666666666667,4,2,2,20,0,0
212346,-166.666666666667,4,2,2,50,0,0
214324,-166.666666666667,4,2,2,30,0,0
218940,-166.666666666667,4,2,2,40,0,0
224214,-83.3333333333333,4,1,1,70,0,1
240039,-90.9090909090909,4,1,1,70,0,0
261137,-100,4,2,1,70,0,0
266412,-83.3333333333333,4,1,1,60,0,0
267236,-83.3333333333333,4,2,1,30,0,0
267319,-83.3333333333333,4,1,1,60,0,0
267484,-83.3333333333333,4,2,1,30,0,0
267566,-83.3333333333333,4,1,1,60,0,0
269874,-83.3333333333333,4,2,1,30,0,0
269956,-83.3333333333333,4,1,1,60,0,0
270121,-83.3333333333333,4,2,1,30,0,0
270203,-83.3333333333333,4,1,1,60,0,0
272511,-83.3333333333333,4,2,1,30,0,0
272593,-83.3333333333333,4,1,1,60,0,0
272758,-83.3333333333333,4,2,1,30,0,0
272841,-83.3333333333333,4,1,1,60,0,0
275148,-83.3333333333333,4,2,1,30,0,0
275231,-83.3333333333333,4,1,1,60,0,0
275396,-83.3333333333333,4,2,1,30,0,0
275478,-83.3333333333333,4,1,1,60,0,0
276302,-83.3333333333333,4,1,1,70,0,0

[Colours]
Combo1 : 132,157,108
Combo2 : 105,81,121
Combo3 : 190,82,85

[HitObjects]
320,112,39,5,8,0:0:0:0:
348,100,368,2,0,L|372:32,1,62.9999980773926,8|0,0:0|0:0,0:0:0:0:
444,192,698,2,0,P|396:232|332:240,1,125.999996154785,2|0,0:0|0:0,0:0:0:0:
265,309,1192,2,0,P|322:335|384:328,1,125.999996154785,0|0,0:0|0:0,0:0:0:0:
356,148,1687,2,0,P|299:121|237:129,1,125.999996154785,2|0,0:0|0:0,0:0:0:0:
172,316,2181,2,0,B|200:260|200:260|192:196,1,125.999996154785,2|0,0:0|0:0,0:0:0:0:
96,288,2676,6,0,P|92:320|100:352,1,62.9999980773926
192,196,3006,2,0,P|196:164|188:132,1,62.9999980773926
48,104,3335,2,0,P|69:162|110:210,1,125.999996154785,2|0,0:0|0:0,0:0:0:0:
256,248,3830,1,2,0:0:0:0:
256,28,3995,6,0,L|256:160,1,125.999996154785,8|0,0:0|0:0,0:0:0:0:
340,348,4489,2,0,L|340:222,1,125.999996154785,2|0,0:0|0:0,0:0:0:0:
172,222,4984,2,0,L|172:296,1,62.9999980773926,8|0,0:0|0:0,0:0:0:0:
256,248,5313,5,8,0:0:0:0:
260,216,5643,2,0,P|252:180|236:156,1,62.9999980773926,8|0,0:0|0:0,0:0:0:0:
140,136,5973,2,0,B|84:160|72:216|72:216|64:252,1,125.999996154785,2|0,0:0|0:0,0:0:0:0:
196,352,6467,2,0,B|248:376|268:336|324:352,1,125.999996154785
476,284,6962,2,0,P|412:264|344:264,1,125.999996154785,2|0,0:0|0:0,0:0:0:0:
208,200,7456,2,0,P|272:180|340:180,1,125.999996154785,2|0,0:0|0:0,0:0:0:0:
436,112,7951,6,0,P|452:76|452:40,1,62.9999980773926
328,180,8280,2,0,P|312:216|312:252,1,62.9999980773926
356,72,8610,2,0,P|308:20|244:12,1,125.999996154785,2|0,0:0|0:0,0:0:0:0:
408,240,9104,2,0,P|456:292|520:300,1,125.999996154785
332,296,9599,2,0,P|284:348|220:356,1,125.999996154785,2|0,0:0|0:0,0:0:0:0:
132,280,10093,2,0,L|112:340,2,62.9999980773926,2|0|0,0:0|0:0|0:0,0:0:0:0:
256,80,10588,5,8,0:0:0:0:
256,112,10918,2,0,L|236:172,1,62.9999980773926,8|0,0:0|0:0,0:0:0:0:
80,224,11247,2,0,P|130:188|155:130,1,125.999996154785,2|0,0:0|0:0,0:0:0:0:
87,23,11742,2,0,P|36:58|11:116,1,125.999996154785,0|0,0:0|0:0,0:0:0:0:
60,304,12236,2,0,L|192:336,1,125.999996154785,2|0,0:0|0:0,0:0:0:0:
352,328,12731,2,0,P|293:306|255:257,1,125.999996154785,2|0,0:0|0:0,0:0:0:0:
360,176,13225,6,0,L|344:240,1,62.9999980773926
180,136,13555,2,0,L|196:72,1,62.9999980773926
192,224,13885,2,0,P|153:174|95:153,1,125.999996154785,2|0,0:0|0:0,0:0:0:0:
24,244,14379,1,2,0:0:0:0:
140,336,14544,6,0,B|204:320|204:320|268:336,1,125.999996154785,8|0,0:0|0:0,0:0:0:0:
416,248,15039,2,0,B|352:264|352:264|288:248,1,125.999996154785,2|0,0:0|0:0,0:0:0:0:
148,168,15533,2,0,L|208:151,1,62.9999980773926,8|0,0:0|0:0,0:0:0:0:
256,56,15863,5,8,0:0:0:0:
280,72,16192,2,0,P|303:101|314:128,1,62.9999980773926,8|0,0:0|0:0,0:0:0:0:
204,300,16522,2,0,P|140:292|92:240,1,125.999996154785,2|0,0:0|0:0,0:0:0:0:
284,256,17017,2,0,P|339:289|361:356,1,125.999996154785
208,216,17511,2,0,P|186:155|210:88,1,125.999996154785,2|0,0:0|0:0,0:0:0:0:
336,36,18006,2,0,P|357:96|333:163,1,125.999996154785,2|0,0:0|0:0,0:0:0:0:
208,216,18500,6,0,L|148:184,1,62.9999980773926
12,52,18830,2,0,L|72:84,1,62.9999980773926
208,216,19159,2,0,P|208:280|172:332,1,125.999996154785,2|0,0:0|0:0,0:0:0:0:
0,248,19654,2,0,L|144:256,1,125.999996154785
337,330,20148,2,0,P|303:278|304:216,1,125.999996154785,2|0,0:0|0:0,0:0:0:0:
456,252,20643,2,0,L|369:256,2,62.9999980773926,2|0|0,0:0|0:0|0:0,0:0:0:0:
421,94,21137,6,0,P|362:134|291:136,1,144,8|0,0:0|0:0,0:0:0:0:
88,112,21632,2,0,P|146:72|217:69,1,144,0|0,0:0|0:0,0:0:0:0:
192,244,22126,2,0,P|133:283|62:286,1,144,2|0,0:0|0:0,0:0:0:0:
12,144,22621,2,0,P|27:178|28:216,2,72,0|2|0,0:0|0:0|0:0,0:0:0:0:
120,32,23115,2,0,L|48:39,1,72
120,176,23445,2,0,L|200:168,1,72,2|0,0:0|0:0,0:0:0:0:
380,272,23775,6,0,P|300:260|256:204,1,144,2|0,0:0|0:0,0:0:0:0:
320,92,24269,2,0,P|400:104|444:160,1,144
488,300,24764,2,0,L|488:216,1,72,2|0,0:0|0:0,0:0:0:0:
492,24,25093,6,0,B|436:39|436:39|399:17|343:12,1,144,2|0,0:0|0:0,0:0:0:0:
152,124,25588,1,2,0:0:0:0:
152,124,25753,2,0,P|168:172|164:200,1,72,0|0,0:0|0:0,0:0:0:0:
240,304,26082,2,0,P|264:259|288:244,1,72,2|0,0:0|0:0,0:0:0:0:
116,324,26412,5,8,0:0:0:0:
84,312,26742,2,0,P|60:280|52:248,1,72,8|0,0:0|0:0,0:0:0:0:
240,304,27071,2,0,P|264:336|272:368,1,72
432,360,27401,2,0,B|468:300|420:284|456:212,1,144,2|0,0:0|0:0,0:0:0:0:
440,60,27896,2,0,L|456:136,2,72,0|2|0,0:0|0:0|0:0,0:0:0:0:
320,116,28390,2,0,P|300:156|280:176,1,72
284,24,28720,2,0,P|328:21|355:28,1,72,2|0,0:0|0:0,0:0:0:0:
336,264,29049,6,0,P|248:272|196:244,1,144,2|0,0:0|0:0,0:0:0:0:
92,112,29544,2,0,L|116:260,1,144
276,176,30039,2,0,L|288:24,1,144,2|0,0:0|0:0,0:0:0:0:
200,248,30533,2,0,L|196:319,2,72,0|2|0,0:0|0:0|0:0,0:0:0:0:
96,284,31028,2,0,P|68:284|24:272,1,72
300,284,31357,2,0,P|328:284|372:296,1,72,2|0,0:0|0:0,0:0:0:0:
456,364,31687,6,0,P|508:308|508:232,1,144,2|0,0:0|0:0,0:0:0:0:
392,156,32181,2,0,P|400:196|420:228,2,72,0|2|0,0:0|0:0|0:0,0:0:0:0:
380,56,32676,1,0,0:0:0:0:
380,56,32841,2,0,P|344:76|244:80,1,144,2|0,0:0|0:0,0:0:0:0:
100,80,33335,2,0,P|136:96|164:120,1,72
128,260,33665,2,0,P|108:225|99:190,1,72,2|0,0:0|0:0,0:0:0:0:
24,28,33995,2,0,P|12:62|11:98,1,72
204,208,34324,6,0,P|231:180|245:147,2,72,2|0|0,0:0|0:0|0:0,0:0:0:0:
128,260,34819,1,0,0:0:0:0:
128,260,34984,2,0,P|88:248|64:228,1,72,2|0,0:0|0:0,0:0:0:0:
232,280,35313,2,0,P|272:292|296:312,1,72,0|2,0:0|0:0,0:0:0:0:
396,360,35643,6,0,L|436:204,1,144,2|0,0:0|0:0,0:0:0:0:
296,64,36137,2,0,L|300:208,1,144,0|0,0:0|0:0,0:0:0:0:
200,348,36632,2,0,L|180:276,1,72,2|0,0:0|0:0,0:0:0:0:
92,120,36962,5,8,0:0:0:0:
112,148,37291,2,0,L|120:232,1,72,8|0,0:0|0:0,0:0:0:0:
40,304,37621,2,0,P|21:270|16:232,1,72
216,184,37951,2,0,P|260:132|272:48,1,144,2|0,0:0|0:0,0:0:0:0:
384,20,38445,1,0,0:0:0:0:
384,20,38610,2,0,P|404:56|432:80,1,72
448,268,38940,2,0,P|443:232|427:200,1,72,2|0,0:0|0:0,0:0:0:0:
244,136,39269,2,0,P|214:156|195:186,1,72
258,365,39599,6,0,B|348:220|180:156|256:11,1,360,0|0,0:0|0:0,0:0:0:0:
276,8,41577,1,0,0:0:0:0:
312,0,42236,6,0,P|340:48|344:104,1,107.999996704102,4|0,0:1|0:0,0:0:0:0:
296,276,42566,2,0,P|268:228|264:172,1,107.999996704102,0|2,0:0|0:0,0:0:0:0:
460,172,42896,2,0,P|488:220|492:276,1,107.999996704102,8|0,0:0|0:0,0:0:0:0:
436,376,43225,1,0,0:0:0:0:
204,324,43390,6,0,P|170:245|180:116,1,215.999993408203,8|2,0:0|0:0,0:0:0:0:
200,20,43885,2,0,P|156:24|100:56,1,107.999996704102,2|0,0:0|0:0,0:0:0:0:
272,208,44214,2,0,P|316:204|372:172,1,107.999996704102,8|0,0:0|0:0,0:0:0:0:
296,88,44544,1,2,0:0:0:0:
256,292,44709,1,0,0:0:0:0:
172,88,44874,6,0,L|192:200,1,107.999996704102,6|0,0:0|0:0,0:0:0:0:
392,280,45203,2,0,L|372:168,1,107.999996704102,0|2,0:0|0:0,0:0:0:0:
164,268,45533,2,0,L|184:380,1,107.999996704102,8|0,0:0|0:0,0:0:0:0:
300,376,45863,1,0,0:0:0:0:
372,172,46028,6,0,P|366:116|235:18,1,215.999993408203,8|2,0:0|0:0,0:0:0:0:
124,176,46522,2,0,P|123:131|149:72,1,107.999996704102,2|0,0:0|0:0,0:0:0:0:
300,256,46852,2,0,P|259:274|195:274,1,107.999996704102,8|2,0:0|0:0,0:0:0:0:
0,192,47181,1,8,0:0:0:0:
72,344,47346,5,0,0:0:0:0:
72,344,47429,1,0,0:0:0:0:
72,344,47511,2,0,P|116:341|176:363,1,107.999996704102,4|0,0:0|0:0,0:0:0:0:
384,256,47841,2,0,P|344:236|303:186,1,107.999996704102,0|2,0:0|0:0,0:0:0:0:
204,24,48170,2,0,P|209:67|189:129,1,107.999996704102,8|0,0:0|0:0,0:0:0:0:
92,56,48500,1,0,0:0:0:0:
308,116,48665,6,0,L|532:168,1,215.999993408203,8|2,0:0|0:0,0:0:0:0:
500,352,49159,2,0,L|384:324,1,107.999996704102,2|0,0:0|0:0,0:0:0:0:
208,200,49489,2,0,L|324:228,1,107.999996704102,8|0,0:0|0:0,0:0:0:0:
204,344,49819,1,2,0:0:0:0:
176,120,49984,1,0,0:0:0:0:
72,268,50148,6,0,B|44:220|44:220|40:160,1,107.999996704102,6|0,0:0|0:0,0:0:0:0:
144,19,50478,1,0,0:0:0:0:
208,200,50643,1,2,0:0:0:0:
208,200,50725,1,0,0:0:0:0:
208,200,50808,2,0,P|240:244|296:276,1,107.999996704102,8|0,0:0|0:0,0:0:0:0:
384,204,51137,1,0,0:0:0:0:
276,380,51302,6,0,P|175:334|111:230,1,215.999993408203,8|2,0:0|0:0,0:0:0:0:
344,320,51797,2,0,P|400:300|436:264,1,107.999996704102,0|2,0:0|0:0,0:0:0:0:
372,60,52126,5,8,0:0:0:0:
172,168,52291,1,2,0:0:0:0:
348,224,52456,1,2,0:0:0:0:
176,48,52621,1,2,0:0:0:0:
340,96,52786,6,0,P|440:144|488:248,1,215.999993408203,4|0,0:0|0:0,0:0:0:0:
456,348,53280,1,0,0:0:0:0:
456,348,53363,1,0,0:0:0:0:
456,348,53445,2,0,P|400:368|340:364,1,107.999996704102,8|0,0:0|0:0,0:0:0:0:
128,276,53775,1,0,0:0:0:0:
240,356,53940,6,0,P|252:252|196:156,1,215.999993408203,8|2,0:0|0:0,0:0:0:0:
52,292,54434,2,0,P|106:294|166:271,1,107.999996704102,2|0,0:0|0:0,0:0:0:0:
232,56,54764,2,0,P|177:53|117:76,1,107.999996704102,8|0,0:0|0:0,0:0:0:0:
88,196,55093,1,2,0:0:0:0:
300,104,55258,1,0,0:0:0:0:
116,168,55423,6,0,B|169:171|169:171|222:191,1,107.999996704102,6|0,0:0|0:0,0:0:0:0:
420,384,55753,2,0,B|367:381|367:381|313:360,1,107.999996704102,0|2,0:0|0:0,0:0:0:0:
304,136,56082,2,0,P|330:186|329:247,1,107.999996704102,8|0,0:0|0:0,0:0:0:0:
316,360,56412,1,0,0:0:0:0:
104,276,56577,6,0,P|58:205|63:73,1,215.999993408203,8|2,0:0|0:0,0:0:0:0:
256,64,57071,2,0,L|152:100,1,107.999996704102,2|0,0:0|0:0,0:0:0:0:
292,244,57401,2,0,L|396:208,1,107.999996704102,8|2,0:0|0:0,0:0:0:0:
356,72,57731,1,8,0:0:0:0:
356,328,57896,5,0,0:0:0:0:
376,320,57978,1,0,0:0:0:0:
392,316,58060,2,0,L|396:208,1,107.999996704102,4|0,0:0|0:0,0:0:0:0:
256,32,58390,2,0,L|248:144,1,107.999996704102,0|2,0:0|0:0,0:0:0:0:
160,376,58720,2,0,L|152:268,1,107.999996704102,8|0,0:0|0:0,0:0:0:0:
156,124,59049,1,0,0:0:0:0:
292,292,59214,6,0,P|368:284|452:176,1,215.999993408203,8|2,0:0|0:0,0:0:0:0:
328,96,59709,2,0,P|280:120|242:162,1,107.999996704102,2|0,0:0|0:0,0:0:0:0:
404,356,60039,2,0,P|452:332|489:289,1,107.999996704102,8|0,0:0|0:0,0:0:0:0:
288,220,60368,1,2,0:0:0:0:
488,120,60533,1,0,0:0:0:0:
380,220,60698,6,0,B|327:244|327:244|263:250,1,107.999996704102,6|0,0:0|0:0,0:0:0:0:
72,160,61028,2,0,P|132:160|180:176,1,107.999996704102,0|2,0:0|0:0,0:0:0:0:
224,364,61357,2,0,P|184:312|172:256,1,107.999996704102,8|0,0:0|0:0,0:0:0:0:
276,140,61687,1,0,0:0:0:0:
432,308,61852,6,0,P|480:232|464:112,1,215.999993408203,8|2,0:0|0:0,0:0:0:0:
356,40,62346,1,2,0:0:0:0:
288,168,62511,1,2,0:0:0:0:
212,44,62676,1,8,0:0:0:0:
196,72,62758,1,0,0:0:0:0:
180,100,62841,1,0,0:0:0:0:
164,128,62923,1,0,0:0:0:0:
148,156,63006,2,0,L|144:272,1,107.999996704102,8|0,0:0|0:0,0:0:0:0:
288,380,63335,6,0,P|272:292|312:204,1,180,4|2,0:0|0:0,0:0:0:0:
400,132,63830,2,0,P|416:220|376:308,1,180
288,380,64324,1,0,0:0:0:0:
288,380,64489,2,0,P|243:368|204:336,1,90,2|0,0:0|0:0,0:0:0:0:
112,220,64819,5,2,0:0:0:0:
112,220,64984,2,0,P|108:268|92:312,1,90
20,156,65313,2,0,P|56:124|99:105,1,90,8|2,0:0|0:0,0:0:0:0:
280,176,65643,2,0,P|231:179|186:170,1,90
332,76,65973,6,0,B|396:64|436:144|516:136,2,180,2|2|8,0:0|0:0|0:0,0:0:0:0:
224,84,66797,1,0,0:0:0:0:
224,84,66962,1,0,0:0:0:0:
184,192,67126,2,0,P|141:180|97:140,1,90,2|0,0:0|0:0,0:0:0:0:
49,244,67456,5,2,0:0:0:0:
49,244,67621,2,0,L|29:332,1,90,2|0,0:0|0:0,0:0:0:0:
280,248,67951,2,0,L|300:160,1,90,8|0,0:0|0:0,0:0:0:0:
184,308,68280,1,2,0:0:0:0:
184,208,68445,1,0,0:0:0:0:
268,344,68610,6,0,P|316:344|364:320,1,90,4|0,0:0|0:0,0:0:0:0:
412,148,68940,2,0,L|392:236,1,90,2|0,0:0|0:0,0:0:0:0:
488,364,69269,2,0,P|480:316|456:272,1,90,8|0,0:0|0:0,0:0:0:0:
320,136,69599,1,0,0:0:0:0:
320,136,69764,6,0,P|272:148|224:144,1,90,2|0,0:0|0:0,0:0:0:0:
264,48,70093,1,2,0:0:0:0:
216,224,70258,2,0,P|184:260|140:280,1,90,0|0,0:0|0:0,0:0:0:0:
96,80,70588,2,0,P|128:44|172:24,1,90,8|2,0:0|0:0,0:0:0:0:
188,124,70918,1,0,0:0:0:0:
188,124,71082,1,0,0:0:0:0:
224,312,71247,6,0,P|228:264|216:220,1,90,2|0,0:0|0:0,0:0:0:0:
128,264,71577,2,0,P|98:225|60:200,1,90,2|0,0:0|0:0,0:0:0:0:
292,364,71907,2,0,L|412:344,1,90,8|0,0:0|0:0,0:0:0:0:
432,184,72236,1,0,0:0:0:0:
432,184,72401,6,0,P|408:222|397:273,1,90,2|0,0:0|0:0,0:0:0:0:
272,256,72731,1,2,0:0:0:0:
272,256,72896,2,0,P|256:208|260:160,1,90,2|0,0:0|0:0,0:0:0:0:
360,40,73225,2,0,P|332:76|288:104,1,90,8|2,0:0|0:0,0:0:0:0:
272,12,73555,1,8,0:0:0:0:
416,108,73720,1,8,0:0:0:0:
256,168,73885,6,0,P|212:176|164:168,1,90,4|0,0:0|0:0,0:0:0:0:
16,224,74214,2,0,P|60:216|108:224,1,90,2|0,0:0|0:0,0:0:0:0:
260,352,74544,2,0,P|223:326|194:286,1,90,8|0,0:0|0:0,0:0:0:0:
352,304,74874,1,0,0:0:0:0:
352,304,75039,6,0,L|400:224,1,90,2|0,0:0|0:0,0:0:0:0:
316,88,75368,1,2,0:0:0:0:
316,88,75533,2,0,P|316:136|340:188,1,90
480,256,75863,2,0,P|480:208|456:156,1,90,8|2,0:0|0:0,0:0:0:0:
216,184,76192,2,0,P|248:224|288:244,1,90
424,80,76522,6,0,P|364:12|272:4,1,180,2|2,0:0|0:0,0:0:0:0:
200,96,77017,1,0,0:0:0:0:
200,96,77181,2,0,P|160:112|108:112,1,90,8|0,0:0|0:0,0:0:0:0:
24,24,77511,1,0,0:0:0:0:
36,208,77676,6,0,P|18:159|20:116,1,90,2|0,0:0|0:0,0:0:0:0:
140,28,78006,1,2,0:0:0:0:
140,28,78170,2,0,P|130:79|108:116,1,90,2|0,0:0|0:0,0:0:0:0:
128,228,78500,2,0,P|181:240|217:264,1,90,8|0,0:0|0:0,0:0:0:0:
368,316,78830,2,0,P|321:288|294:254,1,90,2|0,0:0|0:0,0:0:0:0:
248,76,79159,6,0,L|240:176,1,90,4|0,0:0|0:0,0:0:0:0:
420,160,79489,2,0,L|428:60,1,90,2|0,0:0|0:0,0:0:0:0:
300,264,79819,2,0,P|338:286|382:294,1,90,8|0,0:0|0:0,0:0:0:0:
220,336,80148,1,0,0:0:0:0:
220,336,80313,2,0,P|181:313|137:305,1,90,2|0,0:0|0:0,0:0:0:0:
0,368,80643,5,2,0:0:0:0:
0,368,80808,2,0,L|-8:272,1,90
124,136,81137,2,0,B|112:180|112:180|84:216,1,90,8|2,0:0|0:0,0:0:0:0:
20,128,81467,1,0,0:0:0:0:
20,128,81632,1,0,0:0:0:0:
188,208,81797,6,0,P|224:204|280:172,1,90,2|0,0:0|0:0,0:0:0:0:
232,24,82126,2,0,P|214:55|207:119,1,90,2|0,0:0|0:0,0:0:0:0:
336,248,82456,2,0,P|353:216|360:152,2,90,8|0|0,0:0|0:0|0:0,0:0:0:0:
200,300,82951,2,0,L|100:324,1,90,2|0,0:0|0:0,0:0:0:0:
312,360,83280,1,2,0:0:0:0:
312,360,83445,2,0,P|356:380|412:384,1,90,0|2,0:0|0:0,0:0:0:0:
436,360,83692,5,0,0:0:0:0:
436,360,83775,2,0,L|456:252,1,90,8|2,0:0|0:0,0:0:0:0:
476,88,84104,1,8,0:0:0:0:
136,264,84434,6,0,P|121:223|124:148,1,107.999996704102,2|0,0:0|0:0,0:0:0:0:
256,32,85093,2,0,B|260:76|260:76|240:152,1,107.999996704102,8|0,0:0|0:0,0:0:0:0:
236,228,85588,2,0,B|263:247|263:247|270:286|311:325,1,107.999996704102,8|0,0:0|0:0,0:0:0:0:
380,320,86082,1,0,0:0:0:0:
512,304,86247,1,0,0:0:0:0:
452,360,86412,1,2,0:0:0:0:
440,260,86577,5,2,0:0:0:0:
440,260,86659,1,0,0:0:0:0:
440,260,86742,2,0,L|432:176,1,80.9999975280763,2|0,0:0|0:0,0:0:0:0:
392,112,87071,6,0,L|412:329,1,215.999993408203,4|2,0:0|0:0,0:0:0:0:
292,376,87566,1,0,0:0:0:0:
168,200,87731,2,0,L|156:80,1,107.999996704102,8|2,0:0|0:0,0:0:0:0:
252,4,88060,1,0,0:0:0:0:
272,268,88225,6,0,P|188:328|80:288,1,215.999993408203,2|2,0:0|0:0,0:0:0:0:
52,104,88720,2,0,P|108:87|159:95,1,107.999996704102,2|0,0:0|0:0,0:0:0:0:
452,264,89049,2,0,P|395:280|344:272,1,107.999996704102,8|0,0:0|0:0,0:0:0:0:
252,4,89379,2,0,L|264:128,1,107.999996704102,2|0,0:0|0:0,0:0:0:0:
144,372,89709,6,0,B|120:328|136:272|136:272|148:208|108:156,1,215.999993408203,6|2,0:0|0:0,0:0:0:0:
8,240,90203,1,0,0:0:0:0:
240,336,90368,2,0,P|300:296|316:264,1,107.999996704102,8|2,0:0|0:0,0:0:0:0:
340,136,90698,1,0,0:0:0:0:
496,324,90863,2,0,P|428:256|311:268,1,215.999993408203,2|2,0:0|0:0,0:0:0:0:
96,328,91357,2,0,P|136:288|156:232,1,107.999996704102,2|2,0:0|0:0,0:0:0:0:
156,160,91604,5,0,0:0:0:0:
156,160,91687,2,0,L|156:52,1,107.999996704102,8|2,0:0|0:0,0:0:0:0:
256,156,92017,1,8,0:0:0:0:
56,232,92181,1,8,0:0:0:0:
280,272,92346,6,0,B|328:256|328:256|380:268|380:268|432:236|496:248,1,215.999993408203,4|2,0:0|0:0,0:0:0:0:
332,360,92841,1,0,0:0:0:0:
244,200,93006,2,0,P|240:144|260:88,1,107.999996704102,8|2,0:0|0:0,0:0:0:0:
384,84,93335,1,0,0:0:0:0:
204,272,93500,2,0,P|133:248|67:122,1,215.999993408203,2|2,0:0|0:0,0:0:0:0:
276,204,93995,2,0,B|297:250|297:250|303:307,1,107.999996704102,2|0,0:0|0:0,0:0:0:0:
196,140,94324,2,0,B|173:92|173:92|167:35,1,107.999996704102,8|0,0:0|0:0,0:0:0:0:
400,40,94654,2,0,P|377:92|324:135,1,107.999996704102,2|0,0:0|0:0,0:0:0:0:
84,132,94984,6,0,P|154:38|252:52,1,215.999993408203,4|2,0:0|0:0,0:0:0:0:
336,272,95478,2,0,P|238:236|196:140,1,215.999993408203,0|2,0:0|0:0,0:0:0:0:
404,196,95973,2,0,L|428:312,1,107.999996704102,0|2,0:0|0:0,0:0:0:0:
192,316,96302,2,0,L|213:210,1,107.999996704102,0|2,0:0|0:0,0:0:0:0:
292,380,96632,1,0,0:0:0:0:
88,356,96797,5,2,0:0:0:0:
64,328,96879,1,0,0:0:0:0:
44,296,96962,2,0,L|36:228,3,53.9999983520508,8|0|0|0,0:0|0:0|0:0|0:0,0:0:0:0:
72,164,97291,2,0,L|176:124,1,107.999996704102,8|0,0:0|0:0,0:0:0:0:
479,223,97621,6,0,B|413:256|413:256|347:264|347:264|268:303,1,215.999993408203,4|2,0:0|0:0,0:0:0:0:
152,296,98115,1,0,0:0:0:0:
324,188,98280,2,0,P|349:136|343:78,1,107.999996704102,8|2,0:0|0:0,0:0:0:0:
240,32,98610,1,0,0:0:0:0:
152,296,98775,2,0,B|114:236|125:164|125:164|94:123|92:85,1,215.999993408203,2|2,0:0|0:0,0:0:0:0:
240,32,99269,2,0,P|255:83|243:136,1,107.999996704102,2|0,0:0|0:0,0:0:0:0:
40,288,99599,2,0,L|156:256,1,107.999996704102,8|0,0:0|0:0,0:0:0:0:
472,288,99929,2,0,L|356:256,1,107.999996704102,2|0,0:0|0:0,0:0:0:0:
80,364,100258,6,0,P|184:364|248:272,1,215.999993408203,4|2,0:0|0:0,0:0:0:0:
256,152,100753,1,0,0:0:0:0:
452,180,100918,2,0,P|402:214|353:220,1,107.999996704102,8|2,0:0|0:0,0:0:0:0:
240,64,101247,1,0,0:0:0:0:
68,244,101412,2,0,P|148:192|148:72,1,215.999993408203,2|2,0:0|0:0,0:0:0:0:
40,264,101907,2,0,P|72:306|120:336,1,107.999996704102,2|2,0:0|0:0,0:0:0:0:
204,336,102154,5,0,0:0:0:0:
204,336,102236,2,0,L|316:336,1,107.999996704102,8|2,0:0|0:0,0:0:0:0:
376,204,102566,1,8,0:0:0:0:
156,164,102731,1,8,0:0:0:0:
272,24,102896,6,0,B|296:60|296:60|300:116|248:164|248:164|276:224,1,215.999993408203,4|2,0:0|0:0,0:0:0:0:
356,324,103390,1,0,0:0:0:0:
496,184,103555,2,0,P|446:149|397:143,1,107.999996704102,8|2,0:0|0:0,0:0:0:0:
272,212,103885,1,0,0:0:0:0:
92,144,104049,2,0,P|147:177|183:316,1,215.999993408203,2|2,0:0|0:0,0:0:0:0:
48,356,104544,2,0,P|16:312|0:256,1,107.999996704102,2|0,0:0|0:0,0:0:0:0:
208,168,104874,2,0,P|186:215|145:251,1,107.999996704102,8|0,0:0|0:0,0:3:0:0:
196,36,105203,2,0,P|247:36|296:63,1,107.999996704102,2|0,0:0|0:0,0:0:0:0:
368,348,105533,6,0,P|284:281|269:178,1,215.999993408203,4|2,0:0|0:0,0:0:0:0:
412,24,106028,2,0,P|496:91|511:194,1,215.999993408203,0|2,0:0|0:0,0:0:0:0:
368,348,106522,2,0,L|252:356,1,107.999996704102,0|2,0:0|0:0,0:0:0:0:
80,176,106852,6,0,L|100:284,1,107.999996704102,0|2,0:0|0:0,0:0:0:0:
196,92,107181,1,0,0:0:0:0:
336,204,107346,1,2,0:0:0:0:
336,204,107429,1,0,0:0:0:0:
336,204,107511,2,0,L|324:144,3,53.9999983520508,8|0|0|0,0:0|0:0|0:0|0:0,0:0:0:0:
304,72,107841,2,0,P|264:36|200:20,1,107.999996704102,8|0,0:0|0:0,0:0:0:0:
100,224,108170,6,0,B|228:305|286:153|412:224,1,323.999990112305,4|0,0:1|0:0,0:3:0:0:
344,316,109489,1,0,0:0:0:0:
200,16,110148,1,8,0:0:0:0:
220,24,110808,6,0,P|204:100|88:160,1,215.999993408203,4|0,0:1|0:0,0:0:0:0:
112,48,111797,1,0,0:0:0:0:
112,48,112126,2,0,L|188:136,1,107.999996704102
296,208,112621,5,0,0:0:0:0:
296,208,112703,1,0,0:0:0:0:
296,208,112786,2,0,P|340:196|372:160,1,90,8|0,0:0|0:0,0:0:0:0:
448,256,113115,2,0,P|392:265|328:328,1,135
260,332,113445,6,0,B|216:293|216:293|192:245,1,107.999996704102,4|2,0:1|0:0,0:0:0:0:
184,120,113775,1,0,0:0:0:0:
96,228,113940,1,0,0:0:0:0:
96,228,114022,1,0,0:0:0:0:
96,228,114104,2,0,P|39:211|3:175,1,107.999996704102,8|0,0:0|0:0,0:0:0:0:
12,104,114352,2,0,P|67:86|117:97,1,107.999996704102,2|0,0:0|0:0,0:0:0:0:
184,120,114599,2,0,B|236:132|236:132|292:120,1,107.999996704102,2|4,0:0|2:0,0:0:0:0:
396,24,114929,5,0,0:0:0:0:
396,24,115011,1,0,0:0:0:0:
396,24,115093,2,0,P|429:71|434:122,1,107.999996704102,2|0,0:0|0:0,0:0:0:0:
312,232,115423,1,8,0:0:0:0:
312,232,115506,1,0,0:0:0:0:
312,232,115588,1,0,0:0:0:0:
312,232,115670,1,0,0:0:0:0:
312,232,115753,2,0,P|351:194|403:192,1,107.999996704102,2|0,0:0|0:0,0:0:0:0:
261,313,116082,6,0,L|176:385,1,107.999996704102,4|2,0:0|0:0,0:0:0:0:
228,172,116412,1,0,0:0:0:0:
136,280,116577,1,0,0:0:0:0:
136,280,116659,1,0,0:0:0:0:
136,280,116742,2,0,L|51:352,1,107.999996704102,8|0,0:0|0:0,0:0:0:0:
76,200,116989,2,0,P|84:136|72:96,1,107.999996704102,2|0,0:0|0:0,0:0:0:0:
168,160,117236,2,0,P|200:104|200:44,1,107.999996704102,2|4,0:0|2:0,0:0:0:0:
344,24,117566,5,0,0:0:0:0:
344,24,117648,1,0,0:0:0:0:
344,24,117731,2,0,L|368:136,1,107.999996704102,2|0,0:0|0:0,0:0:0:0:
396,304,118060,1,8,0:0:0:0:
476,152,118225,1,0,0:0:0:0:
476,152,118308,1,0,0:0:0:0:
476,152,118390,1,8,0:0:0:0:
324,248,118555,1,8,0:0:0:0:
496,332,118720,6,0,B|456:288|456:288|404:264,1,107.999996704102,4|2,0:0|0:0,0:0:0:0:
216,220,119049,1,0,0:0:0:0:
296,352,119214,1,0,0:0:0:0:
296,352,119297,1,0,0:0:0:0:
296,352,119379,2,0,P|243:376|181:370,1,107.999996704102,8|0,0:0|0:0,0:0:0:0:
120,320,119626,2,0,P|96:272|48:240,1,107.999996704102,2|0,0:0|0:0,0:0:0:0:
12,160,119874,2,0,L|56:56,1,107.999996704102,2|4,0:0|2:0,0:0:0:0:
228,60,120203,5,0,0:0:0:0:
228,60,120286,1,0,0:0:0:0:
228,60,120368,2,0,L|270:159,1,107.999996704102,2|0,0:0|0:0,0:0:0:0:
456,272,120698,1,8,0:0:0:0:
464,248,120780,1,0,0:0:0:0:
468,220,120863,1,0,0:0:0:0:
460,192,120945,1,0,0:0:0:0:
444,168,121028,2,0,P|416:124|408:68,1,107.999996704102,2|0,0:0|0:0,0:0:0:0:
444,296,121357,6,0,P|400:328|348:336,1,107.999996704102,4|2,0:0|0:0,0:0:0:0:
248,224,121687,1,0,0:0:0:0:
240,364,121852,1,0,0:0:0:0:
240,364,121934,1,0,0:0:0:0:
240,364,122017,2,0,B|184:352|184:352|144:308,1,107.999996704102,8|0,0:0|0:0,0:0:0:0:
288,256,122264,2,0,B|334:222|334:222|352:165,1,107.999996704102,2|0,0:0|0:0,0:0:0:0:
176,172,122511,2,0,B|144:123|144:123|147:64,1,107.999996704102,2|4,0:0|2:0,0:0:0:0:
256,32,122841,5,0,0:0:0:0:
256,32,122923,1,0,0:0:0:0:
256,32,123006,2,0,P|272:92|264:136,1,107.999996704102,2|0,0:0|0:0,0:0:0:0:
128,264,123335,6,0,L|128:174,1,90,8|0,0:0|0:0,0:0:0:0:
384,96,123665,2,0,L|384:195,1,99.0000030212403,4|0,0:0|0:0,0:0:0:0:
256,352,123995,6,0,P|240:292|248:248,1,107.999996704102,4|2,0:0|0:0,0:0:0:0:
344,368,124324,1,0,0:0:0:0:
440,256,124489,1,0,0:0:0:0:
440,256,124571,1,0,0:0:0:0:
440,256,124654,2,0,L|336:288,1,107.999996704102,8|0,0:0|0:0,0:0:0:0:
256,352,124901,2,0,P|200:344|156:312,1,107.999996704102,2|0,0:0|0:0,0:0:0:0:
80,248,125148,2,0,L|40:376,1,107.999996704102,2|4,0:0|2:0,0:0:0:0:
172,220,125478,5,0,0:0:0:0:
172,220,125560,1,0,0:0:0:0:
172,220,125643,2,0,P|164:160|136:120,1,107.999996704102,2|0,0:0|0:0,0:0:0:0:
28,100,125973,2,0,L|52:160,1,53.9999983520508,8|0,0:0|0:0,0:0:0:0:
108,44,126137,2,0,L|144:4,1,53.9999983520508
204,88,126302,2,0,P|260:100|312:88,1,107.999996704102,2|0,0:0|0:0,0:0:0:0:
500,148,126632,6,0,P|448:173|416:215,1,107.999996704102,4|2,0:0|0:0,0:0:0:0:
408,368,126962,1,0,0:0:0:0:
328,244,127126,1,0,0:0:0:0:
328,244,127209,1,0,0:0:0:0:
328,244,127291,2,0,P|297:200|296:136,1,107.999996704102,8|0,0:0|0:0,0:0:0:0:
216,240,127539,2,0,P|180:284|132:296,1,107.999996704102,2|0,0:0|0:0,0:0:0:0:
272,308,127786,2,0,P|325:328|372:314,1,107.999996704102,2|4,0:0|2:0,0:0:0:0:
388,160,128115,5,0,0:0:0:0:
388,160,128198,1,0,0:0:0:0:
388,160,128280,2,0,P|340:208|328:252,1,107.999996704102,2|0,0:0|0:0,0:0:0:0:
160,328,128610,2,0,P|173:276|161:224,1,107.999996704102,8|0,0:0|0:0,0:0:0:0:
32,132,128940,1,8,0:0:0:0:
160,208,129104,1,8,0:0:0:0:
24,356,129269,6,0,P|55:302|108:268,1,107.999996704102,4|2,0:0|0:0,0:0:0:0:
240,308,129599,1,0,0:0:0:0:
196,144,129764,1,0,0:0:0:0:
196,144,129846,1,0,0:0:0:0:
196,144,129929,2,0,P|241:133|297:154,1,107.999996704102,8|0,0:0|0:0,0:0:0:0:
340,236,130176,2,0,P|294:246|238:225,1,107.999996704102,2|0,0:0|0:0,0:0:0:0:
384,160,130423,2,0,B|426:196|426:196|440:248,1,107.999996704102,2|4,0:0|2:0,0:0:0:0:
308,116,130753,5,0,0:0:0:0:
308,116,130835,1,0,0:0:0:0:
308,116,130918,2,0,L|344:4,1,107.999996704102,2|0,0:0|0:0,0:0:0:0:
348,232,131247,2,0,L|328:284,1,53.9999983520508,8|0,0:0|0:0,0:0:0:0:
252,312,131412,2,0,L|228:368,1,53.9999983520508
148,352,131577,2,0,P|88:352|48:324,1,107.999996704102,2|0,0:0|0:0,0:0:0:0:
112,156,131907,6,0,L|116:264,1,107.999996704102,4|2,0:0|0:0,0:0:0:0:
208,164,132236,1,0,0:0:0:0:
24,116,132401,1,0,0:0:0:0:
24,116,132484,1,0,0:0:0:0:
24,116,132566,2,0,P|56:72|112:56,1,107.999996704102,8|0,0:0|0:0,0:0:0:0:
188,80,132813,2,0,P|241:79|283:47,1,107.999996704102,2|0,0:0|0:0,0:0:0:0:
368,56,133060,2,0,L|378:179,1,107.999996704102,2|4,0:0|2:0,0:0:0:0:
448,333,133390,5,0,0:0:0:0:
448,333,133473,1,0,0:0:0:0:
448,333,133555,2,0,L|459:220,1,107.999996704102,2|0,0:0|0:0,0:0:0:0:
240,340,133885,6,0,P|296:320|356:328,1,90,8|0,0:0|0:0,0:0:0:0:
272,44,134214,2,0,P|216:64|156:56,1,99.0000030212403,4|0,0:0|0:0,0:0:0:0:
256,192,134544,6,0,P|266:215|268:240,3,45,4|0|0|0,0:0|0:0|0:0|0:0,0:0:0:0:
192,232,134874,2,0,P|169:229|148:222,3,45,2|0|0|0,0:0|0:0|0:0|0:0,0:0:0:0:
184,152,135203,2,0,P|138:144|92:161,1,90,8|0,0:0|2:0,0:0:0:0:
48,320,135533,1,2,0:0:0:0:
48,320,135698,2,0,L|20:232,1,90,2|0,0:0|2:0,0:0:0:0:
152,324,136028,1,2,0:0:0:0:
152,324,136192,2,0,P|204:320|248:296,1,90,2|0,0:0|2:0,0:0:0:0:
328,124,136522,2,0,P|290:159|271:206,1,90,8|2,0:0|0:0,0:0:0:0:
424,348,136852,2,0,P|461:312|480:265,1,90,2|0,3:0|2:0,0:0:0:0:
464,56,137181,6,0,L|464:108,3,45,2|0|0|0,0:0|0:0|0:0|0:0,0:0:0:0:
384,64,137511,2,0,L|368:112,3,45,2|0|0|0,0:0|0:0|0:0|0:0,0:0:0:0:
304,44,137841,2,0,L|236:112,1,90,8|0,0:0|2:0,0:0:0:0:
180,272,138170,1,2,0:0:0:0:
180,272,138335,2,0,L|248:204,1,90,2|0,0:0|2:0,0:0:0:0:
136,80,138665,1,2,0:0:0:0:
136,80,138830,2,0,P|132:132|144:176,1,90,2|0,0:0|2:0,0:0:0:0:
232,348,139159,5,8,0:0:0:0:
88,252,139324,1,2,0:0:0:0:
224,144,139489,2,0,P|252:112|272:60,1,90,8|0,0:0|2:0,0:0:0:0:
468,232,139819,6,0,P|472:256|472:276,3,45,4|0|0|0,0:0|0:0|0:0|0:0,0:0:0:0:
392,260,140148,2,0,P|380:281|367:296,3,45,2|0|0|0,0:0|0:0|0:0|0:0,0:0:0:0:
316,228,140478,2,0,P|333:186|362:152,1,90,8|0,0:0|2:0,0:0:0:0:
448,344,140808,1,2,0:0:0:0:
448,344,140973,2,0,P|408:368|360:372,1,90,2|0,0:0|2:0,0:0:0:0:
200,276,141302,1,2,0:0:0:0:
200,276,141467,2,0,L|312:308,1,90,2|0,0:0|2:0,0:0:0:0:
124,372,141797,2,0,P|100:332|92:288,1,90,8|2,0:0|0:0,0:0:0:0:
136,76,142126,2,0,P|160:116|168:160,1,90,2|0,3:0|2:0,0:0:0:0:
16,160,142456,6,0,L|64:144,3,45,2|0|0|0,0:0|0:0|0:0|0:0,0:0:0:0:
64,244,142786,2,0,L|112:228,3,45,2|0|0|0,0:0|0:0|0:0|0:0,0:0:0:0:
144,320,143115,2,0,L|228:288,1,90,8|0,0:0|2:0,0:0:0:0:
348,260,143445,1,2,0:0:0:0:
348,260,143610,2,0,P|348:312|364:352,1,90,2|0,0:0|2:0,0:0:0:0:
464,164,143940,1,2,0:0:0:0:
464,164,144022,1,0,0:0:0:0:
464,164,144104,2,0,P|464:112|448:72,1,90,2|0,0:0|2:0,0:0:0:0:
448,264,144434,5,8,0:0:0:0:
336,120,144599,1,2,0:0:0:0:
243,276,144764,1,8,0:0:0:0:
224,264,144846,1,0,0:0:0:0:
208,248,144929,1,8,0:0:0:0:
196,228,145011,1,0,0:0:0:0:
188,204,145093,6,0,P|179:156|181:111,1,90,4|2,0:0|0:0,0:0:0:0:
48,40,145423,1,2,0:0:0:0:
48,40,145588,2,0,P|42:85|20:152,1,90,8|0,0:0|0:0,0:0:0:0:
92,272,145918,1,2,0:0:0:0:
124,180,146082,5,2,0:0:0:0:
0,312,146247,1,2,0:0:0:0:
16,208,146412,1,2,0:0:0:0:
128,360,146577,2,0,P|180:361|231:334,1,90,8|0,0:0|0:0,0:0:0:0:
332,220,146907,1,2,0:0:0:0:
332,220,147071,2,0,L|368:328,1,90,8|2,0:0|0:0,0:0:0:0:
188,144,147401,2,0,L|152:36,1,90,2|0,0:0|0:0,0:0:0:0:
368,44,147731,5,2,0:0:0:0:
292,120,147896,1,2,0:0:0:0:
332,220,148060,1,2,0:0:0:0:
244,284,148225,2,0,P|196:300|152:296,1,90,8|0,0:0|0:0,0:0:0:0:
336,152,148555,1,2,0:0:0:0:
336,152,148720,6,0,P|380:164|428:208,1,90,2|2,0:0|0:0,0:0:0:0:
468,376,149049,1,2,0:0:0:0:
368,328,149214,2,0,P|348:280|348:220,1,90,8|0,0:0|0:0,0:0:0:0:
388,104,149544,1,2,0:0:0:0:
260,168,149709,6,0,P|208:184|160:180,1,90,8|8,0:0|0:0,0:0:0:0:
148,172,149956,1,0,0:0:0:0:
148,172,150039,2,0,L|140:124,1,45,8|0,0:0|0:0,0:0:0:0:
56,92,150203,2,0,L|63:136,1,45,8|0,0:0|0:0,0:0:0:0:
40,244,150368,6,0,L|28:154,1,90,4|2,0:0|0:0,0:0:0:0:
144,28,150698,1,2,0:0:0:0:
144,28,150863,2,0,P|192:44|240:40,1,90,8|0,0:0|0:0,0:0:0:0:
332,28,151192,1,2,0:0:0:0:
340,200,151357,5,2,0:0:0:0:
456,96,151522,1,2,0:0:0:0:
448,208,151687,1,2,0:0:0:0:
340,84,151852,2,0,P|291:81|243:110,1,90,8|0,0:0|0:0,0:0:0:0:
192,284,152181,1,2,0:0:0:0:
192,284,152346,2,0,L|164:192,1,90,8|2,0:0|0:0,0:0:0:0:
288,296,152676,2,0,P|332:284|380:288,1,90,2|2,0:0|0:0,0:0:0:0:
512,248,153006,5,2,0:0:0:0:
364,364,153170,1,2,0:0:0:0:
260,180,153335,1,2,0:0:0:0:
152,376,153500,2,0,P|108:336|92:292,1,90,8|0,0:0|0:0,0:0:0:0:
128,120,153830,1,2,0:0:0:0:
184,220,153995,1,8,0:0:0:0:
32,196,154159,5,2,0:0:0:0:
32,196,154242,1,0,0:0:0:0:
32,196,154324,2,0,P|7:154|1:104,1,90,8|2,0:0|0:0,0:0:0:0:
128,120,154654,1,2,0:0:0:0:
96,304,154819,1,8,0:0:0:0:
184,220,154984,5,0,0:0:0:0:
184,220,155066,1,0,0:0:0:0:
184,220,155148,2,0,L|216:176,1,45,2|0,0:0|0:0,0:0:0:0:
256,120,155313,1,8,0:0:0:0:
128,292,155478,1,8,0:0:0:0:
48,100,155643,6,0,P|31:146|32:196,1,99.0000030212403,4|2,0:0|0:0,0:0:0:0:
260,352,155973,2,0,P|276:305|276:256,1,99.0000030212403,8|2,0:0|0:0,0:0:0:0:
164,40,156302,2,0,L|204:152,1,99.0000030212403,8|2,0:0|0:0,0:0:0:0:
364,172,156632,1,2,0:0:0:0:
288,64,156797,1,2,0:0:0:0:
276,256,156962,2,0,P|232:288|172:292,1,99.0000030212403,8|2,0:0|0:0,0:0:0:0:
156,288,157209,1,0,0:0:0:0:
156,288,157291,1,8,0:0:0:0:
272,168,157456,1,8,0:0:0:0:
380,312,157621,6,0,P|432:320|484:312,1,99.0000030212403,4|2,0:0|0:0,0:0:0:0:
476,88,157951,2,0,P|424:80|372:88,1,99.0000030212403,8|2,0:0|0:0,0:0:0:0:
192,224,158280,2,0,P|220:184|232:132,1,99.0000030212403,8|2,0:0|0:0,0:0:0:0:
160,80,158528,5,0,0:0:0:0:
160,80,158610,2,0,L|148:144,3,49.5000015106202,8|0|0|0,0:0|0:0|0:0|0:0,0:0:0:0:
84,172,158940,1,4,0:3:0:0:
76,208,159022,1,0,0:0:0:0:
68,240,159104,1,0,0:0:0:0:
60,276,159187,1,0,0:0:0:0:
52,308,159269,2,0,P|76:352|120:376,1,99.0000030212403,8|2,0:0|0:0,0:0:0:0:
304,256,159599,6,0,P|261:229|211:231,1,99.0000030212403,4|2,0:0|0:0,0:0:0:0:
368,364,159929,2,0,B|409:327|409:327|429:266,1,99.0000030212403,8|2,0:0|0:0,0:0:0:0:
388,204,160176,1,0,0:0:0:0:
388,204,160258,2,0,L|388:84,1,99.0000030212403,8|2,0:0|0:0,0:0:0:0:
464,56,160506,5,0,0:0:0:0:
464,56,160588,2,0,L|464:108,1,49.5000015106202,8|0,0:0|0:0,0:0:0:0:
312,132,160753,2,0,L|312:80,1,49.5000015106202,8|0,0:0|0:0,0:0:0:0:
388,204,160918,6,0,P|380:260|360:296,1,99.0000030212403,4|2,0:0|0:0,0:0:0:0:
152,240,161247,2,0,P|200:224|272:224,1,99.0000030212403,8|2,0:0|0:0,0:0:0:0:
424,364,161577,2,0,P|376:380|304:380,1,99.0000030212403,8|2,0:0|0:0,0:0:0:0:
188,316,161907,1,2,0:0:0:0:
68,384,162071,1,2,0:0:0:0:
12,240,162236,6,0,L|0:140,1,99.0000030212403,8|2,0:0|0:0,0:0:0:0:
8,104,162484,1,0,0:0:0:0:
8,104,162566,1,8,0:0:0:0:
148,16,162731,1,8,0:0:0:0:
256,156,162896,6,0,P|216:184|156:192,1,99.0000030212403,4|2,0:0|0:0,0:0:0:0:
316,60,163225,2,0,L|424:60,1,99.0000030212403,0|2,0:0|0:0,0:0:0:0:
480,152,163473,1,0,0:0:0:0:
480,152,163555,2,0,L|381:152,1,99.0000030212403,8|2,0:0|0:0,0:0:0:0:
316,244,163802,1,0,0:0:0:0:
316,244,163885,2,0,L|415:244,1,99.0000030212403,8|2,0:0|0:0,0:0:0:0:
304,336,164132,5,0,0:0:0:0:
304,336,164214,2,0,L|205:336,1,99.0000030212403,8|2,0:0|0:0,0:0:0:0:
112,264,164462,1,0,0:0:0:0:
112,264,164544,2,0,P|92:216|100:156,1,99.0000030212403,8|2,0:0|0:0,0:0:0:0:
216,32,164874,6,0,L|200:80,3,49.5000015106202,8|0|0|0,0:0|0:0|0:0|0:0,0:0:0:0:
288,104,165203,2,0,L|303:150,3,49.5000015106202,8|0|0|0,0:0|0:0|0:0|0:0,0:0:0:0:
216,192,165533,2,0,L|200:244,1,49.5000015106202,4|0,0:3|0:0,0:0:0:0:
284,268,165698,2,0,L|294:316,1,49.5000015106202,2|0,0:0|0:0,0:0:0:0:
400,188,165863,2,0,P|396:244|372:292,1,99.0000030212403,8|2,0:0|0:0,0:0:0:0:
72,312,166192,6,0,P|40:220|60:140,1,180,4|0,0:0|2:0,2:0:0:0:
312,40,166687,1,2,0:0:0:0:
312,40,166769,1,0,0:0:0:0:
312,40,166852,2,0,P|344:132|324:212,1,180,8|0,0:0|2:0,2:0:0:0:
140,376,167346,5,2,0:0:0:0:
140,376,167429,1,0,0:0:0:0:
140,376,167511,2,0,P|212:328|300:352,1,180,8|0,0:0|2:0,2:0:0:0:
432,116,168006,1,2,0:0:0:0:
432,116,168088,1,0,0:0:0:0:
432,116,168170,2,0,P|360:164|272:140,1,180,8|0,0:0|2:0,2:0:0:0:
144,80,168665,5,2,0:0:0:0:
144,80,168747,1,0,0:0:0:0:
144,80,168830,2,0,L|116:180,1,90,8|2,0:0|0:0,0:0:0:0:
112,324,169159,1,8,0:0:0:0:
140,304,169242,1,0,0:0:0:0:
176,296,169324,1,0,0:0:0:0:
212,296,169407,1,0,0:0:0:0:
244,312,169489,2,0,P|296:328|344:324,1,90,2|2,0:0|0:0,0:0:0:0:
420,296,169736,5,0,0:0:0:0:
420,296,169819,2,0,L|392:396,1,90,8|2,0:0|0:0,0:0:0:0:
348,236,170066,1,0,0:0:0:0:
348,236,170148,2,0,B|340:180|340:180|352:124,1,90,8|2,0:0|0:0,0:0:0:0:
384,68,170396,1,0,0:0:0:0:
384,68,170478,2,0,P|344:104|296:112,1,90,8|2,0:0|0:0,0:0:0:0:
228,80,170725,5,0,0:0:0:0:
228,80,170808,2,0,L|224:36,5,30,8|0|0|0|0|0,0:0|0:0|0:0|0:0|0:0|0:0,0:0:0:0:
208,160,171137,2,0,L|176:248,1,90,8|0,0:0|0:0,0:0:0:0:
60,364,171467,5,4,0:0:0:0:
216,328,171632,1,2,0:0:0:0:
92,212,171797,1,2,0:0:0:0:
164,72,171962,1,8,0:0:0:0:
276,216,172126,2,0,P|331:213|379:191,1,99.0000030212403,2|0,0:0|0:0,0:0:0:0:
304,76,172456,5,4,0:0:0:0:
200,268,172621,1,2,0:0:0:0:
416,268,172786,1,2,0:0:0:0:
304,196,172951,1,8,0:0:0:0:
228,360,173115,2,0,P|173:357|125:335,1,99.0000030212403,2|0,0:0|0:0,0:0:0:0:
132,148,173445,5,4,0:0:0:0:
284,288,173610,1,2,0:0:0:0:
104,256,173775,1,2,0:0:0:0:
312,180,173940,1,4,0:0:0:0:
178,62,174104,2,0,P|148:101|132:148,1,99.0000030212403,2|0,0:0|0:0,0:0:0:0:
312,180,174434,5,8,0:0:0:0:
284,40,174599,1,2,0:0:0:0:
208,268,174764,1,2,0:0:0:0:
444,208,174929,1,4,0:0:0:0:
312,180,175093,1,2,0:0:0:0:
312,180,175176,1,0,0:0:0:0:
312,180,175258,1,0,0:0:0:0:
208,268,175423,6,0,L|238:316,1,49.5000015106202,8|0,0:0|0:0,0:0:0:0:
344,336,175588,2,0,L|317:294,1,49.5000015106202,2|0,0:0|0:0,0:0:0:0:
272,380,175753,1,8,0:0:0:0:
376,232,175918,1,8,0:0:0:0:
200,176,176082,2,0,L|152:209,2,49.5000015106202,2|0|8,2:0|2:0|2:0,0:0:0:0:
263,57,176412,5,10,0:0:0:0:
288,72,176495,1,8,0:0:0:0:
316,97,176577,1,8,0:0:0:0:
329,128,176659,1,8,0:0:0:0:
336,162,176742,1,4,0:0:0:0:
256,192,176824,12,0,182017,0:0:0:0:
256,192,197181,5,4,0:0:0:0:
116,132,197841,5,4,0:0:0:0:
116,132,198170,1,4,0:0:0:0:
192,72,198500,6,0,P|231:103|264:172,1,107.999996704102,2|0,0:0|0:0,0:0:0:0:
183,212,198995,2,0,P|141:179|116:132,1,107.999996704102,2|0,0:0|0:0,0:0:0:0:
64,64,199489,2,0,P|40:92|36:164,1,107.999996704102,0|0,0:0|0:0,0:0:0:0:
136,328,200148,1,2,0:0:0:0:
176,328,200478,6,0,L|236:308,1,53.9999983520508,2|0,0:0|0:0,0:0:0:0:
404,252,200973,2,0,L|344:232,1,53.9999983520508
224,200,201467,2,0,L|284:180,1,53.9999983520508
344,104,201797,6,0,P|372:144|376:208,1,107.999996704102,2|0,0:0|0:0,0:0:0:0:
264,356,202291,2,0,P|236:316|232:252,1,107.999996704102,8|0,0:3|0:0,0:0:0:0:
164,120,202786,2,0,P|152:152|136:176,1,53.9999983520508,4|0,0:3|0:0,0:0:0:0:
56,88,203115,5,4,0:0:0:0:
56,88,203445,1,4,0:0:0:0:
104,240,203775,6,0,B|120:280|88:304|116:352,1,107.999996704102,2|0,0:0|0:0,0:0:0:0:
196,312,204269,2,0,P|240:300|304:320,1,107.999996704102,2|0,0:0|0:0,0:0:0:0:
368,376,204764,2,0,P|408:352|440:292,1,107.999996704102
376,160,205423,1,4,0:0:0:0:
352,192,205753,6,0,P|256:236|160:192,1,215.999993408203,2|0,0:0|0:0,0:0:0:0:
136,160,206742,1,2,0:0:0:0:
256,32,207071,5,8,0:3:0:0:
256,340,207566,1,4,0:3:0:0:
44,192,208060,1,4,0:3:0:0:
116,312,208390,5,4,0:0:0:0:
116,312,208720,1,4,0:0:0:0:
248,248,209049,6,0,P|260:192|248:132,1,107.999996704102,2|0,0:0|0:0,0:0:0:0:
316,88,209544,2,0,P|304:144|316:204,1,107.999996704102,2|0,0:0|0:0,0:0:0:0:
308,288,210039,2,0,P|328:234|371:190,1,107.999996704102
460,320,210698,1,2,0:0:0:0:
444,360,211028,6,0,L|380:376,1,53.9999983520508
204,336,211522,2,0,L|268:352,1,53.9999983520508
220,204,212017,2,0,L|156:220,1,53.9999983520508
116,296,212346,6,0,P|84:272|56:204,1,107.999996704102,2|0,0:0|0:0,0:0:0:0:
128,40,212841,2,0,L|128:156,1,107.999996704102,8|0,0:3|0:0,0:0:0:0:
220,204,213335,2,0,P|240:176|248:156,1,53.9999983520508,4|0,0:3|0:0,0:0:0:0:
256,52,213665,5,4,0:0:0:0:
256,52,213995,1,4,0:0:0:0:
356,144,214324,6,0,P|360:208|336:256,1,107.999996704102,2|0,0:0|0:0,0:0:0:0:
220,292,214819,2,0,P|170:262|141:199,1,107.999996704102,0|0,0:0|0:0,0:0:0:0:
64,264,215313,2,0,P|117:273|159:306,1,107.999996704102,2|0,0:0|0:0,0:0:0:0:
252,376,215973,1,0,0:0:0:0:
256,192,216302,1,4,0:0:0:0:
256,192,217786,12,2,218940,0:0:0:0:
184,80,219434,5,0,0:0:0:0:
308,268,219929,1,2,0:0:0:0:
160,88,220423,1,0,0:0:0:0:
316,304,220918,5,2,0:0:0:0:
260,32,221247,1,2,0:0:0:0:
116,208,221577,5,2,0:0:0:0:
416,228,222071,1,0,0:0:0:0:
144,160,222566,1,2,0:0:0:0:
392,188,223060,1,0,0:0:0:0:
128,104,223555,6,0,L|176:72,1,53.9999983520508,4|0,0:0|0:0,0:0:0:0:
440,36,223885,1,0,0:0:0:0:
72,308,224214,6,0,B|115:332|115:332|162:328|162:328|211:369|283:353,1,215.999993408203,4|2,0:0|0:0,0:0:0:0:
380,280,224709,1,0,0:0:0:0:
220,176,224874,2,0,P|252:132|296:103,1,107.999996704102,8|2,0:0|0:0,0:0:0:0:
428,80,225203,1,0,0:0:0:0:
460,328,225368,6,0,P|471:246|363:175,1,215.999993408203,2|2,0:0|0:0,0:0:0:0:
288,264,225863,2,0,P|284:304|304:372,1,107.999996704102,2|0,0:0|0:0,0:0:0:0:
324,96,226192,2,0,P|299:64|239:26,1,107.999996704102,8|0,0:0|0:0,0:0:0:0:
160,248,226522,2,0,L|180:364,1,107.999996704102,2|0,0:0|0:0,0:0:0:0:
248,164,226852,6,0,P|148:100|52:128,1,215.999993408203,4|2,0:0|0:0,0:0:0:0:
288,264,227346,2,0,P|384:232|444:132,1,215.999993408203,0|2,0:0|0:0,0:0:0:0:
184,252,227841,2,0,L|156:360,1,107.999996704102,0|2,0:0|0:0,0:0:0:0:
328,144,228170,2,0,L|304:32,1,107.999996704102,0|2,0:0|0:0,0:0:0:0:
124,172,228500,1,0,0:0:0:0:
257,370,228665,5,2,0:0:0:0:
292,359,228747,1,0,0:0:0:0:
324,336,228830,2,0,L|350:285,3,53.9999983520508,8|0|0|0,0:0|0:0|0:0|0:0,0:0:0:0:
360,204,229159,2,0,P|324:160|268:144,1,107.999996704102,8|0,0:0|0:0,0:0:0:0:
40,272,229489,6,0,B|101:282|101:282|154:261|154:261|195:293|260:280,1,215.999993408203,4|2,0:0|0:0,0:0:0:0:
360,204,229984,1,0,0:0:0:0:
212,64,230148,2,0,L|84:48,1,107.999996704102,8|2,0:0|0:0,0:0:0:0:
40,164,230478,1,0,0:0:0:0:
248,176,230643,6,0,P|308:128|336:-8,1,215.999993408203,2|2,0:0|0:0,0:0:0:0:
150,137,231137,2,0,L|118:249,1,107.999996704102,2|0,0:0|0:0,0:0:0:0:
428,360,231467,2,0,L|392:244,1,107.999996704102,8|0,0:0|0:0,0:0:0:0:
228,64,231797,2,0,P|280:100|336:104,1,107.999996704102,2|0,0:0|0:0,0:0:0:0:
492,296,232126,6,0,P|380:256|288:288,1,215.999993408203,4|2,0:0|0:0,0:0:0:0:
168,352,232621,1,0,0:0:0:0:
20,192,232786,2,0,P|8:128|20:80,1,107.999996704102,8|2,0:0|0:0,0:0:0:0:
136,36,233115,1,0,0:0:0:0:
240,248,233280,6,0,P|338:287|440:258,1,215.999993408203,2|2,0:0|0:0,0:0:0:0:
444,32,233775,2,0,P|395:62|359:110,1,107.999996704102,2|2,0:0|0:0,0:0:0:0:
344,180,234022,5,0,0:0:0:0:
344,180,234104,2,0,L|340:288,1,107.999996704102,8|0,0:0|0:0,0:0:0:0:
248,100,234434,1,8,0:0:0:0:
440,256,234599,1,8,0:0:0:0:
200,340,234764,6,0,B|128:336|92:268|92:268|76:172,1,215.999993408203,4|0,0:0|0:0,0:0:0:0:
104,44,235258,1,0,0:0:0:0:
284,172,235423,2,0,P|337:146|379:103,1,107.999996704102,8|2,0:0|0:0,0:0:0:0:
248,28,235753,1,0,0:0:0:0:
240,296,235918,6,0,P|188:254|171:107,1,215.999993408203,2|2,0:0|0:0,0:0:0:0:
376,272,236412,2,0,P|376:322|347:378,1,107.999996704102,2|0,0:0|0:0,0:0:0:0:
84,284,236742,2,0,L|192:256,1,107.999996704102,8|0,0:0|0:0,0:0:0:0:
444,152,237071,2,0,L|324:116,1,107.999996704102,2|0,0:0|0:0,0:0:0:0:
28,84,237401,6,0,P|124:120|216:60,1,215.999993408203,4|2,0:0|0:0,0:0:0:0:
448,256,237896,2,0,P|352:220|260:280,1,215.999993408203,0|2,0:0|0:0,0:0:0:0:
88,352,238390,2,0,P|138:315|160:272,1,107.999996704102,0|2,0:0|0:0,0:0:0:0:
80,76,238720,6,0,L|108:188,1,107.999996704102,0|2,0:0|0:0,0:0:0:0:
368,272,239049,2,0,L|340:160,1,107.999996704102,0|2,0:0|0:0,0:0:0:0:
288,104,239297,1,0,0:0:0:0:
288,104,239379,2,0,L|272:44,3,53.9999983520508,8|0|0|0,0:3|0:0|0:0|0:0,0:0:0:0:
256,184,239709,6,0,L|269:236,1,53.9999983520508,8|0,0:0|0:0,0:0:0:0:
436,224,239874,2,0,L|422:171,1,53.9999983520508,8|0,0:0|0:0,0:0:0:0:
368,272,240039,6,0,P|412:320|456:336,1,99.0000030212403,4|0,0:0|0:0,0:0:0:0:
512,140,240368,2,8,P|468:91|423:74,1,99.0000030212403,2|0,0:0|0:0,0:0:0:0:
256,184,240698,2,0,P|293:142|311:94,1,99.0000030212403,8|2,0:0|0:0,0:0:0:0:
176,92,241028,1,0,0:0:0:0:
140,292,241192,6,0,P|184:328|244:344,1,99.0000030212403,2|0,0:0|2:0,0:0:0:0:
32,304,241522,1,2,0:0:0:0:
32,304,241687,2,0,L|-4:188,1,99.0000030212403,2|0,0:0|0:0,0:0:0:0:
88,16,242017,2,0,P|80:72|52:120,1,99.0000030212403,8|0,0:0|0:0,0:0:0:0:
200,212,242346,2,0,P|240:172|284:148,1,99.0000030212403,2|0,0:0|0:0,0:0:0:0:
464,204,242676,6,0,P|412:232|364:232,1,99.0000030212403,4|0,0:0|0:0,0:0:0:0:
320,76,243006,2,0,P|372:48|420:48,1,99.0000030212403,2|0,0:0|0:0,0:0:0:0:
220,108,243335,2,0,P|172:68|156:16,1,99.0000030212403,8|2,0:0|0:0,0:0:0:0:
288,180,243665,1,0,0:0:0:0:
288,180,243830,6,0,L|276:284,1,99.0000030212403,2|0,0:0|2:0,0:0:0:0:
128,360,244159,1,2,0:0:0:0:
52,264,244324,2,0,P|36:216|36:152,1,99.0000030212403,2|2,0:0|0:0,0:0:0:0:
72,88,244571,1,0,0:0:0:0:
72,88,244654,2,0,L|172:88,1,99.0000030212403,8|2,0:0|0:0,0:0:0:0:
316,8,244984,1,8,0:0:0:0:
172,68,245148,1,8,0:0:0:0:
312,200,245313,6,0,P|388:152|424:40,1,198.000006042481,4|2,0:0|0:0,0:0:0:0:
296,28,245808,1,0,0:0:0:0:
224,232,245973,2,0,L|264:352,1,99.0000030212403,8|2,0:0|0:0,0:0:0:0:
384,320,246302,1,0,0:0:0:0:
232,144,246467,6,0,P|132:120|48:160,1,198.000006042481,2|2,0:0|0:0,0:0:0:0:
68,328,246962,2,0,P|104:292|120:240,1,99.0000030212403,2|0,0:0|0:0,0:0:0:0:
64,64,247291,2,0,P|45:111|52:165,1,99.0000030212403,8|0,0:0|0:0,0:0:0:0:
256,216,247621,2,0,P|228:164|188:140,1,99.0000030212403,2|0,0:0|0:0,0:0:0:0:
312,352,247951,6,0,P|396:304|428:208,1,198.000006042481,4|2,0:0|0:0,0:0:0:0:
392,88,248445,1,0,0:0:0:0:
432,200,248610,2,0,P|472:240|524:260,1,99.0000030212403,8|2,0:0|0:0,0:0:0:0:
484,60,248940,1,0,0:0:0:0:
328,184,249104,6,0,P|228:192|144:144,1,198.000006042481,2|2,0:0|0:0,0:0:0:0:
0,16,249599,2,0,P|44:44|80:100,1,99.0000030212403,0|2,0:0|0:0,0:0:0:0:
64,164,249846,5,0,0:0:0:0:
64,164,249929,2,0,L|56:220,3,49.5000015106202,8|0|0|0,0:3|0:0|0:0|0:0,0:0:0:0:
64,296,250258,2,0,P|100:332|152:352,1,99.0000030212403,8|0,0:0|0:0,0:0:0:0:
392,316,250588,6,0,B|342:305|342:305|293:319|293:319|251:282|189:289,1,198.000006042481,4|2,0:0|0:0,0:0:0:0:
316,200,251082,1,0,0:0:0:0:
316,200,251247,2,0,P|324:144|312:96,1,99.0000030212403,8|2,0:0|0:0,0:0:0:0:
168,36,251577,1,0,0:0:0:0:
168,36,251742,6,0,P|184:84|220:120,1,99.0000030212403,2|0,0:0|2:0,0:0:0:0:
432,216,252071,1,2,0:0:0:0:
336,292,252236,2,0,P|280:292|232:264,1,99.0000030212403,2|0,0:0|0:0,0:0:0:0:
40,184,252566,2,0,P|91:206|123:251,1,99.0000030212403,8|0,0:0|0:0,0:0:0:0:
212,356,252896,1,2,0:0:0:0:
316,200,253060,1,0,0:0:0:0:
432,368,253225,6,0,P|460:328|464:264,1,99.0000030212403,4|0,0:0|0:0,0:0:0:0:
400,40,253555,2,0,P|372:80|368:144,1,99.0000030212403,2|0,0:0|0:0,0:0:0:0:
220,276,253885,2,0,L|192:176,1,99.0000030212403,8|2,0:0|0:0,0:0:0:0:
40,76,254214,1,0,0:0:0:0:
40,76,254379,6,0,L|68:176,1,99.0000030212403,2|0,0:0|2:0,0:0:0:0:
244,368,254709,1,2,0:0:0:0:
308,240,254874,2,0,P|312:184|296:136,1,99.0000030212403,0|2,0:0|0:0,0:0:0:0:
220,92,255121,1,0,0:0:0:0:
220,92,255203,2,0,L|120:64,1,99.0000030212403,8|2,0:0|0:0,0:0:0:0:
196,240,255533,1,8,0:0:0:0:
340,80,255698,1,8,0:0:0:0:
444,264,255863,6,0,P|369:328|266:320,1,198.000006042481,4|2,0:0|0:0,0:0:0:0:
196,240,256357,1,0,0:0:0:0:
312,88,256522,2,0,P|268:60|220:52,1,99.0000030212403,8|2,0:0|0:0,0:0:0:0:
124,112,256852,1,0,0:0:0:0:
392,224,257017,6,0,P|456:148|460:36,1,198.000006042481,2|2,0:0|0:0,0:0:0:0:
296,200,257511,2,0,L|328:296,1,99.0000030212403,2|0,0:0|0:0,0:0:0:0:
336,84,257841,2,0,P|292:56|244:48,1,99.0000030212403,8|0,0:0|0:0,0:0:0:0:
32,184,258170,2,0,P|76:212|124:220,1,99.0000030212403,2|0,0:0|0:0,0:0:0:0:
336,364,258500,6,0,P|256:292|248:168,1,198.000006042481,4|2,0:0|0:0,0:0:0:0:
312,100,258995,1,0,0:0:0:0:
232,200,259159,2,0,P|176:216|124:212,1,99.0000030212403,8|2,0:0|0:0,0:0:0:0:
104,88,259489,1,0,0:0:0:0:
332,200,259654,6,0,P|414:161|466:62,1,198.000006042481,2|2,0:0|0:0,0:0:0:0:
248,144,260148,2,0,L|240:242,1,99.0000030212403,0|2,0:0|0:0,0:0:0:0:
248,324,260396,5,0,0:0:0:0:
248,324,260478,2,0,P|276:348|296:359,3,49.5000015106202,8|0|0|0,0:3|0:0|0:0|0:0,0:0:0:0:
320,272,260808,2,0,P|339:223|334:173,1,99.0000030212403,8|0,0:0|0:0,0:0:0:0:
256,28,261137,5,4,0:1:0:0:
256,192,261797,1,0,0:0:0:0:
268,208,262456,1,0,0:0:0:0:
436,320,262951,5,2,1:0:0:0:
436,320,263033,1,0,1:0:0:0:
436,320,263115,2,0,P|464:272|472:228,1,90,8|2,1:0|0:0,0:0:0:0:
256,356,263775,5,4,0:1:0:0:
256,192,264434,1,0,0:0:0:0:
268,176,265093,1,0,0:0:0:0:
436,64,265588,5,2,1:0:0:0:
436,64,265670,1,0,1:0:0:0:
436,64,265753,2,0,P|464:112|472:156,1,90,8|2,1:0|0:0,0:0:0:0:
395,355,266082,2,0,P|363:283|370:209,1,135,8|0,1:1|0:0,0:0:0:0:
352,140,266412,6,0,P|300:160|248:156,1,107.999996704102,4|2,0:0|0:0,0:0:0:0:
140,36,266742,1,0,0:0:0:0:
148,252,266907,1,0,0:0:0:0:
148,252,266989,1,0,0:0:0:0:
148,252,267071,2,0,L|100:152,1,107.999996704102,8|0,0:0|0:0,0:0:0:0:
56,272,267319,2,0,P|84:317|132:348,1,107.999996704102,2|0,0:0|0:0,0:0:0:0:
208,312,267566,2,0,P|256:292|316:296,1,107.999996704102,2|4,0:0|2:0,0:0:0:0:
448,344,267896,5,0,0:0:0:0:
448,344,267978,1,0,0:0:0:0:
448,344,268060,2,0,L|476:228,1,107.999996704102,2|0,0:0|0:0,0:0:0:0:
414,37,268390,1,8,0:0:0:0:
408,64,268473,1,0,0:0:0:0:
401,90,268555,1,0,0:0:0:0:
395,116,268637,1,0,0:0:0:0:
388,140,268720,2,0,P|351:196|304:218,1,107.999996704102,2|0,0:0|0:0,0:0:0:0:
48,164,269049,6,0,P|116:168|156:188,1,107.999996704102,4|2,0:0|0:0,0:0:0:0:
184,312,269379,1,0,0:0:0:0:
244,108,269544,1,0,0:0:0:0:
244,108,269626,1,0,0:0:0:0:
244,108,269709,2,0,B|243:161|243:161|228:220,1,107.999996704102,8|0,0:0|0:0,0:0:0:0:
104,276,269956,2,0,B|153:254|153:254|212:245,1,107.999996704102,2|0,0:0|0:0,0:0:0:0:
352,284,270203,2,0,B|299:272|299:272|245:245,1,107.999996704102,2|4,0:0|2:0,0:0:0:0:
152,64,270533,5,0,0:0:0:0:
152,64,270615,1,0,0:0:0:0:
152,64,270698,2,0,P|204:24|268:12,1,107.999996704102,2|0,0:0|0:0,0:0:0:0:
396,80,271028,2,0,L|456:172,1,107.999996704102,8|2,0:0|0:0,0:0:0:0:
240,372,271357,2,0,L|256:256,1,107.999996704102,8|0,0:0|0:0,0:0:0:0:
448,316,271687,6,0,P|404:348|352:356,1,107.999996704102,4|2,0:0|0:0,0:0:0:0:
256,264,272017,1,0,0:0:0:0:
140,352,272181,1,0,0:0:0:0:
140,352,272264,1,0,0:0:0:0:
140,352,272346,2,0,L|104:248,1,107.999996704102,8|0,0:0|0:0,0:0:0:0:
40,136,272593,2,0,L|16:256,1,107.999996704102,2|0,0:0|0:0,0:0:0:0:
120,164,272841,2,0,P|160:120|176:72,1,107.999996704102,2|4,0:0|2:0,0:0:0:0:
308,16,273170,5,0,0:0:0:0:
308,16,273253,1,0,0:0:0:0:
308,16,273335,2,0,P|326:66|363:105,1,107.999996704102,2|0,0:0|0:0,0:0:0:0:
498,175,273665,1,8,0:0:0:0:
495,200,273747,1,0,0:0:0:0:
488,228,273830,1,0,0:0:0:0:
469,250,273912,1,0,0:0:0:0:
444,265,273995,2,0,P|400:293|370:341,1,107.999996704102,2|0,0:0|0:0,0:0:0:0:
400,180,274324,6,0,P|344:156|296:160,1,107.999996704102,4|2,0:0|0:0,0:0:0:0:
236,284,274654,1,0,0:0:0:0:
128,168,274819,1,0,0:0:0:0:
128,168,274901,1,0,0:0:0:0:
128,168,274984,2,0,P|92:208|72:260,1,107.999996704102,8|0,0:0|0:0,0:0:0:0:
208,124,275231,2,0,P|196:71|166:24,1,107.999996704102,2|0,0:0|0:0,0:0:0:0:
204,212,275478,2,0,P|244:248|295:268,1,107.999996704102,2|4,0:0|2:0,0:0:0:0:
344,68,275808,5,0,0:0:0:0:
344,68,275890,1,0,0:0:0:0:
344,68,275973,2,0,L|296:164,1,107.999996704102,2|0,0:0|0:0,0:0:0:0:
384,296,276302,5,8,0:0:0:0:
140,252,276467,1,8,0:0:0:0:
388,168,276632,1,8,0:0:0:0:
236,344,276797,1,2,0:0:0:0:
