osu file format v13

[General]
AudioFilename: Morning glow.mp3
AudioLeadIn: 2000
PreviewTime: 86989
Countdown: 0
SampleSet: Soft
StackLeniency: 0.7
Mode: 0
LetterboxInBreaks: 1
WidescreenStoryboard: 0

[Editor]
DistanceSpacing: 0.6
BeatDivisor: 4
GridSize: 4
TimelineZoom: 1

[Metadata]
Title:Morning glow
TitleUnicode:Morning glow
Artist:Draw the Emotional
ArtistUnicode:Draw the Emotional
Creator:UnitedWeSin
Version:Hard
Source:Touhou
Tags:collapse of the sky yuyoyuppe ゆよゆっぺ kadochi カドチ c78 聖 白蓮 hijiri byakuren 法界の火 fires of hokkai 東方星蓮船 Undefined Fantastic Object. 締め切り前日のおまいら shimekiri zenjitsu no o maira uws
BeatmapID:363297
BeatmapSetID:146626

[Difficulty]
HPDrainRate:5
CircleSize:4
OverallDifficulty:6
ApproachRate:8
SliderMultiplier:1.5
SliderTickRate:2

[Events]
//Background and Video events
0,0,"bg.jpg",0,0
//Break Periods
2,116282,133794
2,182217,196431
//Storyboard Layer 0 (Background)
//Storyboard Layer 1 (Fail)
//Storyboard Layer 2 (Pass)
//Storyboard Layer 3 (Foreground)
//Storyboard Sound Samples
//Background Colour Transformations
3,100,163,162,255

[TimingPoints]
39,329.67032967033,4,2,1,30,1,0
39,-125,4,2,1,30,0,0
698,-125,4,2,2,30,0,0
3995,-125,4,2,1,30,0,0
5973,-125,4,2,2,30,0,0
10588,-125,4,2,1,30,0,0
11247,-125,4,2,2,30,0,0
14544,-125,4,2,1,30,0,0
16522,-125,4,2,2,30,0,0
21137,-125,4,2,1,50,0,0
21632,-125,4,2,2,50,0,0
25093,-125,4,2,1,50,0,0
27401,-125,4,2,2,50,0,0
31687,-125,4,2,1,50,0,0
32181,-125,4,2,2,50,0,0
35643,-125,4,2,1,50,0,0
37621,-125,4,2,2,50,0,0
39599,-200,4,2,1,50,0,0
42236,-100,4,1,1,70,0,1
42319,-100,4,1,1,70,0,0
63335,-100,4,2,1,50,0,0
84434,-166.666666666667,4,2,1,50,0,0
87071,-83.3333333333333,4,1,1,70,0,1
108170,-166.666666666667,4,2,1,80,0,1
112621,-100,4,1,1,60,0,1
113445,-100,4,1,1,60,0,0
155643,-100,4,1,1,70,0,0
166192,-100,4,1,1,60,0,0
171467,-83.3333333333333,4,1,1,70,0,1
176742,-100,4,2,1,50,0,0
176824,-100,4,2,1,5,0,0
197181,-100,4,2,2,30,0,0
197841,-125,4,2,2,50,0,0
198500,-125,4,2,2,30,0,0
200148,-125,4,2,2,40,0,0
200973,-125,4,2,2,30,0,0
201467,-125,4,2,2,20,0,0
201797,-125,4,2,2,50,0,0
203775,-125,4,2,2,30,0,0
205423,-125,4,2,2,40,0,0
207071,-125,4,2,2,50,0,0
209049,-125,4,2,2,30,0,0
210698,-125,4,2,2,40,0,0
211522,-125,4,2,2,30,0,0
212017,-125,4,2,2,20,0,0
212346,-125,4,2,2,50,0,0
214324,-125,4,2,2,30,0,0
218940,-125,4,2,2,40,0,0
224214,-83.3333333333333,4,1,1,70,0,1
240039,-100,4,1,1,70,0,0
261137,-100,4,2,1,70,0,0
266412,-100,4,1,1,70,0,0
276302,-100,4,1,1,70,0,0

[Colours]
Combo1 : 132,157,108
Combo2 : 105,81,121
Combo3 : 190,82,85

[HitObjects]
320,148,39,5,8,0:0:0:0:
320,148,368,2,0,L|328:216,1,60,8|0,0:0|0:0,0:0:0:0:
288,276,698,2,0,P|258:283|179:246,1,120,2|0,0:0|0:0,0:0:0:0:
141,179,1192,2,0,P|199:174|248:206,1,120,0|0,0:0|0:0,0:0:0:0:
180,248,1687,2,0,L|56:280,1,120,2|0,0:0|0:0,0:0:0:0:
20,212,2181,2,0,L|96:108,1,120,2|0,0:0|0:0,0:0:0:0:
160,76,2676,6,0,L|196:24,1,60,0|0,0:0|0:0,0:0:0:0:
220,124,3006,2,0,L|280:112,1,60,0|0,0:0|0:0,0:0:0:0:
248,200,3335,2,0,P|300:220|332:280,1,120,2|0,0:0|0:0,0:0:0:0:
308,348,3830,1,2,0:0:0:0:
204,376,3995,6,0,P|168:332|171:264,1,120,8|0,0:0|0:0,0:0:0:0:
248,200,4489,2,0,P|283:156|280:88,1,120,2|0,0:0|0:0,0:0:0:0:
188,44,4984,2,0,P|162:56|136:86,1,60,8|0,0:0|0:0,0:0:0:0:
100,184,5313,5,8,0:0:0:0:
100,184,5643,2,0,L|144:232,1,60,8|0,0:0|0:0,0:0:0:0:
196,284,5973,2,0,P|256:300|312:284,1,120,2|0,0:0|0:0,0:0:0:0:
336,212,6467,2,0,P|376:248|384:312,1,120,0|0,0:0|0:0,0:0:0:0:
460,336,6962,2,0,P|464:272|448:216,1,120,2|0,0:0|0:0,0:0:0:0:
396,160,7456,2,0,P|392:96|408:40,1,120,2|0,0:0|0:0,0:0:0:0:
508,92,7951,6,0,L|465:144,1,60,0|0,0:0|0:0,0:0:0:0:
396,160,8280,2,0,L|353:212,1,60,0|0,0:0|0:0,0:0:0:0:
340,284,8610,2,0,P|276:296|232:264,1,120,2|0,0:0|0:0,0:0:0:0:
188,200,9104,2,0,P|200:264|168:320,1,120,0|0,0:0|0:0,0:0:0:0:
100,300,9599,2,0,P|88:236|120:180,1,120,2|0,0:0|0:0,0:0:0:0:
156,124,10093,2,0,L|164:64,2,60,2|0|0,0:0|0:0|0:0,0:0:0:0:
188,200,10588,5,8,0:0:0:0:
188,200,10918,2,0,L|256:200,1,60,8|0,0:0|0:0,0:0:0:0:
312,248,11247,2,0,B|368:228|368:228|396:172,1,120,2|0,0:0|0:0,0:0:0:0:
440,108,11742,2,0,L|440:240,1,120,0|0,0:0|0:0,0:0:0:0:
416,304,12236,2,0,P|380:308|320:372,1,120,2|0,0:0|0:0,0:0:0:0:
244,372,12731,2,0,P|196:336|176:272,1,120,2|0,0:0|0:0,0:0:0:0:
232,160,13225,6,0,L|216:220,1,60,0|0,0:0|0:0,0:0:0:0:
140,216,13555,2,0,L|124:158,1,60,0|0,0:0|0:0,0:0:0:0:
120,79,13885,2,0,P|176:63|234:79,1,120,2|0,0:0|0:0,0:0:0:0:
296,120,14379,1,2,0:0:0:0:
364,204,14544,6,0,P|400:160|400:88,1,120,8|0,0:0|0:0,0:0:0:0:
304,44,15039,2,0,L|436:44,1,120,2|0,0:0|0:0,0:0:0:0:
500,124,15533,2,0,P|500:160|496:184,1,60,8|0,0:0|0:0,0:0:0:0:
440,300,15863,5,8,0:0:0:0:
440,300,16192,2,0,P|408:304|380:316,1,60,8|0,0:0|0:0,0:0:0:0:
320,360,16522,2,0,P|256:356|208:316,1,120,2|0,0:0|0:0,0:0:0:0:
200,244,17017,2,0,L|192:124,1,120,0|0,0:0|0:0,0:0:0:0:
112,100,17511,2,0,L|120:220,1,120,2|0,0:0|0:0,0:0:0:0:
276,212,18006,2,0,L|268:92,1,120,2|0,0:0|0:0,0:0:0:0:
340,16,18500,6,0,L|344:76,1,60,0|0,0:0|0:0,0:0:0:0:
420,92,18830,2,0,L|416:32,1,60,0|0,0:0|0:0,0:0:0:0:
268,92,19159,2,0,P|308:144|360:152,1,120,2|0,0:0|0:0,0:0:0:0:
420,92,19654,2,0,L|360:204,1,120,0|0,0:0|0:0,0:0:0:0:
288,224,20148,2,0,P|224:224|164:264,1,120,2|0,0:0|0:0,0:0:0:0:
128,312,20643,2,0,P|105:287|95:254,2,60,2|0|0,0:0|0:0|0:0,0:0:0:0:
200,384,21137,6,0,P|264:384|324:344,1,120,8|0,0:0|0:0,0:0:0:0:
376,304,21632,2,0,L|380:176,1,120,0|0,0:0|0:0,0:0:0:0:
404,104,22126,2,0,P|432:120|460:200,1,120,2|0,0:0|0:0,0:0:0:0:
460,284,22621,2,0,L|484:344,2,60,0|2|0,0:0|0:0|0:0,0:0:0:0:
384,244,23115,2,0,L|324:244,1,60,0|0,0:0|0:0,0:0:0:0:
264,304,23445,6,0,L|192:304,1,60,2|0,0:0|0:0,0:0:0:0:
80,248,23775,2,0,B|139:223|139:223|216:224,1,120,2|0,0:0|0:0,0:0:0:0:
300,184,24269,2,0,P|240:168|212:112,1,120,0|0,0:0|0:0,0:0:0:0:
148,64,24764,2,0,P|175:44|204:40,1,60,2|0,0:0|0:0,0:0:0:0:
336,72,25093,6,0,B|372:96|372:96|408:168,1,120,2|0,0:0|0:0,0:0:0:0:
396,248,25588,2,0,L|388:324,2,60,2|0|0,0:0|0:0|0:0,0:0:0:0:
476,220,26082,2,0,L|508:160,1,60,2|0,0:0|0:0,0:0:0:0:
472,300,26412,5,8,0:0:0:0:
288,220,26742,2,0,P|264:204|232:196,1,60,8|0,0:0|0:0,0:0:0:0:
176,284,27071,2,0,L|236:272,1,60,0|0,0:0|0:0,0:0:0:0:
160,208,27401,2,0,P|100:176|80:120,1,120,2|0,0:0|0:0,0:0:0:0:
148,68,27896,2,0,L|164:128,2,60,0|2|0,0:0|0:0|0:0,0:0:0:0:
220,24,28390,2,0,P|250:46|268:72,1,60,0|0,0:0|0:0,0:0:0:0:
292,144,28720,2,0,P|268:156|244:192,1,60,2|0,0:0|0:0,0:0:0:0:
308,280,29049,6,0,P|372:260|408:212,1,120,2|0,0:0|0:0,0:0:0:0:
464,140,29544,2,0,L|452:264,1,120,0|0,0:0|0:0,0:0:0:0:
372,360,30039,2,0,P|300:372|248:364,1,120,2|0,0:0|0:0,0:0:0:0:
192,312,30533,2,0,L|140:368,2,60,0|2|0,0:0|0:0|0:0,0:0:0:0:
272,292,31028,2,0,P|262:269|235:241,1,60,0|0,0:0|0:0,0:0:0:0:
156,228,31357,2,0,L|104:284,1,60,2|0,0:0|0:0,0:0:0:0:
56,376,31687,6,0,P|28:320|32:260,1,120,2|0,0:0|0:0,0:0:0:0:
92,156,32181,1,0,0:0:0:0:
168,196,32346,2,0,B|228:188|228:188|280:148,1,120,2|0,0:0|0:0,0:0:0:0:
304,72,32841,2,0,P|344:100|360:168,1,120,2|0,0:0|0:0,0:0:0:0:
364,252,33335,2,0,P|335:243|309:228,1,60,0|0,0:0|0:0,0:0:0:0:
432,204,33665,2,0,P|488:172|512:116,1,120,2|0,0:0|0:0,0:0:0:0:
400,96,34159,1,0,0:0:0:0:
400,96,34324,6,0,L|272:96,1,120,2|0,0:0|0:0,0:0:0:0:
216,152,34819,1,0,0:0:0:0:
216,152,34984,2,0,P|158:137|120:84,1,120,2|0,0:0|0:0,0:0:0:0:
204,68,35478,1,2,0:0:0:0:
292,180,35643,6,0,B|308:240|308:240|296:300,1,120,2|0,0:0|0:0,0:0:0:0:
228,348,36137,2,0,L|160:348,2,60,0|0|0,0:0|0:0|0:0,0:0:0:0:
212,264,36632,2,0,L|148:232,1,60,2|0,0:0|0:0,0:0:0:0:
56,336,36962,5,8,0:0:0:0:
56,336,37291,2,0,P|35:306|28:280,1,60,8|0,0:0|0:0,0:0:0:0:
52,204,37621,2,0,L|48:144,1,60,0|0,0:0|0:0,0:0:0:0:
84,68,37951,2,0,P|136:40|200:44,1,120,2|0,0:0|0:0,0:0:0:0:
268,84,38445,2,0,P|292:76|324:52,2,60,0|0|0,0:0|0:0|0:0,0:0:0:0:
196,132,38940,2,0,P|192:192|344:240,1,240,2|0,0:0|0:0,0:0:0:0:
256,192,39764,12,0,40918,0:0:0:0:
292,80,42236,6,0,L|260:176,1,75,4|0,0:1|0:0,0:0:0:0:
336,224,42566,2,0,L|364:138,1,75,0|2,0:0|0:0,0:0:0:0:
184,132,42896,2,0,P|184:168|200:204,2,75,8|0|0,0:0|0:0|0:0,0:0:0:0:
152,40,43390,2,0,P|104:92|100:184,1,150,8|2,0:0|0:0,2:0:0:0:
124,264,43885,2,0,P|132:300|124:344,1,75,2|0,0:0|0:0,0:0:0:0:
216,376,44214,2,0,P|258:369|296:376,1,75,8|0,0:0|0:0,0:0:0:0:
380,336,44544,1,2,0:0:0:0:
416,244,44709,1,0,0:0:0:0:
480,316,44874,6,0,P|504:284|512:240,1,75,6|0,0:0|0:0,0:0:0:0:
464,92,45203,2,0,L|472:184,1,75,0|2,0:0|0:0,0:0:0:0:
360,112,45533,2,0,L|328:25,2,75,8|0|0,0:0|0:0|0:0,0:0:0:0:
340,208,46028,2,0,P|312:236|208:216,1,150,8|2,0:0|0:0,2:0:0:0:
128,172,46522,2,0,P|112:208|116:252,1,75,2|0,0:0|0:0,0:0:0:0:
208,124,46852,2,0,P|205:84|182:47,1,75,8|2,0:0|0:0,0:0:0:0:
92,72,47181,1,8,0:0:0:0:
240,360,47511,6,0,B|248:284|248:284|212:256|212:212,1,150,4|0,0:0|0:0,2:0:0:0:
296,172,48006,1,2,0:0:0:0:
360,248,48170,2,0,L|336:328,1,75,8|0,0:0|0:0,0:0:0:0:
432,352,48500,1,0,0:0:0:0:
464,260,48665,2,0,P|464:214|380:149,1,150,8|2,0:0|0:0,2:0:0:0:
296,172,49159,2,0,L|216:172,1,75,2|0,0:0|0:0,0:0:0:0:
112,92,49489,2,0,L|192:92,1,75,8|0,0:0|0:0,0:0:0:0:
128,204,49819,1,2,0:0:0:0:
44,156,49984,1,0,0:0:0:0:
24,252,50148,6,0,B|24:292|24:292|40:328,1,75,6|0,0:0|0:0,0:0:0:0:
132,352,50478,2,0,P|176:348|212:360,1,75,0|2,0:0|0:0,0:0:0:0:
304,372,50808,2,0,B|368:328|368:328|400:256,1,150,8|0,0:0|0:0,2:0:0:0:
432,144,51302,2,0,L|468:296,1,150,8|2,0:0|0:0,2:0:0:0:
416,376,51797,2,0,P|380:368|348:344,1,75,0|2,0:0|0:0,0:0:0:0:
276,280,52126,5,8,0:0:0:0:
184,312,52291,1,2,0:0:0:0:
96,268,52456,1,2,0:0:0:0:
68,172,52621,1,2,0:0:0:0:
128,96,52786,6,0,B|168:84|200:96|200:96|240:112|288:96,1,150,4|0,0:0|0:0,2:0:0:0:
372,100,53280,1,0,0:0:0:0:
436,172,53445,2,0,P|428:212|404:244,1,75,8|0,0:0|0:0,0:0:0:0:
324,296,53775,1,0,0:0:0:0:
396,376,53940,2,0,P|424:328|400:228,1,150,8|2,0:0|0:0,2:0:0:0:
320,196,54434,2,0,L|228:196,1,75,2|0,0:0|0:0,0:0:0:0:
180,296,54764,2,0,P|140:272|116:240,1,75,8|0,0:0|0:0,0:0:0:0:
60,116,55093,1,2,0:0:0:0:
28,208,55258,1,0,0:0:0:0:
152,144,55423,6,0,L|184:64,1,75,6|0,0:0|0:0,0:0:0:0:
272,120,55753,2,0,L|299:50,1,75,0|2,0:0|0:0,0:0:0:0:
368,176,56082,2,0,P|344:208|312:228,1,75,8|0,0:0|0:0,0:0:0:0:
216,232,56412,1,0,0:0:0:0:
144,304,56577,2,0,P|196:328|288:304,1,150,8|2,0:0|0:0,2:0:0:0:
380,296,57071,2,0,P|420:316|436:344,1,75,2|0,0:0|0:0,0:0:0:0:
320,220,57401,2,0,B|296:172|296:172|304:128|304:128|280:64,1,150,8|8,0:0|0:0,2:0:0:0:
192,36,57896,1,0,0:0:0:0:
192,36,58060,6,0,P|144:64|116:160,1,150,4|0,0:0|0:0,2:0:0:0:
160,236,58555,1,2,0:0:0:0:
160,332,58720,2,0,B|208:332|233:296|233:296|300:332,1,150,8|0,0:0|0:0,2:0:0:0:
384,356,59214,2,0,P|336:308|324:224,1,150,8|2,0:0|0:0,2:0:0:0:
412,176,59709,2,0,P|424:212|424:252,1,75,2|0,0:0|0:0,0:0:0:0:
320,140,60039,2,0,P|338:106|368:80,1,75,8|0,0:0|0:0,0:0:0:0:
484,108,60368,1,2,0:0:0:0:
412,176,60533,1,0,0:0:0:0:
320,140,60698,6,0,P|277:112|275:12,1,150,6|0,0:0|0:0,2:0:0:0:
172,28,61192,1,2,0:0:0:0:
172,28,61357,2,0,L|148:112,1,75,8|0,0:0|0:0,0:0:0:0:
84,172,61687,1,0,0:0:0:0:
112,264,61852,2,0,L|260:308,1,150,8|2,0:0|0:0,2:0:0:0:
324,376,62346,2,0,P|348:344|352:304,1,75,2|2,0:0|0:0,0:0:0:0:
296,228,62676,6,0,L|256:216,4,37.5,8|0|0|0|0,0:0|0:0|0:0|0:0|0:0,0:0:0:0:
408,72,63335,6,0,B|372:132|420:148|384:220,1,150,4|2,0:0|0:0,0:0:0:0:
296,228,63830,1,0,0:0:0:0:
208,200,63995,2,0,P|169:208|107:296,1,150,8|0,0:0|0:0,0:0:0:0:
20,280,64489,2,0,L|0:196,1,75,2|0,0:0|0:0,0:0:0:0:
72,144,64819,1,2,0:0:0:0:
72,144,64984,2,0,L|72:52,1,75,0|0,0:0|0:0,0:0:0:0:
156,32,65313,2,0,P|200:36|244:24,2,75,8|2|0,0:0|0:0|0:0,0:0:0:0:
264,292,65973,6,0,P|252:220|292:148,1,150,2|2,0:0|0:0,0:0:0:0:
368,120,66467,1,0,0:0:0:0:
436,180,66632,2,0,P|452:216|456:264,2,75,8|0|0,0:0|0:0|0:0,0:0:0:0:
368,240,67126,2,0,L|344:320,1,75,2|0,0:0|0:0,0:0:0:0:
404,380,67456,1,2,0:0:0:0:
404,380,67621,2,0,L|472:340,1,75,2|0,0:0|0:0,0:0:0:0:
348,312,67951,2,0,P|312:316|280:340,1,75,8|0,0:0|0:0,0:0:0:0:
204,384,68280,1,2,0:0:0:0:
80,244,68610,6,0,P|84:196|176:136,1,150,4|2,0:0|0:0,0:0:0:0:
236,184,69104,1,0,0:0:0:0:
304,240,69269,2,0,P|348:244|424:164,1,150,8|0,0:0|0:0,0:0:0:0:
332,152,69764,2,0,L|320:68,1,75,2|0,0:0|0:0,0:0:0:0:
416,20,70093,1,2,0:0:0:0:
416,20,70258,2,0,L|408:104,1,75,0|0,0:0|0:0,0:0:0:0:
241,115,70588,2,0,L|235:40,2,75,8|2|0,0:0|0:0|0:0,0:0:0:0:
256,316,71247,6,0,L|244:152,1,150,2|2,0:0|0:0,0:0:0:0:
184,100,71742,1,0,0:0:0:0:
116,156,71907,2,0,P|96:200|8:272,1,150,8|0,0:0|0:0,0:0:0:0:
12,164,72401,2,0,P|71:209|106:274,1,150,2|2,0:0|0:0,0:0:0:0:
172,340,72896,1,2,0:0:0:0:
336,196,73225,6,0,L|296:280,1,75,8|2,0:0|0:0,0:0:0:0:
436,176,73555,2,0,L|428:96,1,75,8|8,0:0|0:0,0:0:0:0:
248,124,73885,6,0,P|316:112|360:40,1,150,4|2,0:0|0:0,0:0:0:0:
268,36,74379,1,0,0:0:0:0:
184,68,74544,2,0,B|140:120|184:152|140:208,1,150,8|0,0:0|0:0,0:0:0:0:
56,236,75039,2,0,P|136:252|192:296,2,150,2|2|0,0:0|0:0|0:0,0:0:0:0:
64,320,75863,2,0,P|95:346|135:351,2,75,8|2|0,0:0|0:0|0:0,0:0:0:0:
220,184,76522,6,0,P|272:235|282:308,1,150,2|2,0:0|0:0,0:0:0:0:
448,352,77181,2,0,P|480:300|464:200,1,150,8|0,0:0|0:0,0:0:0:0:
408,152,77676,2,0,L|376:68,1,75,2|0,0:0|0:0,0:0:0:0:
312,24,78006,1,2,0:0:0:0:
244,84,78170,2,0,L|144:112,1,75,2|0,0:0|0:0,0:0:0:0:
140,20,78500,2,0,L|44:16,1,75,8|0,0:0|0:0,0:0:0:0:
104,172,78830,2,0,P|78:130|76:90,1,75,2|0,0:0|0:0,0:0:0:0:
188,188,79159,6,0,B|204:228|192:260|192:260|192:308|228:328,1,150,4|2,0:0|0:0,0:0:0:0:
316,332,79654,1,0,0:0:0:0:
396,288,79819,2,0,B|456:300|468:360|468:360|500:312,1,150,8|0,0:0|0:0,0:0:0:0:
480,232,80313,2,0,P|441:165|460:72,1,150,2|2,0:0|0:0,0:0:0:0:
488,12,80808,2,0,P|448:4|412:12,1,75,0|0,0:0|0:0,0:0:0:0:
348,72,81137,2,0,P|337:106|336:152,2,75,8|2|0,0:0|0:0|0:0,0:0:0:0:
216,268,81797,6,0,P|204:204|216:120,1,150,2|2,0:0|0:0,0:0:0:0:
436,208,82456,2,0,P|431:272|397:350,1,150,8|0,0:0|0:0,0:0:0:0:
308,352,82951,2,0,P|268:344|224:352,1,75,2|0,0:0|0:0,0:0:0:0:
144,360,83280,2,0,P|100:344|72:320,1,75,2|0,0:0|0:0,0:0:0:0:
148,224,83610,2,0,L|152:268,2,37.5,2|0|8,0:0|0:0|0:0,0:0:0:0:
88,156,83940,1,2,0:0:0:0:
160,100,84104,2,0,L|236:96,1,75,8|0,0:0|0:0,0:0:0:0:
332,200,84434,6,0,P|356:180|376:112,2,89.9999972534181,2|0|8,0:0|0:0|0:0,0:0:0:0:
248,320,85423,1,0,0:0:0:0:
248,320,85588,2,0,B|280:316|280:316|304:324|304:324|340:312,1,89.9999972534181,8|0,0:0|0:0,0:0:0:0:
408,276,86082,5,0,0:0:0:0:
420,292,86247,1,0,0:0:0:0:
432,308,86412,1,2,0:0:0:0:
444,324,86577,2,0,L|468:312,2,22.4999993133545,2|0|2,0:0|0:0|0:0,0:0:0:0:
364,80,87071,6,0,B|372:116|372:116|360:152|368:192|368:192|333:208|320:248,1,179.999994506836,4|2,0:0|0:0,0:0:0:0:
112,260,87731,2,0,B|60:244|60:244|8:256,1,89.9999972534181,8|2,0:0|0:0,0:0:0:0:
108,372,88060,1,0,0:0:0:0:
208,324,88225,2,0,P|220:260|156:160,1,179.999994506836,2|2,0:0|0:0,2:0:0:0:
68,140,88720,2,0,L|244:88,2,179.999994506836,2|8|2,0:0|0:0|0:0,2:0:0:0:
272,180,89709,6,0,B|316:168|316:168|340:176|340:176|404:160|456:196,1,179.999994506836,6|2,0:0|0:0,2:0:0:0:
392,360,90368,2,0,P|372:316|380:264,1,89.9999972534181,8|2,0:0|0:0,2:0:0:0:
472,304,90698,1,0,0:0:0:0:
472,304,90863,2,0,L|292:344,1,179.999994506836,2|2,0:0|0:0,0:0:0:0:
200,364,91357,1,2,0:0:0:0:
116,312,91522,5,2,0:0:0:0:
112,304,91604,1,0,0:0:0:0:
108,296,91687,2,0,B|100:248|100:248|112:200,1,89.9999972534181,8|2,0:0|0:0,0:0:0:0:
176,132,92017,1,8,0:0:0:0:
264,176,92181,1,8,0:0:0:0:
340,112,92346,6,0,B|383:90|427:114|427:114|463:142|511:130,1,179.999994506836,4|2,0:0|0:0,2:0:0:0:
344,312,93006,2,0,P|296:308|256:280,1,89.9999972534181,8|2,0:0|0:0,0:0:0:0:
180,212,93335,1,0,0:0:0:0:
84,244,93500,2,0,P|40:192|56:76,1,179.999994506836,2|2,0:0|0:0,2:0:0:0:
144,56,93995,2,0,B|200:40|200:40|276:60|320:20,2,179.999994506836,2|8|2,0:0|0:0|0:0,2:0:0:0:
288,228,94984,6,0,P|372:208|440:124,1,179.999994506836,4|2,0:0|0:0,2:0:0:0:
460,44,95478,2,0,L|496:224,1,179.999994506836,0|2,0:0|0:0,2:0:0:0:
444,308,95973,2,0,P|412:332|360:348,1,89.9999972534181,0|2,0:0|0:0,0:0:0:0:
280,300,96302,6,0,L|188:280,1,89.9999972534181,0|2,0:0|0:0,0:0:0:0:
136,372,96632,2,0,B|96:352|96:352|60:308,1,89.9999972534181,0|2,0:0|0:0,0:0:0:0:
112,200,96962,2,0,L|116:248,3,44.999998626709,8|0|0|0,0:0|0:0|0:0|0:0,0:0:0:0:
164,236,97291,2,0,B|196:200|196:200|216:160,1,89.9999972534181,8|0,0:0|0:0,0:0:0:0:
256,44,97621,6,0,P|292:128|368:168,1,179.999994506836,4|2,0:0|0:0,2:0:0:0:
512,304,98280,2,0,L|424:328,1,89.9999972534181,8|2,0:0|0:0,0:0:0:0:
340,276,98610,1,0,0:0:0:0:
264,340,98775,2,0,B|208:336|176:288|176:288|120:340,1,179.999994506836,2|2,0:0|0:0,2:0:0:0:
40,284,99269,2,0,L|112:220,1,89.9999972534181,2|0,0:0|0:0,0:0:0:0:
204,200,99599,2,0,P|179:154|60:138,1,179.999994506836,8|2,0:0|0:0,2:0:0:0:
280,256,100258,6,0,P|356:212|396:124,1,179.999994506836,4|2,0:0|0:0,2:0:0:0:
200,32,100918,2,0,L|224:136,2,89.9999972534181,8|2|0,0:0|0:0|0:0,0:0:0:0:
100,36,101412,2,0,P|72:80|108:204,1,179.999994506836,2|2,0:0|0:0,2:0:0:0:
184,252,101907,1,2,0:0:0:0:
236,340,102071,5,2,0:0:0:0:
244,348,102154,1,0,0:0:0:0:
252,356,102236,2,0,L|356:336,1,89.9999972534181,8|2,0:0|0:0,0:0:0:0:
424,268,102566,1,8,0:0:0:0:
380,180,102731,1,8,0:0:0:0:
288,236,102896,6,0,B|224:225|224:225|187:186|187:186|108:164,1,179.999994506836,4|2,0:0|0:0,2:0:0:0:
340,32,103555,2,0,P|348:64|340:120,1,89.9999972534181,8|2,0:0|0:0,0:0:0:0:
248,76,103885,1,0,0:0:0:0:
248,76,104049,2,0,L|64:32,1,179.999994506836,2|2,0:0|0:0,2:0:0:0:
24,132,104544,2,0,L|-4:240,1,89.9999972534181,2|0,0:0|0:0,0:0:0:0:
100,304,104874,2,0,L|122:216,1,89.9999972534181,8|0,0:0|0:0,0:0:0:0:
240,180,105203,2,0,L|316:236,1,89.9999972534181,2|0,0:0|0:0,0:0:0:0:
412,372,105533,6,0,B|336:376|300:328|300:328|278:359|252:372,1,179.999994506836,4|2,0:0|0:0,2:0:0:0:
220,272,106028,2,0,P|164:310|50:284,1,179.999994506836,0|2,0:0|0:0,2:0:0:0:
20,200,106522,2,0,L|8:104,1,89.9999972534181,0|2,0:0|0:0,0:0:0:0:
76,36,106852,2,0,P|124:24|172:32,1,89.9999972534181,0|2,0:0|0:0,0:0:0:0:
232,104,107181,1,0,0:0:0:0:
320,60,107346,5,2,0:0:0:0:
328,64,107429,1,0,0:0:0:0:
336,68,107511,2,0,L|344:112,3,44.999998626709,8|0|0|0,0:0|0:0|0:0|0:0,0:0:0:0:
380,116,107841,2,0,P|409:147|429:199,1,89.9999972534181,8|0,0:0|0:0,0:0:0:0:
392,320,108170,6,0,B|280:380|240:260|128:320,1,269.999991760254,4|0,0:1|0:0,0:0:0:0:
40,372,109489,1,0,0:0:0:0:
164,120,110148,1,8,0:0:0:0:
164,120,110808,6,0,P|192:172|320:196,1,179.999994506836,4|0,0:1|0:0,0:0:0:0:
348,104,111797,2,0,L|388:192,2,89.9999972534181,0|0|0,0:0|0:0|0:0,0:0:0:0:
404,32,112621,6,0,P|415:47|424:76,2,37.5,0|0|8,0:0|0:0|0:0,0:0:0:0:
316,20,112951,1,0,0:0:0:0:
236,56,113115,2,0,P|221:113|242:180,1,112.5,0|0,0:0|2:0,0:0:0:0:
256,212,113445,1,4,0:1:0:0:
256,192,113528,12,4,116082,0:0:0:0:
328,168,134544,6,0,L|332:220,2,37.5,4|0|0,0:0|0:0|0:0,0:0:0:0:
252,116,134874,2,0,L|220:140,2,37.5,2|0|0,0:0|0:0|0:0,0:0:0:0:
204,40,135203,2,0,P|128:40|68:88,1,150,8|2,0:0|0:0,2:0:0:0:
44,168,135698,2,0,B|75:228|40:269|64:316,1,150,2|2,0:0|0:0,2:0:0:0:
144,356,136192,1,2,0:0:0:0:
260,216,136522,2,0,P|223:238|192:292,1,75,8|2,0:0|0:0,0:0:0:0:
288,300,136852,1,2,3:0:0:0:
396,156,137181,6,0,L|392:216,2,37.5,2|0|0,0:0|0:0|0:0,0:0:0:0:
352,76,137511,2,0,L|348:16,2,37.5,2|0|0,0:0|0:0|0:0,0:0:0:0:
276,124,137841,2,0,B|224:140|184:92|184:92|132:108,1,150,8|2,0:0|0:0,2:0:0:0:
64,152,138335,2,0,P|52:236|104:296,1,150,2|2,0:0|0:0,2:0:0:0:
176,304,138830,1,2,0:0:0:0:
312,188,139159,2,0,P|305:220|280:268,2,75,8|2|8,0:0|0:0|0:0,0:0:0:0:
436,56,139819,6,0,L|452:96,2,37.5,4|0|0,0:0|0:0|0:0,0:0:0:0:
424,180,140148,2,0,L|440:220,2,37.5,2|0|0,0:0|0:0|0:0,0:0:0:0:
452,304,140478,2,0,B|468:352|468:352|408:344|368:372,1,150,8|2,0:0|0:0,2:0:0:0:
280,364,140973,2,0,P|212:332|128:332,1,150,2|2,0:0|0:0,2:0:0:0:
52,356,141467,1,2,0:0:0:0:
80,176,141797,2,0,L|116:100,1,75,8|2,0:0|0:0,0:0:0:0:
200,88,142126,1,2,3:0:0:0:
336,204,142456,6,0,L|376:184,2,37.5,2|0|0,0:0|0:0|0:0,0:0:0:0:
324,116,142786,2,0,L|326:71,2,37.5,2|0|0,0:0|0:0|0:0,0:0:0:0:
412,104,143115,2,0,P|456:152|452:232,1,150,8|2,0:0|0:0,2:0:0:0:
376,284,143610,2,0,B|326:273|287:317|228:300,1,150,2|2,0:0|0:0,2:0:0:0:
156,352,144104,2,0,P|120:324|104:292,1,75,2|0,0:0|0:0,0:0:0:0:
104,168,144434,5,8,0:0:0:0:
144,88,144599,1,2,0:0:0:0:
56,96,144764,2,0,L|16:116,2,37.5,8|0|8,0:0|0:0|0:0,0:0:0:0:
200,156,145093,6,0,P|240:168|280:164,1,75,4|2,0:0|0:0,0:0:0:0:
344,108,145423,1,2,0:0:0:0:
428,136,145588,2,0,B|460:204|460:204|456:296,1,150,8|2,0:0|0:0,2:0:0:0:
404,352,146082,2,0,L|328:360,1,75,2|2,0:0|0:0,0:0:0:0:
248,324,146412,1,2,0:0:0:0:
160,352,146577,2,0,P|128:336|96:304,1,75,8|0,0:0|0:0,0:0:0:0:
108,220,146907,1,2,0:0:0:0:
108,220,147071,2,0,P|140:236|172:268,2,75,8|2|2,0:0|0:0|0:0,0:0:0:0:
192,28,147731,6,0,P|200:64|196:108,1,75,2|2,0:0|0:0,0:0:0:0:
116,68,148060,1,2,0:0:0:0:
116,68,148225,2,0,L|272:72,1,150,8|2,0:0|0:0,2:0:0:0:
336,156,148720,2,0,L|260:156,2,75,2|2|2,0:0|0:0|0:0,0:0:0:0:
404,100,149214,2,0,P|420:128|424:176,1,75,8|0,0:0|0:0,0:0:0:0:
380,248,149544,1,2,0:0:0:0:
308,304,149709,1,8,0:0:0:0:
240,244,149874,2,0,L|192:208,5,37.5,8|0|8|0|0|0,0:0|0:0|0:0|0:0|0:0|0:0,0:0:0:0:
172,244,150368,6,0,P|132:212|116:184,1,75,4|2,0:0|0:0,0:0:0:0:
128,104,150698,1,2,0:0:0:0:
204,56,150863,2,0,P|156:16|64:40,1,150,8|2,0:0|0:0,2:0:0:0:
28,108,151357,2,0,L|0:192,1,75,2|2,0:0|0:0,0:0:0:0:
48,256,151687,1,2,0:0:0:0:
48,256,151852,2,0,L|76:340,1,75,8|0,0:0|0:0,0:0:0:0:
152,364,152181,1,2,0:0:0:0:
228,316,152346,2,0,P|264:308|304:312,1,75,8|2,0:0|0:0,0:0:0:0:
380,356,152676,2,0,B|416:336|416:336|436:304,1,75,2|2,0:0|0:0,0:0:0:0:
384,172,153006,6,0,L|372:260,2,75,2|2|2,0:0|0:0|0:0,0:0:0:0:
456,116,153500,2,0,B|424:80|376:80|376:80|352:20,1,150,8|2,0:0|0:0,2:0:0:0:
264,24,153995,2,0,L|292:96,1,75,8|2,0:0|0:0,0:0:0:0:
248,196,154324,6,0,P|208:196|172:216,2,75,8|2|2,0:0|0:0|0:0,0:0:0:0:
228,284,154819,1,8,0:0:0:0:
140,304,154984,2,0,L|128:340,2,37.5,2|0|2,0:0|0:0|0:0,0:0:0:0:
64,252,155313,1,8,0:0:0:0:
72,164,155478,1,8,0:0:0:0:
152,204,155643,6,0,P|164:168|156:128,1,75,4|2,0:0|0:0,0:0:0:0:
80,72,155973,2,0,P|112:44|156:36,1,75,8|2,0:0|0:0,0:0:0:0:
232,72,156302,2,0,L|316:72,1,75,8|2,0:0|0:0,0:0:0:0:
396,28,156632,1,2,0:0:0:0:
472,88,156797,1,2,0:0:0:0:
436,176,156962,5,8,0:0:0:0:
340,164,157126,2,0,P|321:170|296:188,2,37.5,2|0|8,0:0|0:0|0:0,0:0:0:0:
372,256,157456,1,8,0:0:0:0:
292,312,157621,6,0,L|208:296,1,75,4|2,0:0|0:0,0:0:0:0:
104,276,157951,2,0,L|72:360,1,75,8|2,0:0|0:0,0:0:0:0:
184,184,158280,2,0,L|172:104,1,75,8|2,0:0|0:0,0:0:0:0:
52,76,158610,6,0,L|56:128,3,37.5,8|0|0|0,0:0|0:0|0:0|0:0,0:0:0:0:
88,148,158940,2,0,L|92:200,3,37.5,4|0|0|0,0:3|0:0|0:0|0:0,0:0:0:0:
112,228,159269,2,0,P|140:256|188:272,1,75,8|2,0:0|0:0,0:0:0:0:
264,236,159599,6,0,B|292:228|292:228|352:232,1,75,4|2,0:0|0:0,0:0:0:0:
448,328,159929,2,0,B|420:336|420:336|360:332,1,75,8|2,0:0|0:0,0:0:0:0:
396,184,160258,2,0,B|415:205|415:205|439:260,1,75,8|2,0:0|0:0,0:0:0:0:
280,340,160588,2,0,L|232:320,3,37.5,8|0|8|0,0:0|0:0|0:0|0:0,0:0:0:0:
208,292,160918,6,0,P|168:296|136:320,1,75,4|2,0:0|0:0,0:0:0:0:
52,356,161247,2,0,P|16:332|0:288,1,75,8|2,0:0|0:0,0:0:0:0:
20,208,161577,2,0,L|48:132,1,75,8|2,0:0|0:0,0:0:0:0:
108,60,161907,1,2,0:0:0:0:
204,72,162071,1,2,0:0:0:0:
264,148,162236,5,8,0:0:0:0:
356,116,162401,2,0,P|370:134|379:155,2,37.5,2|0|0,0:0|0:0|0:0,0:0:0:0:
304,32,162731,1,8,0:0:0:0:
400,32,162896,6,0,P|440:56|464:92,1,75,4|2,0:0|0:0,0:0:0:0:
456,176,163225,2,0,L|444:264,1,75,0|2,0:0|0:0,0:0:0:0:
360,356,163555,2,0,L|349:281,1,75,8|2,0:0|0:0,0:0:0:0:
252,184,163885,2,0,L|240:272,1,75,8|2,0:0|0:0,0:0:0:0:
156,364,164214,2,0,L|145:289,1,75,8|2,0:0|0:0,0:0:0:0:
56,172,164544,2,0,L|44:260,1,75,8|2,0:0|0:0,0:0:0:0:
152,136,164874,6,0,L|144:84,3,37.5,8|0|0|0,0:0|0:0|0:0|0:0,0:0:0:0:
192,80,165203,2,0,L|200:40,3,37.5,8|0|0|0,0:0|0:0|0:0|0:0,0:0:0:0:
248,36,165533,2,0,L|264:0,3,37.5,4|0|0|0,0:3|0:0|0:0|0:0,0:0:0:0:
312,16,165863,2,0,P|356:24|384:48,1,75,8|2,0:0|0:0,0:0:0:0:
428,124,166192,6,0,B|443:230|354:234|360:345,1,225,4|2,0:0|0:0,2:0:0:0:
460,332,166852,2,0,P|424:260|292:256,1,225,8|2,0:0|0:0,2:0:0:0:
220,320,167511,2,0,P|113:331|52:243,1,225,8|2,0:0|0:0,2:0:0:0:
52,148,168170,2,0,B|100:88|172:100|172:100|178:41|212:16,1,225,8|2,0:0|0:0,2:0:0:0:
276,92,168830,6,0,P|316:104|356:96,1,75,8|2,0:0|0:0,0:0:0:0:
440,40,169159,2,0,L|456:80,3,37.5,8|0|0|0,0:0|0:0|0:0|0:0,0:0:0:0:
480,116,169489,2,0,L|480:176,3,37.5,2|0|0|0,0:0|0:0|0:0|0:0,0:0:0:0:
488,200,169819,2,0,L|440:280,1,75,8|2,0:0|0:0,0:0:0:0:
348,328,170148,6,0,P|304:324|268:332,1,75,8|2,0:0|0:0,0:0:0:0:
144,376,170478,2,0,P|177:354|202:314,1,75,8|2,0:0|0:0,0:0:0:0:
160,208,170808,2,0,P|224:256|292:248,1,150,8|8,0:0|0:0,2:0:0:0:
248,160,171302,1,0,0:0:0:0:
248,160,171467,6,0,B|244:124|244:124|252:96|252:96|248:68,1,89.9999972534181,4|2,0:0|0:0,0:0:0:0:
120,32,171797,2,0,B|106:65|106:65|107:94|107:94|96:120,1,89.9999972534181,2|8,0:0|0:0,0:0:0:0:
64,228,172126,2,0,P|80:264|124:296,1,89.9999972534181,2|0,0:0|0:0,0:0:0:0:
252,264,172456,5,4,0:0:0:0:
356,296,172621,2,0,P|372:332|380:388,2,89.9999972534181,2|2|8,0:0|0:0|0:0,0:0:0:0:
456,260,173115,2,0,P|452:212|464:152,1,89.9999972534181,2|0,0:0|0:0,0:0:0:0:
372,40,173445,6,0,B|364:84|364:84|341:124,1,89.9999972534181,4|2,0:0|0:0,0:0:0:0:
176,144,173775,2,0,B|220:132|220:132|272:140,1,89.9999972534181,0|4,0:0|0:0,0:0:0:0:
372,264,174104,2,0,B|336:240|336:240|314:196,1,89.9999972534181,2|0,0:0|0:0,0:0:0:0:
232,44,174434,5,8,0:0:0:0:
128,72,174599,2,0,P|104:112|96:156,2,89.9999972534181,2|2|4,0:0|0:0|0:0,0:0:0:0:
32,24,175093,2,0,P|4:72|-4:112,1,89.9999972534181,2|0,0:0|0:0,0:0:0:0:
24,224,175423,6,0,L|28:280,3,44.999998626709,8|0|2|0,0:0|0:0|0:0|0:0,0:0:0:0:
48,320,175753,2,0,P|88:349|144:356,1,89.9999972534181,8|8,0:0|0:0,0:0:0:0:
212,292,176082,2,0,L|208:247,2,44.999998626709,2|0|8,0:0|0:0|0:0,0:0:0:0:
312,336,176412,2,0,L|324:292,3,44.999998626709,2|0|0|0,0:0|0:0|0:0|0:0,0:0:0:0:
364,268,176742,1,4,0:0:0:0:
256,192,176824,12,0,182017,0:0:0:0:
268,128,197181,5,4,0:0:0:0:
112,308,197841,5,4,0:0:0:0:
112,308,198170,1,4,0:0:0:0:
160,212,198500,2,0,P|196:240|216:316,1,120,2|0,0:0|0:0,0:0:0:0:
280,364,198995,2,0,P|336:364|392:328,1,120,2|0,0:0|0:0,0:0:0:0:
412,248,199489,2,0,L|424:100,2,120,0|0|2,0:0|0:0|0:0,0:0:0:0:
288,136,200478,6,0,L|256:72,1,60,2|0,0:0|0:0,0:0:0:0:
244,248,200973,2,0,L|184:208,1,60,0|0,0:0|0:0,0:0:0:0:
236,376,201467,2,0,L|168:368,1,60,0|0,0:0|0:0,0:0:0:0:
92,372,201797,6,0,B|56:324|56:324|52:264,1,120,2|0,0:0|0:0,0:0:0:0:
96,192,202291,2,0,B|124:136|124:136|124:72,1,120,8|0,0:3|0:0,0:0:0:0:
60,24,202786,1,4,0:3:0:0:
16,188,203115,5,4,0:0:0:0:
16,188,203445,1,4,0:0:0:0:
184,196,203775,6,0,P|241:189|312:208,1,120,2|0,0:0|0:0,0:0:0:0:
368,256,204269,2,0,P|348:192|364:136,1,120,2|0,0:0|0:0,0:0:0:0:
444,140,204764,2,0,P|464:204|448:260,1,120,0|0,0:0|0:0,0:0:0:0:
312,348,205423,1,4,0:0:0:0:
156,284,205753,6,0,B|96:204|184:120|120:44,1,240,2|0,0:0|0:0,0:0:0:0:
126,53,206742,1,2,0:0:0:0:
32,192,207071,5,8,0:3:0:0:
256,76,207566,1,4,0:3:0:0:
480,192,208060,1,4,0:3:0:0:
392,336,208390,5,4,0:0:0:0:
392,336,208720,1,4,0:0:0:0:
244,256,209049,6,0,P|180:268|144:308,1,120,2|0,0:0|0:0,0:0:0:0:
224,336,209544,2,0,L|168:216,1,120,2|0,0:0|0:0,0:0:0:0:
88,212,210039,2,0,L|8:308,2,120,0|0|2,0:0|0:0|0:0,0:0:0:0:
200,84,211028,6,0,L|240:36,1,60,0|0,0:0|0:0,0:0:0:0:
352,152,211522,2,0,L|312:104,1,60,0|0,0:0|0:0,0:0:0:0:
188,240,212017,2,0,L|228:192,1,60,0|0,0:0|0:0,0:0:0:0:
300,232,212346,6,0,P|360:244|420:212,1,120,2|0,0:0|0:0,0:0:0:0:
444,144,212841,2,0,L|476:260,1,120,8|0,0:3|0:0,0:0:0:0:
432,332,213335,1,4,0:3:0:0:
256,312,213665,5,4,0:0:0:0:
256,312,213995,1,4,0:0:0:0:
92,348,214324,6,0,B|56:296|56:296|48:236,1,120,2|0,0:0|0:0,0:0:0:0:
104,176,214819,2,0,P|152:128|172:64,1,120,0|0,0:0|0:0,0:0:0:0:
244,40,215313,2,0,P|266:95|310:135,2,120,2|0|0,0:0|0:0|0:0,0:0:0:0:
256,208,216302,1,4,0:0:0:0:
256,192,217786,12,2,218940,0:0:0:0:
200,200,219434,5,0,0:0:0:0:
328,84,219929,1,2,0:0:0:0:
216,88,220423,1,0,0:0:0:0:
376,184,220918,5,2,0:0:0:0:
288,256,221247,1,2,0:0:0:0:
436,304,221577,5,2,0:0:0:0:
208,328,222071,1,0,0:0:0:0:
384,160,222566,1,2,0:0:0:0:
316,360,223060,1,0,0:0:0:0:
308,108,223555,5,4,0:0:0:0:
464,192,223885,1,0,0:0:0:0:
228,172,224214,6,0,B|185:159|185:159|134:178|134:178|90:160|52:181,1,179.999994506836,4|2,0:0|0:0,0:0:0:0:
208,336,224874,2,0,P|248:320|280:280,1,89.9999972534181,8|2,0:0|0:0,0:0:0:0:
324,188,225203,1,0,0:0:0:0:
404,116,225368,2,0,P|431:187|384:278,1,179.999994506836,2|2,0:0|0:0,0:0:0:0:
276,284,225863,2,0,B|192:256|192:256|165:287|96:288,2,179.999994506836,2|8|2,0:0|0:0|0:0,0:0:0:0:
480,356,226852,6,0,P|512:267|508:164,1,179.999994506836,4|2,0:0|0:0,0:0:0:0:
444,100,227346,2,0,P|348:80|260:100,1,179.999994506836,0|2,0:0|0:0,0:0:0:0:
176,156,227841,2,0,P|133:142|92:108,1,89.9999972534181,0|2,0:0|0:0,0:0:0:0:
264,176,228170,2,0,P|296:200|320:248,1,89.9999972534181,0|2,0:0|0:0,0:0:0:0:
228,328,228500,2,0,P|203:296|192:243,1,89.9999972534181,0|2,0:0|0:0,0:0:0:0:
320,348,228830,2,0,L|348:384,3,44.999998626709,8|0|0|0,0:0|0:0|0:0|0:0,0:0:0:0:
400,380,229159,2,0,P|436:352|456:308,1,89.9999972534181,8|0,0:0|0:0,0:0:0:0:
512,168,229489,6,0,B|468:136|416:144|416:144|375:133|352:100,1,179.999994506836,4|2,0:0|0:0,0:0:0:0:
144,44,230148,2,0,P|136:92|152:136,2,89.9999972534181,8|2|0,0:0|0:0|0:0,0:0:0:0:
44,104,230643,2,0,B|15:184|15:184|20:292,1,179.999994506836,2|2,0:0|0:0,0:0:0:0:
116,328,231137,2,0,P|160:324|204:340,1,89.9999972534181,2|0,0:0|0:0,0:0:0:0:
308,368,231467,2,0,L|380:300,1,89.9999972534181,8|0,0:0|0:0,0:0:0:0:
484,300,231797,2,0,P|500:248|488:188,1,89.9999972534181,2|0,0:0|0:0,0:0:0:0:
320,200,232126,6,0,P|240:231|144:204,1,179.999994506836,4|2,0:0|0:0,0:0:0:0:
304,24,232786,2,0,L|320:136,2,89.9999972534181,8|2|0,0:0|0:0|0:0,0:0:0:0:
412,40,233280,2,0,B|432:128|432:128|408:220,1,179.999994506836,2|2,0:0|0:0,0:0:0:0:
328,288,233775,1,2,0:0:0:0:
276,384,233940,5,2,0:0:0:0:
268,380,234022,1,0,0:0:0:0:
260,376,234104,2,0,P|214:342|200:304,1,89.9999972534181,8|0,0:0|0:0,0:0:0:0:
160,212,234434,1,8,0:0:0:0:
104,304,234599,1,8,0:0:0:0:
40,216,234764,6,0,B|10:139|77:114|43:36,1,179.999994506836,4|0,0:0|0:0,0:0:0:0:
304,160,235423,2,0,P|352:144|388:108,1,89.9999972534181,8|2,0:0|0:0,0:0:0:0:
448,32,235753,1,0,0:0:0:0:
448,32,235918,2,0,B|480:112|480:112|484:216,1,179.999994506836,2|2,0:0|0:0,0:0:0:0:
396,268,236412,2,0,P|336:268|244:344,2,179.999994506836,2|8|2,0:0|0:0|0:0,0:0:0:0:
156,352,237401,6,0,P|112:296|104:176,1,179.999994506836,4|2,0:0|0:0,0:0:0:0:
160,64,237896,2,0,P|204:120|212:240,1,179.999994506836,0|2,0:0|0:0,0:0:0:0:
292,304,238390,2,0,P|336:292|368:256,1,89.9999972534181,0|2,0:0|0:0,0:0:0:0:
356,152,238720,2,0,L|340:48,1,89.9999972534181,0|2,0:0|0:0,0:0:0:0:
460,160,239049,2,0,L|500:64,1,89.9999972534181,0|2,0:0|0:0,0:0:0:0:
464,256,239379,2,0,L|468:312,2,44.999998626709,8|0|0,0:3|0:0|0:0,0:0:0:0:
376,320,239709,2,0,L|352:372,3,44.999998626709,8|0|8|0,0:0|0:0|0:0|0:0,0:0:0:0:
312,356,240039,6,0,P|272:340|232:344,1,75,4|0,0:0|0:0,0:0:0:0:
156,368,240368,2,0,P|115:371|77:355,1,75,2|0,0:0|0:0,0:0:0:0:
32,284,240698,2,0,L|20:188,1,75,8|2,0:0|0:0,0:0:0:0:
96,156,241028,1,0,0:0:0:0:
96,156,241192,2,0,L|116:72,1,75,2|0,0:0|0:0,0:0:0:0:
192,36,241522,1,2,0:0:0:0:
256,100,241687,2,0,P|296:108|332:100,1,75,2|0,0:0|0:0,0:0:0:0:
408,60,242017,2,0,B|440:84|440:84|460:112,1,75,8|0,0:0|0:0,0:0:0:0:
440,200,242346,1,2,0:0:0:0:
252,368,242676,6,0,P|240:304|272:224,2,150,4|2|8,0:0|0:0|0:0,2:0:0:0:
344,364,243500,2,0,L|420:348,1,75,2|0,0:0|0:0,0:0:0:0:
432,260,243830,2,0,L|344:224,1,75,2|0,0:0|0:0,0:0:0:0:
269,226,244159,2,0,P|228:236|192:232,1,75,2|2,0:0|0:0,0:0:0:0:
112,164,244489,5,2,0:0:0:0:
108,156,244571,1,0,0:0:0:0:
104,148,244654,2,0,L|104:68,1,75,8|2,0:0|0:0,0:0:0:0:
188,36,244984,1,8,0:0:0:0:
256,96,245148,1,8,0:0:0:0:
340,68,245313,6,0,B|398:43|436:98|504:72,1,150,4|2,0:0|0:0,2:0:0:0:
368,272,245973,2,0,P|328:284|280:284,1,75,8|2,0:0|0:0,0:0:0:0:
220,236,246302,1,0,0:0:0:0:
152,332,246467,2,0,P|104:260|116:192,1,150,2|2,0:0|0:0,2:0:0:0:
192,136,246962,2,0,B|249:129|249:129|275:156|275:156|338:156,2,150,2|8|2,0:0|0:0|0:0,2:0:0:0:
16,100,247951,6,0,P|60:41|147:27,1,150,4|2,0:0|0:0,2:0:0:0:
216,56,248445,1,0,0:0:0:0:
300,20,248610,2,0,P|328:56|372:72,1,75,8|2,0:0|0:0,0:0:0:0:
444,76,248940,1,0,0:0:0:0:
444,76,249104,6,0,P|464:160|440:224,1,150,2|2,0:0|0:0,2:0:0:0:
372,272,249599,1,0,0:0:0:0:
288,240,249764,1,2,0:0:0:0:
216,292,249929,2,0,L|216:348,3,37.5,8|0|0|0,0:3|0:0|0:0|0:0,0:0:0:0:
176,352,250258,2,0,B|140:336|140:336|100:292,1,75,8|0,0:0|0:0,0:0:0:0:
52,180,250588,6,0,L|44:256,1,75,4|0,0:0|0:0,0:0:0:0:
152,216,250918,2,0,L|144:141,1,75,2|0,0:0|0:0,0:0:0:0:
248,104,251247,2,0,L|240:180,2,75,8|2|0,0:0|0:0|0:0,0:0:0:0:
336,80,251742,6,0,P|376:144|452:164,1,150,2|2,0:0|0:0,2:0:0:0:
432,64,252236,2,0,L|384:136,1,75,2|0,0:0|0:0,0:0:0:0:
412,240,252566,2,0,P|376:256|340:256,1,75,8|0,0:0|0:0,0:0:0:0:
260,216,252896,1,2,0:0:0:0:
180,260,253060,1,0,0:0:0:0:
148,344,253225,6,0,P|80:356|24:292,1,150,4|2,0:0|0:0,2:0:0:0:
12,212,253720,1,0,0:0:0:0:
40,128,253885,2,0,L|40:52,2,75,8|2|0,0:0|0:0|0:0,0:0:0:0:
116,176,254379,2,0,P|188:148|224:76,1,150,2|2,0:0|0:0,2:0:0:0:
292,28,254874,2,0,P|332:32|368:52,1,75,0|2,0:0|0:0,0:0:0:0:
404,168,255203,6,0,L|408:248,1,75,8|2,0:0|0:0,0:0:0:0:
368,324,255533,1,8,0:0:0:0:
292,276,255698,1,8,0:0:0:0:
212,316,255863,6,0,B|156:296|156:296|112:328|48:304,1,150,4|2,0:0|0:0,2:0:0:0:
120,112,256522,2,0,L|152:24,2,75,8|2|0,0:0|0:0|0:0,0:0:0:0:
36,140,257017,2,0,P|84:192|160:188,1,150,2|2,0:0|0:0,2:0:0:0:
212,112,257511,2,0,P|252:100|300:104,1,75,2|0,0:0|0:0,0:0:0:0:
348,164,257841,2,0,L|376:248,1,75,8|0,0:0|0:0,0:0:0:0:
408,104,258170,2,0,L|384:32,1,75,2|0,0:0|0:0,0:0:0:0:
268,192,258500,6,0,P|216:232|136:224,1,150,4|2,0:0|0:0,2:0:0:0:
268,192,259159,2,0,P|284:228|292:276,2,75,8|2|0,0:0|0:0|0:0,0:0:0:0:
196,140,259654,2,0,P|184:96|244:16,1,150,2|2,0:0|0:0,2:0:0:0:
324,52,260148,1,0,0:0:0:0:
372,128,260313,1,2,0:0:0:0:
352,216,260478,2,0,L|356:264,3,37.5,8|0|0|0,0:3|0:0|0:0|0:0,0:0:0:0:
380,292,260808,2,0,L|344:364,1,75,8|0,0:0|0:0,0:0:0:0:
256,376,261137,6,0,P|188:352|112:144,2,300,4|0|0,0:1|0:0|0:0,0:0:0:0:
256,104,262951,2,0,L|256:148,2,37.5,2|0|8,1:0|1:0|1:0,0:0:0:0:
256,12,263280,1,2,1:0:0:0:
256,376,263775,6,0,P|324:352|400:144,2,300,4|0|0,0:1|0:0|0:0,0:0:0:0:
256,104,265588,2,0,L|256:148,2,37.5,2|0|8,1:0|1:0|1:0,0:0:0:0:
256,12,265918,1,2,1:0:0:0:
176,52,266082,2,0,P|124:72|64:56,1,112.5,8|0,0:0|0:0,0:0:0:0:
70,59,266412,6,0,L|72:144,1,75,4|2,0:0|0:0,0:0:0:0:
120,212,266742,1,0,0:0:0:0:
196,264,266907,1,0,0:0:0:0:
200,272,266989,1,0,0:0:0:0:
204,280,267071,2,0,P|180:336|120:352,2,112.5,8|2|0,0:0|0:0|0:0,2:0:0:0:
324,144,267896,6,0,L|320:196,2,37.5,0|0|2,0:0|0:0|0:0,0:0:0:0:
392,84,268225,1,0,0:0:0:0:
464,140,268390,2,0,L|472:200,3,37.5,8|0|0|0,0:0|0:0|0:0|0:0,0:0:0:0:
452,220,268720,2,0,L|444:308,1,75,2|0,0:0|0:0,0:0:0:0:
336,332,269049,6,0,P|300:316|260:316,1,75,4|2,0:0|0:0,0:0:0:0:
180,344,269379,1,0,0:0:0:0:
104,296,269544,1,0,0:0:0:0:
104,287,269626,1,0,0:0:0:0:
105,278,269708,2,0,L|156:156,2,112.5,0|0|0,0:0|0:0|0:0,2:0:0:0:
36,80,270533,6,0,L|20:128,2,37.5,0|0|0,0:0|0:0|0:0,0:0:0:0:
108,24,270863,1,0,0:0:0:0:
184,72,271028,2,0,P|220:96|256:104,1,75,8|2,0:0|0:0,0:0:0:0:
320,48,271357,1,8,0:0:0:0:
364,288,271687,6,0,L|344:212,1,75,4|2,0:0|0:0,0:0:0:0:
256,216,272017,1,0,0:0:0:0:
196,280,272181,1,0,0:0:0:0:
188,284,272263,1,0,0:0:0:0:
180,288,272346,2,0,P|124:264|108:204,2,112.5,0|0|0,0:0|0:0|0:0,2:0:0:0:
408,176,273170,6,0,L|420:224,2,37.5,0|0|0,0:0|0:0|0:0,0:0:0:0:
280,48,273665,2,0,L|264:88,3,37.5,8|0|0|0,0:0|0:0|0:0|0:0,0:0:0:0:
228,56,273995,2,0,P|184:64|152:92,1,75,2|0,0:0|0:0,0:0:0:0:
112,160,274324,6,0,L|96:244,1,75,4|2,0:0|0:0,0:0:0:0:
164,296,274654,1,0,0:0:0:0:
248,260,274819,1,0,0:0:0:0:
256,256,274901,1,0,0:0:0:0:
264,252,274983,2,0,B|305:243|340:288|376:280,2,112.5,8|2|0,0:0|0:0|0:0,2:0:0:0:
256,72,275808,6,0,L|264:120,2,37.5,0|0|2,0:0|0:0|0:0,0:0:0:0:
427,110,276302,1,8,0:0:0:0:
437,198,276467,1,8,0:0:0:0:
400,280,276632,1,8,0:0:0:0:
321,320,276797,1,2,0:0:0:0:
