osu file format v13

[General]
AudioFilename: Morning glow.mp3
AudioLeadIn: 2000
PreviewTime: 86989
Countdown: 0
SampleSet: Normal
StackLeniency: 0.7
Mode: 0
LetterboxInBreaks: 1
WidescreenStoryboard: 0

[Editor]
Bookmarks: 76796
DistanceSpacing: 1.1
BeatDivisor: 2
GridSize: 4
TimelineZoom: 1

[Metadata]
Title:Morning glow
TitleUnicode:Morning glow
Artist:Draw the Emotional
ArtistUnicode:Draw the Emotional
Creator:UnitedWeSin
Version:Easy
Source:Touhou
Tags:collapse of the sky yuyoyuppe ゆよゆっぺ kadochi カドチ c78 聖 白蓮 hijiri byakuren 法界の火 fires of hokkai 東方星蓮船 Undefined Fantastic Object. 締め切り前日のおまいら shimekiri zenjitsu no o maira uws
BeatmapID:363296
BeatmapSetID:146626

[Difficulty]
HPDrainRate:2
CircleSize:3
OverallDifficulty:2
ApproachRate:3
SliderMultiplier:0.8
SliderTickRate:1

[Events]
//Background and Video events
0,0,"bg.jpg",0,0
//Break Periods
2,113645,133104
2,182217,196401
//Storyboard Layer 0 (Background)
//Storyboard Layer 1 (Fail)
//Storyboard Layer 2 (Pass)
//Storyboard Layer 3 (Foreground)
//Storyboard Sound Samples
//Background Colour Transformations
3,100,163,162,255

[TimingPoints]
39,329.67032967033,4,2,1,30,1,0
39,-100,4,2,1,30,0,0
698,-100,4,2,2,30,0,0
3995,-100,4,2,1,30,0,0
5973,-100,4,2,2,30,0,0
10588,-100,4,2,1,30,0,0
11247,-100,4,2,2,30,0,0
14544,-100,4,2,1,30,0,0
16522,-100,4,2,2,30,0,0
21137,-100,4,2,1,50,0,0
21632,-100,4,2,2,50,0,0
25093,-100,4,2,1,50,0,0
27401,-100,4,2,2,50,0,0
31687,-100,4,2,1,50,0,0
32181,-100,4,2,2,50,0,0
35643,-100,4,2,1,50,0,0
37621,-100,4,2,2,50,0,0
42236,-100,4,1,1,70,0,1
42319,-100,4,1,1,70,0,0
63335,-100,4,2,1,50,0,0
87071,-100,4,1,1,70,0,1
108170,-100,4,2,1,70,0,1
110973,-100,4,1,1,20,0,1
112126,-100,4,1,1,40,0,1
112456,-100,4,1,1,50,0,1
112786,-100,4,1,1,60,0,1
113445,-100,4,1,1,60,0,0
155643,-100,4,1,1,70,0,0
166192,-100,4,1,1,60,0,0
171467,-100,4,1,1,70,0,1
176742,-100,4,2,1,50,0,0
176824,-100,4,2,1,5,0,0
197841,-100,4,2,2,50,0,0
198500,-100,4,2,2,30,0,0
200148,-100,4,2,2,40,0,0
200973,-100,4,2,2,30,0,0
201797,-100,4,2,2,50,0,0
203775,-100,4,2,2,30,0,0
205423,-100,4,2,2,40,0,0
207071,-100,4,2,2,50,0,0
209049,-100,4,2,2,30,0,0
210698,-100,4,2,2,40,0,0
211522,-100,4,2,2,30,0,0
212017,-100,4,2,2,20,0,0
212346,-100,4,2,2,50,0,0
214324,-100,4,2,2,30,0,0
218280,-100,4,2,1,50,0,0
218940,-100,4,2,2,40,0,0
224214,-100,4,1,1,70,0,1
240039,-100,4,1,1,70,0,0
240203,-100,4,1,1,30,0,0
242676,-100,4,1,1,70,0,0
261137,-100,4,2,1,70,0,0
266412,-100,4,1,1,60,0,0
276302,-100,4,1,1,70,0,0

[Colours]
Combo1 : 132,157,108
Combo2 : 105,81,121
Combo3 : 190,82,85

[HitObjects]
120,88,39,6,0,L|140:180,1,80,8|8,0:0|0:0,0:0:0:0:
204,220,698,2,0,P|278:235|326:211,2,120,2|0|2,0:0|0:0|0:0,0:0:0:0:
204,86,2181,2,0,P|260:67|316:85,1,120,2|0,0:0|0:0,0:0:0:0:
384,144,3006,1,0,0:0:0:0:
400,232,3335,6,0,B|385:294|327:305|312:368,1,160,2|8,0:0|0:0,0:0:0:0:
184,336,4489,2,0,L|52:312,1,120,2|8,0:0|0:0,0:0:0:0:
28,236,5313,5,8,0:0:0:0:
28,148,5643,1,8,0:0:0:0:
112,120,5973,2,0,P|176:96|208:56,2,120,2|0|2,0:0|0:0|0:0,0:0:0:0:
200,220,7456,2,0,L|316:248,1,120,2|0,0:0|0:0,0:0:0:0:
404,236,8280,5,0,0:0:0:0:
460,304,8610,2,0,P|492:248|480:192,2,120,2|0|2,0:0|0:0|0:0,0:0:0:0:
340,356,10093,2,0,L|224:384,1,120,2|8,0:0|0:0,0:0:0:0:
136,364,10918,5,8,0:0:0:0:
64,316,11247,2,0,B|52:276|68:240|68:240|40:188,2,120,2|0|2,0:0|0:0|0:0,0:0:0:0:
192,288,12731,2,0,P|224:244|228:176,1,120,2|0,0:0|0:0,0:0:0:0:
176,108,13555,1,0,0:0:0:0:
248,56,13885,6,0,B|308:33|349:76|409:54,1,160,2|8,0:0|0:0,0:0:0:0:
480,164,15039,2,0,L|476:292,1,120,2|8,0:0|0:0,0:0:0:0:
412,348,15863,5,8,0:0:0:0:
328,316,16192,1,8,0:0:0:0:
252,356,16522,2,0,L|124:352,1,120,2|0,0:0|0:0,0:0:0:0:
12,296,17511,2,0,P|-8:224|8:176,2,120,2|2|0,0:0|0:0|0:0,0:0:0:0:
96,276,18830,5,0,0:0:0:0:
184,292,19159,2,0,B|240:268|240:268|276:212,1,120,2|0,0:0|0:0,0:0:0:0:
296,88,20148,2,0,P|364:132|397:214,1,160,2|0,0:0|0:0,0:0:0:0:
452,268,21137,6,0,P|412:304|338:306,1,120,8|0,0:0|0:0,0:0:0:0:
232,252,22126,2,0,P|150:216|87:254,2,160,2|0|0,0:0|0:0|0:0,0:0:0:0:
159,304,23775,6,0,B|159:224|159:224|206:159,1,160,2|0,0:0|0:0,0:0:0:0:
384,152,25093,2,0,B|420:132|420:132|452:56,2,120,2|2|2,0:0|0:0|0:0,0:0:0:0:
328,220,26412,5,8,0:0:0:0:
244,188,26742,2,0,L|160:188,1,80,8|0,0:0|0:0,0:0:0:0:
92,240,27401,2,0,P|40:188|44:104,1,160,2|2,0:0|0:0,0:0:0:0:
104,44,28390,1,0,0:0:0:0:
244,148,29049,6,0,B|296:168|356:124|408:156,2,160,2|0|0,0:0|0:0|0:0,0:0:0:0:
72,200,31028,2,0,P|62:240|76:284,1,80,0|2,0:0|0:0,0:0:0:0:
160,284,31687,6,0,P|232:280|304:336,1,160,2|2,0:0|0:0,0:0:0:0:
380,364,32676,2,0,B|444:340|452:272|452:272|428:224,1,160,0|0,0:0|0:0,0:0:0:0:
392,164,33665,1,2,0:0:0:0:
244,68,34324,6,0,P|204:104|214:211,1,160,2|2,0:0|0:0,0:0:0:0:
292,228,35313,2,0,P|331:191|321:84,1,160,0|0,0:0|0:0,0:0:0:0:
164,20,36632,1,2,0:0:0:0:
84,60,36962,6,0,L|56:140,1,80,8|8,0:0|0:0,0:0:0:0:
16,216,37621,1,0,0:0:0:0:
64,292,37951,2,0,B|120:316|170:283|170:283|224:284,1,160,2|0,0:0|0:0,0:0:0:0:
308,284,38940,2,0,P|340:240|320:132,1,160,2|0,0:0|0:0,0:0:0:0:
256,192,39764,12,0,40918,0:0:0:0:
348,200,42236,6,0,P|292:264|216:268,1,160,4|8,0:1|0:0,2:0:0:0:
112,196,43390,2,0,P|45:234|28:282,1,120,8|2,0:0|0:0,2:0:0:0:
84,340,44214,2,0,L|168:364,1,80,8|2,0:0|0:0,0:0:0:0:
240,324,44874,6,0,B|284:316|284:316|320:328|320:328|368:320|412:324,1,160,6|8,0:0|0:0,2:0:0:0:
484,224,46028,2,0,B|488:160|488:160|464:104,1,120,8|2,0:0|0:0,2:0:0:0:
392,60,46852,2,0,P|354:65|312:60,1,80,8|8,0:0|0:0,0:0:0:0:
232,24,47511,6,0,P|180:60|160:156,1,160,4|8,0:0|0:0,2:0:0:0:
252,244,48665,2,0,P|208:284|144:292,1,120,8|2,0:0|0:0,2:0:0:0:
64,276,49489,1,8,0:0:0:0:
4,212,49819,1,2,0:0:0:0:
20,124,50148,6,0,B|44:92|48:48|48:48|96:68|136:48,1,160,6|8,0:0|0:0,2:0:0:0:
252,24,51302,2,0,P|296:48|320:120,1,120,8|0,0:0|0:0,2:0:0:0:
300,196,52126,2,0,L|284:280,1,80,8|2,0:0|0:0,0:0:0:0:
364,312,52786,6,0,L|378:233,1,80,4|0,0:0|0:0,0:0:0:0:
428,160,53445,2,0,B|464:188|468:228|468:228|460:288,2,120,8|8|2,0:0|0:0|0:0,2:0:0:0:
344,136,54764,2,0,P|303:133|262:114,1,80,8|2,0:0|0:0,0:0:0:0:
196,68,55423,6,0,L|116:68,1,80,6|0,0:0|0:0,0:0:0:0:
44,120,56082,2,0,B|20:160|24:196|24:196|56:224,2,120,8|8|2,0:0|0:0|0:0,2:0:0:0:
116,68,57401,2,0,P|164:104|192:196,1,160,8|4,0:0|0:0,2:0:0:0:
224,368,58720,6,0,P|278:350|324:298,2,120,8|8|2,0:0|0:0|0:0,2:0:0:0:
160,308,60039,2,0,P|120:296|80:296,1,80,8|2,0:0|0:0,0:0:0:0:
32,368,60698,6,0,L|12:188,1,160,6|8,0:0|0:0,2:0:0:0:
96,104,61852,2,0,P|148:108|200:156,1,120,8|2,0:0|0:0,2:0:0:0:
264,212,62676,2,0,P|304:208|344:188,1,80,8|8,0:0|0:0,0:0:0:0:
408,136,63335,6,0,P|464:176|484:276,1,160,4|8,0:0|0:0,0:0:0:0:
444,340,64324,2,0,B|376:364|356:308|284:348,1,160,0|0,0:0|0:0,0:0:0:0:
200,360,65313,1,8,0:0:0:0:
88,224,65973,6,0,P|40:256|20:356,2,160,2|8|0,0:0|0:0|0:0,0:0:0:0:
264,212,67951,2,0,P|304:196|340:160,1,80,8|2,0:0|0:0,0:0:0:0:
308,88,68610,6,0,L|148:92,1,160,4|8,0:0|0:0,0:0:0:0:
120,176,69599,2,0,L|280:172,1,160,0|0,0:0|0:0,0:0:0:0:
368,156,70588,1,8,0:0:0:0:
412,328,71247,6,0,P|344:336|260:288,2,160,2|8|0,0:0|0:0|0:0,0:0:0:0:
480,164,73225,2,0,L|480:84,1,80,8|8,0:0|0:0,0:0:0:0:
392,100,73885,6,0,P|332:68|232:76,1,160,4|8,0:0|0:0,0:0:0:0:
212,156,74874,2,0,P|132:148|80:88,1,160,0|0,0:0|0:0,0:0:0:0:
136,20,75863,2,0,L|136:216,1,160,8|2,0:0|0:0,0:0:0:0:
232,328,77181,6,0,L|320:328,1,80,8|0,0:0|0:0,0:0:0:0:
392,368,77841,2,0,P|424:332|440:212,1,160,0|8,0:0|0:0,0:0:0:0:
384,160,78830,1,2,0:0:0:0:
304,196,79159,6,0,L|144:196,1,160,4|8,0:0|0:0,0:0:0:0:
84,260,80148,2,0,P|56:188|100:120,1,160,0|0,0:0|0:0,0:0:0:0:
184,108,81137,1,8,0:0:0:0:
328,208,81797,6,0,P|376:176|416:68,1,160,2|8,0:0|0:0,0:0:0:0:
472,16,82786,2,0,L|504:180,1,160,0|0,0:0|0:0,0:0:0:0:
500,260,83775,2,0,P|472:288|432:300,1,80,8|8,0:0|0:0,0:0:0:0:
368,244,84434,6,0,B|344:272|346:302|346:302|304:291|304:291|258:330,2,160,2|8|0,0:0|0:0|0:0,0:0:0:0:
384,68,86412,1,2,0:0:0:0:
216,116,87071,6,0,B|200:155|200:155|204:191|204:191|190:237,1,120,4|0,0:0|0:0,2:0:0:0:
108,332,88060,2,0,P|54:311|16:244,2,120,0|2|8,0:0|0:0|0:0,2:0:0:0:
196,316,89379,1,2,0:0:0:0:
264,372,89709,6,0,L|388:368,1,120,6|0,0:0|0:0,2:0:0:0:
472,272,90698,2,0,L|472:148,1,120,0|2,0:0|0:0,2:0:0:0:
364,76,91687,2,0,L|364:172,1,80,8|8,0:0|0:0,0:0:0:0:
320,232,92346,6,0,B|272:256|248:212|188:232,1,120,4|0,0:0|0:0,2:0:0:0:
108,320,93335,2,0,P|52:276|44:228,2,120,0|2|8,0:0|0:0|0:0,2:0:0:0:
196,312,94654,1,2,0:0:0:0:
276,348,94984,6,0,B|312:320|320:284|320:284|360:272,2,120,4|0|0,0:0|0:0|0:0,2:0:0:0:
196,312,96302,2,0,L|196:232,1,80,0|0,0:0|0:0,0:0:0:0:
112,208,96962,2,0,L|112:128,1,80,8|8,0:0|0:0,0:0:0:0:
172,64,97621,6,0,B|212:48|212:48|252:72|292:60,1,120,4|0,0:0|0:0,2:0:0:0:
416,40,98610,2,0,P|464:88|472:152,2,120,0|2|8,0:0|0:0|0:0,2:0:0:0:
364,108,99929,1,2,0:0:0:0:
308,176,100258,6,0,P|252:192|188:172,1,120,4|0,0:0|0:0,2:0:0:0:
96,88,101247,2,0,B|62:135|62:135|60:220,1,120,0|2,0:0|0:0,2:0:0:0:
124,312,102236,1,8,0:0:0:0:
208,284,102566,1,8,0:0:0:0:
272,348,102896,6,0,B|320:372|344:328|404:348,1,120,4|0,0:0|0:0,2:0:0:0:
500,272,103885,2,0,P|508:204|480:160,2,120,0|2|8,0:0|0:0|0:0,2:0:0:0:
424,228,105203,1,2,0:0:0:0:
340,204,105533,6,0,L|220:204,1,120,4|0,0:0|0:0,2:0:0:0:
100,264,106522,2,0,P|40:212|32:132,1,160,0|0,0:0|0:0,2:0:0:0:
104,84,107511,2,0,L|192:84,1,80,8|8,0:0|0:0,0:0:0:0:
256,32,108170,6,0,B|308:128|192:176|256:264,1,240,4|0,0:1|0:0,0:0:0:0:
504,312,110148,2,0,P|492:260|388:208,1,160,8|4,0:0|0:1,0:0:0:0:
256,192,110973,12,4,113445,0:0:0:0:
368,316,134544,6,0,P|384:280|384:232,1,80,4|2,0:0|0:0,0:0:0:0:
328,172,135203,1,8,0:0:0:0:
296,256,135533,2,0,P|211:275|136:256,1,160,2|2,0:0|0:0,2:0:0:0:
76,200,136522,1,8,0:0:0:0:
204,80,137181,6,0,L|216:168,2,80,2|2|8,0:0|0:0|0:0,0:0:0:0:
276,28,138170,2,0,P|364:40|404:104,1,160,2|2,0:0|0:0,2:0:0:0:
392,180,139159,2,0,L|360:264,1,80,8|8,0:0|0:0,0:0:0:0:
308,324,139819,6,0,P|200:296|160:232,1,160,4|8,0:0|0:0,2:0:0:0:
144,176,140808,2,0,L|84:328,2,160,2|2|2,0:0|0:0|3:0,2:0:0:0:
200,108,142456,6,0,P|236:92|288:96,2,80,2|2|8,0:0|0:0|0:0,0:0:0:0:
256,176,143445,2,0,P|340:148|360:80,1,160,2|2,0:0|0:0,2:0:0:0:
440,48,144434,2,0,L|472:132,1,80,8|8,0:0|0:0,0:0:0:0:
492,208,145093,6,0,P|472:260|420:296,1,120,4|8,0:0|0:0,2:0:0:0:
296,248,146082,2,0,L|172:252,2,120,2|8|8,0:0|0:0|0:0,2:0:0:0:
332,328,147401,1,2,0:0:0:0:
252,368,147731,6,0,L|116:372,1,120,2|8,0:0|0:0,2:0:0:0:
28,292,148720,2,0,P|16:236|36:172,1,120,2|8,0:0|0:0,2:0:0:0:
136,96,149709,2,0,L|220:104,1,80,8|8,0:0|0:0,0:0:0:0:
288,156,150368,6,0,B|328:160|356:120|356:120|404:144,1,120,4|8,0:0|0:0,2:0:0:0:
472,240,151357,2,0,L|476:364,2,120,2|8|8,0:0|0:0|0:0,2:0:0:0:
384,224,152676,1,2,0:0:0:0:
312,276,153006,6,0,P|268:276|200:232,1,120,2|8,0:0|0:0,2:0:0:0:
128,132,153995,2,0,P|97:159|84:228,2,80,8|8|2,0:0|0:0|0:0,0:0:0:0:
212,108,154984,2,0,P|256:96|288:64,1,80,2|8,0:0|0:0,0:0:0:0:
212,20,155643,6,0,L|284:184,1,160,4|8,0:0|0:0,2:0:0:0:
364,172,156632,1,2,0:0:0:0:
432,228,156962,2,0,P|448:263|448:303,1,80,8|8,0:0|0:0,0:0:0:0:
372,352,157621,6,0,P|296:336|216:372,1,160,4|8,0:0|0:0,2:0:0:0:
136,380,158610,1,8,0:0:0:0:
56,340,158940,1,4,0:3:0:0:
24,260,159269,1,8,0:0:0:0:
56,176,159599,6,0,B|76:96|76:96|52:20,2,160,4|8|4,0:0|0:0|0:0,2:0:0:0:
108,248,161247,2,0,L|188:260,1,80,8|8,0:0|0:0,0:0:0:0:
268,228,161907,1,2,0:0:0:0:
316,304,162236,2,0,L|396:316,1,80,8|8,0:0|0:0,0:0:0:0:
476,276,162896,6,0,P|493:232|492:192,1,80,4|0,0:0|0:0,0:0:0:0:
408,180,163555,2,0,P|372:124|404:36,2,160,8|8|8,0:0|0:0|0:0,2:0:0:0:
376,264,165203,2,0,P|344:296|304:308,2,80,8|4|8,0:0|0:3|0:0,0:0:0:0:
300,220,166192,6,0,B|232:232|224:308|224:308|160:356|96:344|60:260,2,320,4|8|8,0:0|0:0|0:0,2:0:0:0:
376,260,169159,6,0,P|419:267|464:260,2,80,8|2|8,0:0|0:0|0:0,0:0:0:0:
372,172,170148,2,0,L|388:8,2,160,8|8|4,0:0|0:0|0:0,2:0:0:0:
316,240,171797,6,0,P|272:248|228:240,1,80,2|2,0:0|0:0,0:0:0:0:
156,212,172456,2,0,L|96:268,2,80,4|2|2,0:0|0:0|0:0,0:0:0:0:
224,156,173445,2,0,L|228:68,2,80,4|2|2,0:0|0:0|0:0,0:0:0:0:
304,192,174434,6,0,P|349:187|380:167,1,80,8|2,0:0|0:0,0:0:0:0:
404,84,175093,1,2,0:0:0:0:
476,136,175423,2,0,B|499:205|446:234|475:292,2,160,8|2|4,0:0|0:0|0:0,2:0:0:0:
256,192,176907,12,0,182017,0:0:0:0:
336,140,197841,6,0,L|312:224,1,80,4|4,0:0|0:0,0:0:0:0:
256,284,198500,2,0,P|192:292|140:384,2,160,2|0|0,0:0|0:0|0:0,0:0:0:0:
428,324,200478,2,0,P|472:248|464:172,1,160,2|0,0:0|0:0,0:0:0:0:
292,148,201797,6,0,P|248:172|171:163,2,120,2|8|4,0:0|0:3|0:3,0:0:0:0:
352,84,203115,6,0,P|374:122|380:164,1,80,4|4,0:0|0:0,0:0:0:0:
332,232,203775,2,0,B|332:332|332:332|372:392,2,160,2|0|0,0:0|0:0|0:0,0:0:0:0:
264,176,205423,1,4,0:0:0:0:
188,220,205753,2,0,P|112:232|84:156,1,160,2|0,0:0|0:0,0:0:0:0:
240,88,207071,6,0,B|284:76|328:108|328:108|360:84,2,120,8|4|4,0:3|0:3|0:3,0:0:0:0:
168,136,208390,6,0,P|144:168|136:216,1,80,4|4,0:0|0:0,0:0:0:0:
180,284,209049,2,0,B|224:316|288:316|332:284,2,160,2|0|0,0:0|0:0|0:0,0:0:0:0:
8,328,211028,2,0,L|-8:168,1,160,0|0,0:0|0:0,0:0:0:0:
148,88,212346,6,0,P|208:112|232:168,2,120,2|8|4,0:0|0:3|0:3,0:0:0:0:
144,176,213665,6,0,L|160:256,1,80,4|4,0:0|0:0,0:0:0:0:
228,312,214324,2,0,P|320:308|372:260,2,160,2|0|0,0:0|0:0|0:0,0:0:0:0:
252,136,216302,1,4,0:0:0:0:
48,336,218280,6,0,B|42:284|42:284|53:232|53:232|40:168,1,160,8|2,0:0|0:0,0:0:0:0:
112,64,219434,6,0,L|236:64,2,120,0|2|0,0:0|0:0|0:0,0:0:0:0:
84,192,220918,2,0,L|168:192,2,80,2|2|2,0:0|0:0|0:0,0:0:0:0:
112,320,222071,6,0,L|236:320,2,120,0|2|0,0:0|0:0|0:0,0:0:0:0:
84,192,223555,2,0,L|168:192,1,80,4|0,0:0|0:0,0:0:0:0:
256,196,224214,6,0,B|278:156|228:114|256:76,1,120,4|0,0:0|0:0,2:0:0:0:
384,48,225203,2,0,P|418:98|416:171,1,120,0|2,0:0|0:0,2:0:0:0:
348,268,226192,1,8,0:0:0:0:
388,348,226522,1,2,0:0:0:0:
300,344,226852,6,0,B|265:324|258:280|258:280|208:264,2,120,4|0|0,0:0|0:0|0:0,2:0:0:0:
388,348,228170,2,0,P|420:328|440:288,1,80,0|0,0:0|0:0,0:0:0:0:
420,204,228830,2,0,L|420:120,1,80,8|8,0:0|0:0,0:0:0:0:
476,56,229489,6,0,P|408:36|356:64,1,120,4|0,0:0|0:0,2:0:0:0:
292,164,230478,2,0,P|236:164|184:128,2,120,0|2|8,0:0|0:0|0:0,2:0:0:0:
376,140,231797,1,2,0:0:0:0:
448,192,232126,6,0,B|464:232|464:232|440:320,1,120,4|0,0:0|0:0,2:0:0:0:
312,320,233115,2,0,P|263:285|204:284,1,120,0|2,0:0|0:0,2:0:0:0:
76,316,234104,1,8,0:0:0:0:
76,228,234434,1,8,0:0:0:0:
76,140,234764,6,0,B|76:76|76:76|104:40|128:40,1,120,4|0,0:0|0:0,2:0:0:0:
228,116,235753,2,0,P|248:72|232:-8,2,120,0|2|8,0:0|0:0|0:0,2:0:0:0:
168,180,237071,1,2,0:0:0:0:
224,248,237401,6,0,B|272:268|296:216|352:228,2,120,4|0|0,0:0|0:0|0:0,2:0:0:0:
152,300,238720,2,0,L|60:300,1,80,0|0,0:0|0:0,0:0:0:0:
28,224,239379,2,0,P|16:157|48:72,1,160,8|4,0:3|0:0,2:0:0:0:
256,192,240203,12,4,242676,0:0:0:0:
220,116,243995,6,0,L|204:204,2,80,0|2|8,0:0|0:0|0:0,0:0:0:0:
292,64,244984,1,8,0:0:0:0:
368,108,245313,6,0,P|416:188|412:256,1,160,4|8,0:0|0:0,2:0:0:0:
340,300,246302,2,0,P|260:292|184:324,1,160,0|2,0:0|0:0,2:0:0:0:
108,356,247291,2,0,B|72:336|72:336|48:296,1,80,8|2,0:0|0:0,0:0:0:0:
96,224,247951,6,0,L|116:56,2,160,4|8|0,0:0|0:0|0:0,2:0:0:0:
160,284,249599,1,0,0:0:0:0:
248,272,249929,2,0,P|276:240|288:192,1,80,8|8,0:3|0:0,0:0:0:0:
236,136,250588,6,0,P|280:120|324:128,1,80,4|2,0:0|0:0,0:0:0:0:
396,156,251247,2,0,P|436:108|420:24,2,120,8|2|2,0:0|0:0|0:0,2:0:0:0:
328,212,252566,2,0,P|308:232|288:288,1,80,8|2,0:0|0:0,0:0:0:0:
376,284,253225,6,0,L|272:132,1,160,4|8,0:0|0:0,2:0:0:0:
176,80,254379,2,0,P|128:128|108:184,1,120,2|0,0:0|0:0,2:0:0:0:
140,260,255203,2,0,L|140:344,1,80,8|8,0:0|0:0,0:0:0:0:
228,332,255863,6,0,B|285:303|314:356|386:332,1,160,4|8,0:0|0:0,2:0:0:0:
452,276,256852,2,0,P|472:192|448:112,1,160,0|2,0:0|0:0,2:0:0:0:
384,68,257841,2,0,L|300:68,1,80,8|2,0:0|0:0,0:0:0:0:
236,120,258500,6,0,P|176:108|128:16,2,160,4|8|0,0:0|0:0|0:0,2:0:0:0:
368,240,260478,2,0,P|356:288|336:320,1,80,8|8,0:3|0:0,0:0:0:0:
256,344,261137,6,0,L|208:192,3,160,4|0|0|0,0:1|0:0|0:0|1:0,0:0:0:0:
320,56,263775,6,0,L|300:240,3,160,4|0|0|8,0:1|0:0|0:0|1:0,0:0:0:0:
176,336,266412,6,0,L|136:264,1,80,4|0,0:0|0:0,0:0:0:0:
56,232,267071,2,0,P|60:168|96:112,2,120,8|2|2,0:0|0:0|0:0,2:0:0:0:
64,320,268390,1,8,0:0:0:0:
240,308,269049,6,0,P|284:296|320:304,1,80,4|0,0:0|0:0,0:0:0:0:
384,360,269709,2,0,B|408:324|404:284|404:284|432:248,2,120,8|2|2,0:0|0:0|0:0,2:0:0:0:
316,304,271028,2,0,L|308:208,1,80,8|8,0:0|0:0,0:0:0:0:
292,136,271687,6,0,P|240:112|136:160,2,160,4|8|0,0:0|0:0|0:0,2:0:0:0:
460,192,273665,2,0,P|482:158|484:116,1,80,8|2,0:0|0:0,0:0:0:0:
424,56,274324,6,0,L|344:24,1,80,4|0,0:0|0:0,0:0:0:0:
284,84,274984,2,0,L|152:88,2,120,8|2|2,0:0|0:0|0:0,2:0:0:0:
352,140,276302,2,0,P|360:180|328:252,1,120,8|2,0:0|0:0,2:0:0:0:
