osu file format v12

[General]
AudioFilename: Just follow time.mp3
AudioLeadIn: 1000
PreviewTime: 79461
Countdown: 0
SampleSet: Soft
StackLeniency: 0.7
Mode: 0
LetterboxInBreaks: 0
EpilepsyWarning: 1
WidescreenStoryboard: 1

[Editor]
Bookmarks: 13998,26466,38935,51403,76340,104393,123096,148033,172969,185438,197906,222063,222843,241545
DistanceSpacing: 1
BeatDivisor: 4
GridSize: 4

[Metadata]
Title:Just follow time
TitleUnicode:Just follow time
Artist:Draw the Emotional
ArtistUnicode:Draw the Emotional
Creator:emmy
Version:Lunatic
Source:Touhou
Tags:c78 ichirin kumoi collapse of the sky apaffy loneight l1106188 sky ruin 東方星蓮船 ~ Undefined Fantastic Object calo ゆよゆっぺ yuyoyuppe
BeatmapID:346804
BeatmapSetID:75606

[Difficulty]
HPDrainRate:7
CircleSize:4
OverallDifficulty:7
ApproachRate:9
SliderMultiplier:1.60000000596046
SliderTickRate:2

[Events]
//Background and Video events
0,0,"19132347.jpg",0,0
//Break Periods
2,39907,49237
2,173154,184822
//Storyboard Layer 0 (Background)
//Storyboard Layer 1 (Fail)
//Storyboard Layer 2 (Pass)
//Storyboard Layer 3 (Foreground)
//Storyboard Sound Samples
//Background Colour Transformations
3,100,163,162,255

[TimingPoints]
1526,389.61038961039,4,2,1,25,1,0
13993,-100,4,2,1,30,0,0
26461,-100,4,2,1,50,0,1
26655,-83.3333333333333,4,2,1,50,0,0
38149,-100,4,2,1,50,0,0
38928,-200,4,2,1,45,0,0
50811,-100,4,2,1,45,0,0
76526,-100,4,2,1,24,0,0
79058,-100,4,2,1,45,0,0
79448,-90.9090909090909,4,2,1,60,0,1
84902,-90.9090909090909,4,2,1,60,0,1
85487,-100,4,2,1,60,0,1
104383,-100,4,2,1,60,0,0
123084,-200,4,2,1,45,0,0
123571,-100,4,2,1,45,0,0
132435,-200,4,2,1,45,0,0
132824,-100,4,2,1,45,0,0
135551,-200,4,2,1,45,0,0
136136,-100,4,2,1,45,0,0
141785,-200,4,2,1,45,0,0
142370,-100,4,2,1,45,0,0
148019,-100,4,2,1,50,0,0
153863,-100,4,2,1,50,0,0
154058,-100,4,2,1,50,0,0
156590,-80,4,2,1,50,0,0
158538,-100,4,2,1,50,0,0
161266,-133.333333333333,4,2,1,50,0,0
161655,-90.9090909090909,4,2,1,50,0,0
162435,-100,4,2,1,50,0,0
171980,-66.6666666666667,4,2,1,50,0,0
172954,-100,4,2,1,50,0,0
185422,-133.333333333333,4,2,1,45,0,0
188538,-100,4,2,1,45,0,0
195941,-133.333333333333,4,2,1,35,0,0
197110,-200,4,2,1,35,0,0
197889,-100,4,2,1,60,0,1
216201,-80,4,2,1,60,0,1
216590,-100,4,2,1,60,0,1
222824,-100,4,2,1,60,0,0
232370,-100,4,2,1,60,0,0
234123,-166.666666666667,4,2,1,60,0,0
234902,-100,4,2,1,60,0,0
241526,-100,4,2,1,60,0,0

[Colours]
Combo1 : 176,216,255
Combo2 : 180,158,176
Combo3 : 137,137,197

[HitObjects]
328,208,1526,1,2,0:0:0:0:
328,208,1720,1,0,0:0:0:0:
328,208,1915,2,0,P|280:184|248:184,1,80.000000298023,0|0,0:0|0:0,0:0:0:0:
152,140,2305,2,0,P|164:188|148:228,1,80.000000298023,2|0,0:0|0:0,0:0:0:0:
268,168,4642,6,0,P|312:176|356:172,1,80.000000298023,2|0,0:0|0:0,0:0:0:0:
312,96,5032,1,0,0:0:0:0:
420,236,5228,2,0,P|428:275|424:314,1,80.000000298023,0|2,0:0|0:0,0:0:0:0:
60,88,7759,5,2,0:0:0:0:
132,176,7954,1,0,0:0:0:0:
172,72,8149,1,0,0:0:0:0:
240,160,8344,1,0,0:0:0:0:
280,56,8538,1,2,0:0:0:0:
283,198,10876,5,2,0:0:0:0:
255,90,11071,1,0,0:0:0:0:
363,61,11266,1,0,0:0:0:0:
392,169,11461,1,0,0:0:0:0:
283,198,11655,1,2,0:0:0:0:
88,216,13603,5,0,0:0:0:0:
252,64,13993,5,2,0:0:0:0:
360,36,14188,1,0,0:0:0:0:
380,148,14383,2,0,P|356:220|372:304,2,160.000000596046,0|2|0,0:0|0:0|0:0,0:0:0:0:
380,148,15357,1,2,0:0:0:0:
272,172,15551,1,0,0:0:0:0:
372,300,15746,2,0,P|328:320|288:320,1,80.000000298023,2|0,0:0|0:0,0:0:0:0:
192,220,16136,1,2,0:0:0:0:
206,132,16331,2,0,P|243:143|272:172,1,80.000000298023,0|0,0:0|0:0,0:0:0:0:
88,120,16720,5,2,0:0:0:0:
84,16,16915,1,0,0:0:0:0:
188,16,17110,1,2,0:0:0:0:
196,120,17305,1,0,0:0:0:0:
104,168,17500,5,0,0:0:0:0:
64,72,17694,1,0,0:0:0:0:
176,72,17889,1,2,0:0:0:0:
216,168,18084,1,0,0:0:0:0:
320,184,18279,1,0,0:0:0:0:
404,256,18474,1,2,0:0:0:0:
324,320,18668,2,0,P|292:288|272:252,2,80.000000298023,0|0|2,0:0|0:0|0:0,0:0:0:0:
364,216,19253,5,0,0:0:0:0:
324,320,19448,2,0,P|252:320|160:300,1,160.000000596046,2|0,0:0|0:0,0:0:0:0:
156,172,20032,2,0,P|128:196|96:236,1,80.000000298023,0|2,0:0|0:0,0:0:0:0:
60,116,20422,5,0,0:0:0:0:
172,96,20616,1,0,0:0:0:0:
264,160,20811,2,0,B|312:168|376:156,1,80.000000298023,0|2,0:0|0:0,0:0:0:0:
308,76,21201,1,0,0:0:0:0:
224,232,21396,1,0,0:0:0:0:
384,236,21590,2,0,P|420:208|448:168,1,80.000000298023,2|0,0:0|0:0,0:0:0:0:
416,72,21980,1,2,0:0:0:0:
352,304,22175,6,0,P|272:320|264:320,2,80.000000298023,0|2|0,0:0|0:0|0:0,0:0:0:0:
416,72,22759,1,0,0:0:0:0:
404,160,22954,2,0,P|396:208|376:248,1,80.000000298023,2|0,0:0|0:0,0:0:0:0:
316,128,23344,5,2,0:0:0:0:
124,136,23538,1,0,0:0:0:0:
256,44,23733,1,0,0:0:0:0:
188,216,23928,1,0,0:0:0:0:
164,52,24123,1,0,0:0:0:0:
276,212,24318,1,2,0:0:0:0:
368,272,24513,1,0,0:0:0:0:
464,216,24707,1,2,0:0:0:0:
368,272,24902,6,0,B|324:268|292:288|292:288|264:268|208:272,1,160.000000596046,0|2,0:0|0:0,0:0:0:0:
228,112,25487,1,0,0:0:0:0:
376,192,25681,1,2,0:0:0:0:
376,192,26461,5,6,0:0:0:0:
228,112,26655,1,0,0:0:0:0:
376,192,26850,2,0,P|384:256|356:288,1,95.9999974279402,0|0,1:0|0:0,0:0:0:0:
416,316,27142,1,0,1:0:0:0:
416,316,27240,1,0,0:0:0:0:
304,332,27435,1,0,0:0:0:0:
255,198,27629,6,0,P|227:158|231:106,1,95.9999974279402,0|0,1:0|0:0,0:0:0:0:
188,268,28019,1,2,0:0:0:0:
180,280,28409,2,0,B|152:268|152:268|128:316|96:316|24:304,2,143.99999614191,0|0|0,1:0|1:0|0:0,0:0:0:0:
76,232,29188,2,0,P|72:180|84:136,1,95.9999974279402,0|0,1:0|0:0,0:0:0:0:
92,120,29480,1,0,0:0:0:0:
104,104,29577,2,0,P|164:92|188:60,1,95.9999974279402,2|0,0:0|0:0,0:0:0:0:
200,168,29967,5,0,1:0:0:0:
116,24,30162,1,0,0:0:0:0:
116,24,30259,1,0,1:0:0:0:
116,24,30357,1,0,0:0:0:0:
264,108,30551,1,0,0:0:0:0:
264,108,30746,2,0,P|312:108|360:96,1,95.9999974279402,0|0,1:0|0:0,0:0:0:0:
224,28,31136,1,2,0:0:0:0:
328,188,31331,5,0,0:0:0:0:
408,156,31526,2,0,P|416:212|396:252,1,95.9999974279402,0|0,1:0|0:0,0:0:0:0:
396,256,31818,1,0,1:0:0:0:
392,264,31915,1,0,0:0:0:0:
388,272,32013,1,0,0:0:0:0:
384,280,32110,1,0,0:0:0:0:
380,288,32207,1,0,0:0:0:0:
376,296,32305,1,0,1:0:0:0:
484,276,32500,5,0,1:0:0:0:
475,229,32597,1,0,1:0:0:0:
460,184,32694,2,0,P|444:139|363:98,1,95.9999974279402,0|0,1:0|0:0,0:0:0:0:
320,72,33084,2,0,P|300:144|320:216,2,143.99999614191,0|0|0,1:0|1:0|1:0,0:0:0:0:
222,222,33863,5,0,1:0:0:0:
192,52,34253,1,2,0:0:0:0:
52,256,34642,2,0,B|72:260|72:260|72:320|136:316|168:332,2,143.99999614191,0|0|0,1:0|1:0|0:0,0:0:0:0:
52,256,35422,1,0,1:0:0:0:
236,164,35616,5,0,0:0:0:0:
40,164,35811,1,2,0:0:0:0:
132,204,36006,1,0,0:0:0:0:
152,116,36201,2,0,P|160:64|144:24,1,95.9999974279402,0|0,1:0|0:0,0:0:0:0:
144,24,36493,1,0,1:0:0:0:
144,24,36590,1,0,0:0:0:0:
176,280,36785,1,0,0:0:0:0:
176,280,36980,2,0,P|228:280|280:284,1,95.9999974279402,0|0,1:0|0:0,0:0:0:0:
336,348,37370,6,0,P|364:292|364:260,1,95.9999974279402,2|0,0:0|0:0,0:0:0:0:
296,192,37759,1,0,1:0:0:0:
284,180,38149,2,0,L|248:180,15,20.0000000745057,0|0|0|0|0|0|0|0|0|0|0|0|0|0|0|0,0:0|0:0|0:0|0:0|0:0|0:0|0:0|0:0|0:0|0:0|0:0|0:0|0:0|0:0|0:0|0:0,0:0:0:0:
296,160,38928,6,0,B|296:108|324:92|324:92|284:68|300:20,1,160.000000596046,4|0,1:0|0:0,0:0:0:0:
92,280,49837,5,0,0:0:0:0:
72,204,50227,1,0,0:0:0:0:
4,160,50616,1,0,0:0:0:0:
56,104,50811,5,0,1:0:0:0:
89,125,50909,1,0,0:0:0:0:
126,133,51006,1,0,1:0:0:0:
166,128,51103,1,0,1:0:0:0:
185,162,51201,1,0,1:0:0:0:
220,184,51298,1,0,1:0:0:0:
248,212,51396,6,0,P|316:200|340:184,1,80.000000298023,6|0,0:0|0:0,0:0:0:0:
312,116,51785,2,0,P|376:128|408:176,1,120.000000447034,0|0,1:0|1:0,0:0:0:0:
406,170,52175,1,0,0:0:0:0:
408,252,52370,1,2,0:0:0:0:
332,304,52564,2,0,P|360:340|416:344,2,80.000000298023,0|0|2,1:0|0:0|0:0,0:0:0:0:
272,248,53149,1,0,0:0:0:0:
272,248,53344,2,0,L|168:248|168:248,1,80.000000298023,0|2,1:0|0:0,0:0:0:0:
268,60,53928,5,2,0:0:0:0:
272,248,54123,1,0,1:0:0:0:
332,176,54318,1,0,0:0:0:0:
372,108,54513,2,0,P|328:72|268:60,1,120.000000447034,2|0,0:0|0:0,0:0:0:0:
224,48,54902,2,0,P|200:80|172:120,1,80.000000298023,0|0,1:0|0:0,0:0:0:0:
132,120,55194,1,0,1:0:0:0:
172,224,55487,2,0,P|212:184|248:176,2,80.000000298023,0|0|2,0:0|1:0|0:0,0:0:0:0:
392,144,56071,2,0,P|340:224|280:248,1,160.000000596046,2|0,0:0|1:0,0:0:0:0:
112,288,56655,5,0,0:0:0:0:
212,312,56850,2,0,P|268:320|296:320,1,80.000000298023,2|0,0:0|0:0,0:0:0:0:
396,324,57240,1,0,1:0:0:0:
412,312,57337,1,0,0:0:0:0:
428,300,57435,1,0,1:0:0:0:
444,288,57532,1,0,0:0:0:0:
460,276,57629,2,0,P|480:224|448:132,1,120.000000447034,6|0,0:0|0:0,0:0:0:0:
469,162,58019,6,0,P|436:116|436:80,1,80.000000298023,0|0,1:0|0:0,0:0:0:0:
452,56,58311,1,0,1:0:0:0:
452,56,58409,1,0,0:0:0:0:
332,168,58603,1,2,0:0:0:0:
332,168,58798,2,0,P|276:172|224:200,1,80.000000298023,0|0,1:0|0:0,0:0:0:0:
364,292,59188,6,0,P|327:278|299:250,1,80.000000298023,2|0,0:0|0:0,0:0:0:0:
299,250,59577,1,0,1:0:0:0:
168,164,59967,6,0,P|182:127|210:99,1,80.000000298023,2|0,0:0|0:0,0:0:0:0:
210,99,60357,1,0,1:0:0:0:
256,192,60746,12,0,63279,0:0:0:0:
112,140,63474,5,0,1:0:0:0:
116,148,63571,1,0,1:0:0:0:
120,156,63668,1,0,1:0:0:0:
124,164,63766,1,0,1:0:0:0:
128,172,63863,2,0,B|172:196|172:196|220:252,1,120.000000447034,6|0,0:0|0:0,0:0:0:0:
217,249,64253,6,0,P|276:212|280:168,1,80.000000298023,0|0,1:0|0:0,0:0:0:0:
278,205,64545,1,0,1:0:0:0:
278,205,64642,1,0,0:0:0:0:
212,112,64837,5,2,0:0:0:0:
340,156,65032,2,0,P|344:96|340:68,1,80.000000298023,0|0,1:0|0:0,0:0:0:0:
360,272,65422,1,2,0:0:0:0:
432,84,65616,1,0,0:0:0:0:
464,240,65811,2,0,B|452:204|452:204|432:164,1,80.000000298023,0|0,1:0|0:0,0:0:0:0:
379,15,66201,6,0,P|351:43|336:80,1,80.000000298023,2|0,0:0|0:0,0:0:0:0:
240,208,66590,2,0,P|267:179|283:143,1,80.000000298023,0|0,1:0|0:0,0:0:0:0:
192,136,66980,2,0,L|96:136,1,80.000000298023,2|0,0:0|0:0,0:0:0:0:
160,288,67370,2,0,L|280:288,2,120.000000447034,0|0|0,1:0|1:0|0:0,0:0:0:0:
160,288,68149,1,0,1:0:0:0:
128,204,68344,1,2,0:0:0:0:
184,132,68538,6,0,B|216:120|216:120|228:148|260:176|332:168,1,160.000000596046,2|0,0:0|1:0,0:0:0:0:
352,252,69123,1,2,0:0:0:0:
436,224,69318,2,0,P|459:146|453:133,1,80.000000298023,0|0,0:0|0:0,0:0:0:0:
392,104,69707,1,0,1:0:0:0:
308,164,69902,5,0,1:0:0:0:
308,164,70000,1,0,0:0:0:0:
308,164,70097,1,4,0:0:0:0:
228,108,70292,1,0,0:0:0:0:
136,172,70487,1,0,1:0:0:0:
136,172,70584,2,0,P|112:220|112:256,1,80.000000298023,0|0,0:0|1:0,0:0:0:0:
168,256,70876,1,0,0:0:0:0:
280,272,71071,2,0,L|352:320,2,80.000000298023,2|0|0,0:0|1:0|0:0,0:0:0:0:
344,180,71655,5,2,0:0:0:0:
252,116,71850,1,0,0:0:0:0:
344,180,72045,2,0,P|372:140|384:112,1,80.000000298023,0|0,1:0|0:0,0:0:0:0:
252,116,72435,2,0,P|192:104|144:128,1,80.000000298023,2|0,0:0|0:0,0:0:0:0:
104,196,72824,1,0,1:0:0:0:
192,264,73019,1,0,0:0:0:0:
192,264,73214,1,2,0:0:0:0:
292,216,73409,1,0,0:0:0:0:
292,216,73603,1,0,1:0:0:0:
400,188,73798,6,0,L|416:224,2,40.0000001490115,0|0|0,0:0|1:0|0:0,0:0:0:0:
400,188,74188,1,2,0:0:0:0:
329,244,74383,2,0,L|252:264,2,80.000000298023,0|0|2,1:0|0:0|0:0,0:0:0:0:
48,308,75162,1,0,1:0:0:0:
48,308,75551,2,0,P|116:336|200:312,1,160.000000596046,0|0,0:0|1:0,0:0:0:0:
220,300,76038,1,0,1:0:0:0:
240,284,76136,1,0,1:0:0:0:
260,268,76233,1,0,1:0:0:0:
280,252,76331,5,0,1:0:0:0:
340,200,76526,1,0,0:0:0:0:
448,192,76720,1,0,0:0:0:0:
400,256,76915,1,0,0:0:0:0:
388,140,77110,1,0,0:0:0:0:
372,132,77500,5,0,0:0:0:0:
264,140,77694,1,0,0:0:0:0:
312,76,77889,1,0,0:0:0:0:
324,192,78084,1,0,0:0:0:0:
276,256,78279,1,0,0:0:0:0:
216,204,78474,1,0,0:0:0:0:
64,80,79058,5,0,1:0:0:0:
76,92,79448,2,0,B|108:136|108:136|112:144|164:152|164:152|204:200,1,176.000006026745,6|0,0:0|0:0,0:0:0:0:
272,256,80032,1,0,0:0:0:0:
328,188,80227,2,0,P|360:244|348:308,1,132.000004520058,0|0,1:0|1:0,0:0:0:0:
348,308,80616,2,0,L|447:308,1,88.0000030133723,0|0,0:0|0:0,0:0:0:0:
488,220,81006,2,0,P|484:128|384:76,1,176.000006026745,2|0,0:0|0:0,0:0:0:0:
344,36,81590,1,0,0:0:0:0:
256,188,81785,1,0,1:0:0:0:
256,188,82175,6,0,P|180:188|164:184,1,88.0000030133723,0|0,0:0|0:0,0:0:0:0:
336,120,82564,2,0,P|348:188|340:212,1,88.0000030133723,6|0,0:0|0:0,0:0:0:0:
204,112,82954,1,0,0:0:0:0:
316,268,83149,1,0,0:0:0:0:
412,228,83344,2,0,P|412:292|400:320,1,88.0000030133723,0|0,1:0|0:0,0:0:0:0:
403,313,83636,1,0,1:0:0:0:
403,313,83733,1,0,0:0:0:0:
256,336,83928,5,0,0:0:0:0:
256,336,84123,2,0,B|240:296|240:296|208:288|64:296|120:160,1,264.000009040117,2|0,0:0|0:0,0:0:0:0:
112,156,84805,1,0,0:0:0:0:
108,144,84902,2,0,B|96:100|96:100|68:60,1,88.0000030133723,0|0,1:0|0:0,0:0:0:0:
168,44,85292,2,0,B|180:88|180:88|208:128,1,88.0000030133723,0|0,1:0|0:0,0:0:0:0:
236,204,85681,6,0,P|284:156|268:76,1,120.000000447034,6|0,0:0|0:0,0:0:0:0:
285,106,86071,2,0,L|372:108,1,80.000000298023,0|0,0:0|0:0,0:0:0:0:
440,40,86461,2,0,P|480:100|484:132,1,80.000000298023,0|0,1:0|0:0,0:0:0:0:
456,136,86753,1,0,1:0:0:0:
456,136,86850,1,0,0:0:0:0:
289,95,87045,5,0,0:0:0:0:
289,95,87240,2,0,P|224:96|202:90,1,80.000000298023,2|0,0:0|0:0,0:0:0:0:
212,179,87629,1,0,0:0:0:0:
224,266,87824,2,0,P|294:267|311:271,1,80.000000298023,0|0,0:0|1:0,0:0:0:0:
303,269,88409,6,0,L|367:209,1,80.000000298023,0|0,0:0|0:0,0:0:0:0:
447,281,88798,2,0,L|379:341,1,80.000000298023,6|0,0:0|0:0,0:0:0:0:
275,357,89188,1,0,0:0:0:0:
199,273,89383,1,0,0:0:0:0:
115,349,89577,2,0,P|95:289|99:273,1,80.000000298023,0|0,1:0|0:0,0:0:0:0:
115,221,89870,1,0,1:0:0:0:
132,168,89967,2,0,L|56:104|56:104,2,80.000000298023,0|0|0,0:0|0:0|0:0,0:0:0:0:
128,284,90746,5,0,1:0:0:0:
192,236,90941,1,0,0:0:0:0:
202,230,91038,1,0,0:0:0:0:
212,224,91136,2,0,B|247:188|247:188|308:171,1,80.000000298023,0|0,0:0|0:0,0:0:0:0:
313,244,91526,2,0,L|353:220,4,40.0000001490115,0|0|0|0|6,1:0|1:0|1:0|1:0|0:0,0:0:0:0:
434,304,92110,6,0,L|410:224,1,80.000000298023,0|0,0:0|1:0,0:0:0:0:
378,128,92500,1,0,0:0:0:0:
318,212,92694,2,0,L|286:120,1,80.000000298023,0|0,1:0|0:0,0:0:0:0:
258,36,93084,1,0,1:0:0:0:
158,64,93279,6,0,L|178:144,1,80.000000298023,0|0,0:0|1:0,0:0:0:0:
182,248,93668,1,0,0:0:0:0:
266,112,93863,2,0,L|282:196,1,80.000000298023,0|0,1:0|0:0,0:0:0:0:
352,227,94253,1,0,1:0:0:0:
188,163,94448,1,0,0:0:0:0:
346,149,94642,1,0,1:0:0:0:
269,273,94837,1,2,0:0:0:0:
324,76,95032,6,0,L|396:76|428:76,1,80.000000298023,6|0,0:0|0:0,0:0:0:0:
444,176,95422,2,0,B|396:176|368:176|356:176,1,80.000000298023,0|0,1:0|0:0,0:0:0:0:
404,244,95811,2,0,B|386:285|369:309|269:273,1,160.000000596046,0|0,1:0|1:0,0:0:0:0:
228,224,96298,1,0,1:0:0:0:
196,172,96396,1,0,1:0:0:0:
172,120,96493,1,0,1:0:0:0:
176,60,96590,6,0,L|260:60,1,80.000000298023,0|0,1:0|0:0,0:0:0:0:
324,172,96980,1,0,1:0:0:0:
412,100,97175,1,0,0:0:0:0:
464,200,97370,1,0,1:0:0:0:
448,312,97564,2,0,P|368:328|352:324,1,80.000000298023,0|0,0:0|1:0,0:0:0:0:
296,244,97954,1,0,0:0:0:0:
200,184,98149,6,0,L|160:200,3,40.0000001490115,6|0|0|0,0:0|0:0|0:0|0:0,0:0:0:0:
160,144,98538,2,0,L|136:64,1,80.000000298023,0|0,1:0|0:0,0:0:0:0:
28,92,98928,2,0,L|56:172,1,80.000000298023,0|0,1:0|0:0,0:0:0:0:
100,272,99318,1,0,1:0:0:0:
196,332,99513,1,0,0:0:0:0:
300,292,99707,2,0,P|366:294|444:236,1,160.000000596046,0|0,1:0|1:0,0:0:0:0:
340,188,100292,5,0,0:0:0:0:
448,152,100487,2,0,B|396:104|388:100|388:96,1,80.000000298023,0|0,1:0|0:0,0:0:0:0:
276,108,100876,2,0,L|292:72,3,40.0000001490115,0|0|0|0,1:0|0:0|0:0|0:0,0:0:0:0:
260,76,101266,2,0,P|212:56|92:56,1,160.000000596046,6|0,0:0|1:0,0:0:0:0:
128,208,101850,2,0,L|188:116,1,80.000000298023,0|0,0:0|1:0,0:0:0:0:
384,64,102435,1,0,1:0:0:0:
420,284,102824,2,0,P|364:256|344:248,1,80.000000298023,0|0,1:0|0:0,0:0:0:0:
224,228,103214,1,0,1:0:0:0:
224,228,103409,5,0,1:0:0:0:
224,228,103506,1,0,1:0:0:0:
224,228,103603,2,0,P|292:224|352:160,1,160.000000596046,0|0,1:0|1:0,0:0:0:0:
352,160,104090,1,0,1:0:0:0:
348,148,104188,1,0,1:0:0:0:
344,136,104285,1,0,1:0:0:0:
340,124,104383,6,0,P|292:80|264:72,1,80.000000298023,6|0,0:0|0:0,0:0:0:0:
164,148,104772,1,0,1:0:0:0:
224,228,104967,2,0,L|304:240,2,80.000000298023,0|2|0,0:0|0:0|0:0,0:0:0:0:
92,268,105551,1,0,1:0:0:0:
164,148,105746,1,0,0:0:0:0:
56,232,105941,1,2,0:0:0:0:
136,124,106136,1,0,0:0:0:0:
256,56,106331,2,0,L|256:140,1,80.000000298023,0|0,1:0|0:0,0:0:0:0:
256,272,106720,5,2,0:0:0:0:
256,136,106915,1,0,0:0:0:0:
372,200,107110,1,0,1:0:0:0:
372,336,107305,1,0,0:0:0:0:
492,268,107500,2,0,L|492:184,1,80.000000298023,2|0,0:0|0:0,0:0:0:0:
372,192,107889,5,0,1:0:0:0:
492,188,108084,1,0,0:0:0:0:
420,72,108279,1,2,0:0:0:0:
512,208,108474,1,0,0:0:0:0:
340,208,108668,1,0,1:0:0:0:
420,40,109058,6,0,L|332:40,1,80.000000298023,6|0,0:0|0:0,0:0:0:0:
92,40,109448,2,0,L|180:40,1,80.000000298023,0|0,1:0|0:0,0:0:0:0:
392,88,109837,2,0,L|312:88,1,80.000000298023,2|0,0:0|0:0,0:0:0:0:
124,88,110227,5,0,1:0:0:0:
24,180,110422,1,0,0:0:0:0:
128,264,110616,1,2,0:0:0:0:
232,176,110811,1,0,0:0:0:0:
128,264,111006,5,0,1:0:0:0:
24,180,111201,1,0,0:0:0:0:
124,88,111396,1,2,0:0:0:0:
232,176,111590,1,0,0:0:0:0:
368,176,111785,1,0,1:0:0:0:
260,260,111980,1,0,0:0:0:0:
300,112,112175,1,2,0:0:0:0:
352,260,112370,1,0,0:0:0:0:
476,228,112564,6,0,L|476:312,2,80.000000298023,0|0|2,1:0|0:0|0:0,0:0:0:0:
368,176,113149,1,0,0:0:0:0:
480,100,113344,2,0,L|408:64,1,80.000000298023,0|0,1:0|0:0,0:0:0:0:
300,112,113733,5,6,0:0:0:0:
300,112,113928,2,0,L|256:180,1,80.000000298023,0|0,0:0|1:0,0:0:0:0:
176,296,114318,1,0,0:0:0:0:
176,160,114513,1,2,0:0:0:0:
176,160,114902,5,0,1:0:0:0:
48,228,115097,1,0,0:0:0:0:
176,296,115292,1,2,0:0:0:0:
308,248,115487,2,0,P|336:184|352:160,1,80.000000298023,0|0,0:0|1:0,0:0:0:0:
468,224,116071,6,0,P|440:288|424:312,2,80.000000298023,2|0|0,0:0|0:0|1:0,0:0:0:0:
368,132,116655,1,0,0:0:0:0:
484,60,116850,1,2,0:0:0:0:
484,60,117240,5,0,1:0:0:0:
468,76,117435,1,0,0:0:0:0:
452,92,117629,1,2,0:0:0:0:
436,108,117824,1,0,0:0:0:0:
420,124,118019,1,0,1:0:0:0:
404,144,118214,2,0,L|364:144,2,40.0000001490115,0|0|6,0:0|0:0|0:0,0:0:0:0:
472,260,118603,5,0,0:0:0:0:
368,348,118798,1,0,1:0:0:0:
436,228,118993,1,0,0:0:0:0:
332,316,119188,2,0,L|272:256,1,80.000000298023,2|0,0:0|0:0,0:0:0:0:
275,259,119577,5,0,1:0:0:0:
380,172,119772,1,0,0:0:0:0:
276,84,119967,1,2,0:0:0:0:
172,172,120162,1,0,0:0:0:0:
152,36,120357,1,0,1:0:0:0:
152,36,120551,1,0,0:0:0:0:
138,45,120746,5,2,2:3:0:0:
38,138,120941,1,0,2:3:0:0:
38,275,121136,1,0,1:0:0:0:
149,353,121331,1,0,2:3:0:0:
263,279,121526,1,2,2:3:0:0:
259,143,121720,1,0,2:3:0:0:
400,152,121915,6,0,L|400:60,2,80.000000298023,0|0|2,1:0|0:0|0:0,0:0:0:0:
456,276,122500,2,0,P|420:312|384:328,1,80.000000298023,0|0,0:0|1:0,0:0:0:0:
308,220,122889,1,0,0:0:0:0:
280,304,123084,6,0,L|192:304,1,80.000000298023,6|0,0:0|0:0,0:0:0:0:
136,252,123668,2,0,L|136:208,2,40.0000001490115,0|0|0,0:0|0:0|1:0,0:0:0:0:
56,260,124058,2,0,L|56:216,1,40.0000001490115,0|0,0:0|1:0,0:0:0:0:
88,104,124448,1,0,0:0:0:0:
88,104,124642,2,0,P|156:104|248:88,1,160.000000596046,2|0,0:0|0:0,0:0:0:0:
424,280,125227,1,0,0:0:0:0:
424,280,125422,2,0,P|356:280|264:296,1,160.000000596046,0|0,1:0|0:0,0:0:0:0:
292,72,126201,6,0,B|360:136|276:172|288:172|256:212|324:232,2,160.000000596046,2|0|0,0:0|0:0|1:0,0:0:0:0:
224,112,127175,2,0,L|200:80,1,40.0000001490115,0|0,0:0|1:0,0:0:0:0:
136,180,127564,1,0,0:0:0:0:
136,180,127759,2,0,B|152:224|152:224|220:216|232:244|248:260|264:300,1,160.000000596046,2|0,0:0|0:0,0:0:0:0:
376,204,128344,1,0,0:0:0:0:
376,204,128539,2,0,B|360:160|360:160|292:168|280:140|264:124|248:84,1,160.000000596046,0|0,1:0|0:0,0:0:0:0:
182,307,129318,2,0,P|122:308|86:268,1,80.000000298023,6|0,0:0|0:0,0:0:0:0:
156,232,129707,5,0,0:0:0:0:
196,160,129902,1,0,0:0:0:0:
204,152,130000,1,0,0:0:0:0:
212,144,130097,2,0,B|248:100|248:100|312:88,2,120.000000447034,0|0|0,1:0|1:0|0:0,0:0:0:0:
310,88,130876,2,0,P|356:152|388:156,1,80.000000298023,2|0,0:0|0:0,0:0:0:0:
396,220,131266,2,0,P|440:154|433:123,1,80.000000298023,2|0,0:0|0:0,0:0:0:0:
336,280,131655,1,0,1:0:0:0:
328,296,132045,1,0,0:0:0:0:
320,312,132435,6,0,L|224:312,1,80.000000298023,2|0,0:0|0:0,0:0:0:0:
224,232,133019,2,0,L|224:192,2,40.0000001490115,0|0|0,0:0|0:0|1:0,0:0:0:0:
144,232,133409,2,0,L|144:184,1,40.0000001490115,0|0,0:0|1:0,0:0:0:0:
64,104,133798,5,0,0:0:0:0:
64,104,133993,2,0,P|128:92|176:64,1,120.000000447034,2|0,0:0|0:0,0:0:0:0:
175,65,134383,2,0,P|213:125|237:133,1,80.000000298023,0|0,0:0|0:0,0:0:0:0:
212,228,134772,2,0,P|159:268|120:268,1,80.000000298023,0|0,1:0|0:0,0:0:0:0:
236,204,135162,5,0,1:0:0:0:
254,188,135259,1,0,1:0:0:0:
273,173,135356,1,0,1:0:0:0:
291,158,135454,1,0,1:0:0:0:
308,144,135551,6,0,L|372:88,1,80.000000298023,6|0,0:0|0:0,0:0:0:0:
444,112,136136,2,0,L|480:140,2,40.0000001490115,0|0|0,0:0|0:0|1:0,0:0:0:0:
396,176,136526,2,0,L|432:204,1,40.0000001490115,0|0,0:0|1:0,0:0:0:0:
328,268,136915,1,0,0:0:0:0:
328,268,137110,6,0,P|252:268|212:248,1,120.000000447034,2|0,0:0|0:0,0:0:0:0:
148,200,137500,2,0,P|138:238|141:278,1,80.000000298023,0|0,0:0|0:0,0:0:0:0:
280,200,137889,1,0,1:0:0:0:
140,208,138279,1,0,0:0:0:0:
140,208,138668,6,8,B|159:158|243:146|283:210|323:210|323:210|323:174,1,240.000000894069,2|0,0:0|0:0,0:0:0:0:
332,168,139350,1,0,0:0:0:0:
340,160,139448,2,0,P|380:120|372:56,2,120.000000447034,0|0|0,1:0|1:0|0:0,0:0:0:0:
296,88,140227,2,0,P|192:92|148:128,2,160.000000596046,2|0|0,0:0|0:0|1:0,0:0:0:0:
448,196,141201,2,0,P|472:132|472:40,1,160.000000596046,0|0,0:0|0:0,0:0:0:0:
404,276,141785,6,0,L|272:276,1,120.000000447034,6|0,0:0|0:0,0:0:0:0:
200,264,142564,2,0,P|224:216|288:196,1,120.000000447034,0|0,1:0|1:0,0:0:0:0:
284,196,142954,2,0,L|285:317,1,120.000000447034,0|0,0:0|0:0,0:0:0:0:
285,316,143344,2,0,P|358:297|370:189,2,160.000000596046,2|0|0,0:0|0:0|1:0,0:0:0:0:
172,204,144513,5,0,0:0:0:0:
168,188,144902,2,0,B|172:160|172:160|152:136|152:136|168:108|168:108|152:92|144:40,2,160.000000596046,2|0|0,0:0|0:0|1:0,0:0:0:0:
68,260,145876,1,0,0:0:0:0:
68,260,145974,1,0,1:0:0:0:
68,260,146071,2,0,P|124:304|168:304,1,80.000000298023,0|0,0:0|0:0,0:0:0:0:
8,191,146461,2,0,P|85:177|148:224,1,160.000000596046,2|0,0:0|0:0,0:0:0:0:
185,108,147045,2,0,L|245:184,1,80.000000298023,0|0,0:0|1:0,0:0:0:0:
321,242,147435,2,0,P|261:270|221:278,1,80.000000298023,0|0,0:0|1:0,0:0:0:0:
236,268,147727,1,0,1:0:0:0:
228,260,147824,1,0,1:0:0:0:
220,252,147922,1,0,1:0:0:0:
212,244,148019,6,0,P|152:188|112:180,1,120.000000447034,6|0,0:0|0:0,0:0:0:0:
117,180,148409,2,0,P|137:128|165:112,1,80.000000298023,0|0,1:0|0:0,0:0:0:0:
227,65,148798,2,0,P|242:102|232:140,1,80.000000298023,0|0,1:0|0:0,0:0:0:0:
312,152,149188,1,2,0:0:0:0:
396,100,149383,1,0,1:0:0:0:
408,112,149480,1,0,1:0:0:0:
420,124,149577,1,2,0:0:0:0:
380,192,149772,1,0,1:0:0:0:
392,204,149869,1,0,1:0:0:0:
404,216,149966,1,0,0:0:0:0:
416,228,150064,5,0,1:0:0:0:
442,257,150161,1,0,1:0:0:0:
450,296,150258,1,0,1:0:0:0:
438,333,150356,1,2,0:0:0:0:
368,296,150551,5,0,0:0:0:0:
368,296,150746,2,0,L|252:296,1,80.000000298023,0|0,1:0|0:0,0:0:0:0:
260,296,151038,1,0,0:0:0:0:
232,296,151136,2,0,P|164:284|144:244,1,80.000000298023,0|0,1:0|0:0,0:0:0:0:
140,256,151428,1,0,0:0:0:0:
128,232,151526,2,0,P|112:184|128:152,1,80.000000298023,0|0,1:0|0:0,0:0:0:0:
220,208,151915,2,0,L|256:176,2,40.0000001490115,0|0|0,1:0|0:0|0:0,0:0:0:0:
360,192,152305,6,0,P|344:132|312:112,1,80.000000298023,4|0,0:0|0:0,0:0:0:0:
360,192,152694,1,2,0:0:0:0:
408,256,152889,1,0,0:0:0:0:
440,164,153084,2,0,P|424:104|392:84,1,80.000000298023,4|0,0:0|0:0,0:0:0:0:
496,236,153474,1,0,1:0:0:0:
200,116,153863,5,0,1:0:0:0:
200,116,154253,2,0,B|144:104|144:104|120:88|120:88|84:80,1,120.000000447034,6|0,0:0|0:0,0:0:0:0:
87,81,154642,2,0,P|65:129|37:145,1,80.000000298023,0|0,1:0|0:0,0:0:0:0:
104,208,155032,2,0,L|184:208,1,80.000000298023,0|0,1:0|0:0,0:0:0:0:
448,96,155422,6,0,P|472:152|448:192,1,80.000000298023,2|0,0:0|1:0,0:0:0:0:
436,212,155714,1,0,1:0:0:0:
436,212,155811,1,2,0:0:0:0:
352,284,156006,1,0,1:0:0:0:
332,284,156103,1,0,1:0:0:0:
312,284,156201,1,0,0:0:0:0:
292,284,156298,1,0,1:0:0:0:
272,284,156396,1,0,1:0:0:0:
252,284,156493,1,0,1:0:0:0:
232,284,156590,2,0,B|236:228|236:228|224:176|224:176|224:148,1,100.000000372529,2|0,0:0|0:0,0:0:0:0:
304,176,156980,6,0,P|276:116|200:92,1,150.000000558793,0|0,1:0|0:0,0:0:0:0:
224,72,157370,2,0,P|294:91|327:156,1,150.000000558793,6|0,0:0|0:0,0:0:0:0:
364,120,157759,2,0,P|330:55|260:35,1,150.000000558793,0|0,1:0|0:0,0:0:0:0:
212,28,158149,5,0,1:0:0:0:
88,132,158538,1,4,0:0:0:0:
88,132,158928,2,0,L|160:176,1,80.000000298023,2|0,0:0|0:0,0:0:0:0:
148,272,159318,2,0,L|80:228,1,80.000000298023,0|0,1:0|0:0,0:0:0:0:
248,244,159707,1,0,1:0:0:0:
256,236,159805,1,0,0:0:0:0:
264,228,159902,1,0,0:0:0:0:
272,220,160000,1,0,0:0:0:0:
280,212,160097,2,0,L|280:160,2,40.0000001490115,0|0|0,1:0|0:0|1:0,0:0:0:0:
424,304,160487,2,0,L|384:320|344:336,1,80.000000298023,6|0,0:0|0:0,0:0:0:0:
273,308,160876,5,2,0:0:0:0:
349,333,161071,1,0,0:0:0:0:
256,320,161266,2,0,L|256:256,1,60.0000025123357,0|0,1:0|0:0,0:0:0:0:
168,244,161655,6,0,P|184:188|280:168,1,132.000004520058,4|0,0:0|0:0,0:0:0:0:
247,159,162045,2,0,L|248:72,1,88.0000030133723,2|0,0:0|0:0,0:0:0:0:
248,71,162435,1,0,1:0:0:0:
432,88,162629,2,0,L|436:176,1,80.000000298023,0|0,0:0|1:0,0:0:0:0:
444,280,163019,2,0,P|400:296|356:296,1,80.000000298023,0|0,0:0|1:0,0:0:0:0:
368,296,163409,1,0,0:0:0:0:
368,296,163603,5,4,0:0:0:0:
256,300,163798,1,0,0:0:0:0:
308,200,163993,1,0,0:0:0:0:
369,299,164188,2,0,L|448:280,1,80.000000298023,2|0,0:0|1:0,0:0:0:0:
396,188,164577,6,0,P|416:144|436:108,2,80.000000298023,0|4|0,0:0|0:0|0:0,0:0:0:0:
440,284,165162,1,2,0:0:0:0:
396,188,165357,1,0,0:0:0:0:
344,276,165551,1,0,1:0:0:0:
248,236,165746,2,0,L|164:196,1,80.000000298023,0|0,0:0|1:0,0:0:0:0:
80,140,166136,1,0,0:0:0:0:
192,144,166331,2,0,L|220:112,2,40.0000001490115,0|0|0,1:0|1:0|1:0,1:0:0:0:
240,172,166623,1,0,1:0:0:0:
280,211,166720,1,4,1:0:0:0:
393,240,166915,6,0,P|425:192|441:164,1,80.000000298023,0|0,0:0|0:0,0:0:0:0:
468,92,167305,1,2,0:0:0:0:
356,92,167500,1,0,1:0:0:0:
436,172,167694,1,0,0:0:0:0:
360,248,167889,1,4,0:0:0:0:
276,320,168084,6,0,P|240:276|220:252,1,80.000000298023,0|0,0:0|0:0,0:0:0:0:
112,244,168474,1,0,0:0:0:0:
112,244,168668,1,0,1:0:0:0:
108,132,168863,2,0,L|128:72,2,40.0000001490115,0|0|0,0:0|0:0|1:0,0:0:0:0:
216,100,169253,2,0,L|204:152,2,40.0000001490115,0|0|0,0:0|0:0|1:0,1:0:0:0:
248,120,169545,1,0,0:0:0:0:
284,116,169642,2,0,P|336:100|376:88,1,80.000000298023,0|4,1:0|0:0,0:0:0:0:
361,92,170227,5,0,0:0:0:0:
320,188,170422,1,0,0:0:0:0:
384,272,170616,1,0,1:0:0:0:
384,272,171006,1,4,0:0:0:0:
320,188,171201,1,0,0:0:0:0:
361,92,171396,1,2,0:0:0:0:
252,80,171590,2,0,L|168:112,1,80.000000298023,0|0,0:0|1:0,0:0:0:0:
116,200,171980,5,0,0:0:0:0:
268,268,172175,2,0,L|240:208,1,60.0000025123357,0|0,1:0|1:0,0:0:0:0:
140,152,172370,2,0,L|162:207,1,60.0000025123357,0|0,1:0|1:0,0:0:0:0:
312,260,172564,2,0,L|284:208,1,60.0000025123357,0|0,1:0|1:0,0:0:0:0:
185,148,172759,2,0,L|208:204,1,60.0000025123357,0|0,1:0|1:0,0:0:0:0:
276,164,172954,5,4,1:0:0:0:
124,112,185422,6,0,L|160:160,1,60.0000025123357,6|0,0:0|0:0,0:0:0:0:
388,272,185811,2,0,L|352:224,1,60.0000025123357,0|0,1:0|0:0,0:0:0:0:
376,108,186201,2,0,L|424:160,1,60.0000025123357,2|0,0:0|0:0,0:0:0:0:
136,276,186590,2,0,L|88:224,1,60.0000025123357,0|0,1:0|0:0,0:0:0:0:
200,328,186980,2,0,P|149:357|92:344,1,120.000005024671,2|0,0:0|1:0,0:0:0:0:
8,228,187759,2,0,P|24:176|60:152,1,90.0000037685036,2|0,0:0|0:0,0:0:0:0:
68,128,188149,1,0,1:0:0:0:
160,188,188344,2,0,L|160:164,3,15.0000006280839,2|0|0|0,0:0|0:0|0:0|0:0,0:0:0:0:
160,188,188538,6,0,L|320:188,1,160.000000596046,2|0,0:0|1:0,0:0:0:0:
332,108,189123,1,0,0:0:0:0:
332,108,189318,2,0,P|384:140|392:232,1,160.000000596046,2|0,0:0|1:0,0:0:0:0:
484,224,190097,2,0,P|456:296|384:325,1,160.000000596046,2|0,0:0|1:0,0:0:0:0:
264,304,190681,2,0,L|264:324,4,20.0000000745057,0|0|0|0|2,0:0|0:0|0:0|0:0|0:0,0:0:0:0:
180,248,191071,5,0,0:0:0:0:
180,248,191266,2,0,P|92:244|64:188,1,120.000000447034,0|0,1:0|0:0,0:0:0:0:
75,224,191655,2,0,B|80:168|80:168|80:144|76:120,1,80.000000298023,6|0,0:0|0:0,0:0:0:0:
152,80,192045,2,0,B|160:136|160:136|160:152|168:168|164:168,1,80.000000298023,0|0,1:0|0:0,0:0:0:0:
244,124,192435,1,2,0:0:0:0:
352,100,192824,6,0,P|332:144|308:168,1,80.000000298023,0|0,1:0|0:0,0:0:0:0:
264,240,193214,1,2,0:0:0:0:
424,152,193409,1,0,0:0:0:0:
348,316,193603,6,0,P|288:328|184:320,1,160.000000596046,0|2,1:0|0:0,0:0:0:0:
128,260,194188,1,0,0:0:0:0:
128,260,194285,1,0,0:0:0:0:
128,260,194383,2,0,P|128:192|116:136,1,120.000000447034,0|0,1:0|0:0,0:0:0:0:
160,132,194772,2,0,P|171:190|170:250,1,120.000000447034,6|0,0:0|0:0,0:0:0:0:
220,248,195162,2,0,P|220:188|209:129,1,120.000000447034,0|0,1:0|0:0,0:0:0:0:
208,84,195551,5,2,0:0:0:0:
344,144,195941,1,0,1:0:0:0:
352,152,196038,1,0,1:0:0:0:
360,160,196136,1,0,1:0:0:0:
368,168,196233,1,0,1:0:0:0:
376,176,196331,2,0,B|396:232|396:232|444:248|444:248|464:272,2,120.000005024671,0|0|0,1:0|0:0|0:0,0:0:0:0:
328,260,197889,6,0,P|368:224|364:112,1,160.000000596046,6|0,0:0|0:0,0:0:0:0:
276,80,198474,1,0,0:0:0:0:
275,190,198668,2,0,P|335:162|371:122,1,120.000000447034,0|0,1:0|1:0,0:0:0:0:
371,123,199058,2,0,L|452:123,1,80.000000298023,0|0,0:0|0:0,0:0:0:0:
459,216,199448,2,0,P|515:172|510:76,1,160.000000596046,2|0,0:0|0:0,0:0:0:0:
459,215,200032,1,0,0:0:0:0:
336,300,200227,5,0,1:0:0:0:
328,316,200616,2,0,P|272:324|216:312,1,80.000000298023,0|0,0:0|0:0,0:0:0:0:
168,316,201006,2,0,B|180:276|180:276|202:231|296:240,1,160.000000596046,6|0,0:0|0:0,0:0:0:0:
340,176,201785,6,0,P|276:156|224:176,1,120.000000447034,0|0,1:0|1:0,0:0:0:0:
228,173,202175,2,0,P|204:120|168:100,1,80.000000298023,0|0,0:0|0:0,0:0:0:0:
135,177,202564,2,0,P|103:125|219:25,1,240.000000894069,2|0,0:0|0:0,0:0:0:0:
272,68,203246,1,0,0:0:0:0:
272,68,203344,2,0,P|356:68|364:64,1,80.000000298023,0|0,1:0|0:0,0:0:0:0:
388,180,203733,2,0,P|444:132|448:108,1,80.000000298023,0|0,1:0|0:0,0:0:0:0:
410,268,204123,6,0,P|335:243|297:176,1,160.000000596046,6|0,0:0|0:0,0:0:0:0:
264,272,204707,1,0,0:0:0:0:
328,344,204902,2,0,P|384:316|412:256,1,120.000000447034,0|0,1:0|1:0,0:0:0:0:
411,267,205292,2,0,P|389:220|389:188,1,80.000000298023,0|0,0:0|0:0,0:0:0:0:
492,172,205681,2,0,B|436:112|436:112|404:124|360:116|324:120,1,160.000000596046,2|0,0:0|0:0,0:0:0:0:
288,79,206266,6,0,L|194:81,1,80.000000298023,0|0,0:0|1:0,0:0:0:0:
168,236,206850,1,0,0:0:0:0:
160,220,207240,2,0,B|144:176|144:176|128:156|128:156|112:116,1,80.000000298023,6|0,0:0|0:0,0:0:0:0:
36,144,207629,2,0,B|52:188|52:188|68:208|68:208|84:248,1,80.000000298023,0|0,0:0|0:0,0:0:0:0:
88,300,208019,2,0,P|136:316|192:312,1,80.000000298023,0|0,1:0|0:0,0:0:0:0:
165,316,208311,1,0,1:0:0:0:
165,316,208409,1,0,0:0:0:0:
240,288,208603,5,0,0:0:0:0:
240,288,208798,2,0,P|284:256|304:192,1,120.000000447034,2|0,0:0|0:0,0:0:0:0:
304,195,209188,2,0,L|384:196,1,80.000000298023,0|0,1:0|0:0,0:0:0:0:
392,196,209480,1,0,0:0:0:0:
400,196,209577,1,0,0:0:0:0:
452,276,209967,5,0,1:0:0:0:
481,249,210064,1,0,1:0:0:0:
496,212,210161,1,0,1:0:0:0:
494,173,210259,1,0,1:0:0:0:
476,136,210357,2,0,P|444:88|416:72,1,80.000000298023,4|0,0:0|0:0,0:0:0:0:
289,160,210746,2,0,P|321:208|349:224,1,80.000000298023,0|0,1:0|0:0,0:0:0:0:
372,146,211136,2,0,P|340:98|312:82,1,80.000000298023,0|0,1:0|0:0,0:0:0:0:
202,171,211526,2,0,P|220:206|252:231,1,80.000000298023,0|0,1:0|0:0,0:0:0:0:
200,312,211915,6,0,L|36:312,2,160.000000596046,0|0|0,1:0|1:0|1:0,0:0:0:0:
236,224,212889,1,0,0:0:0:0:
236,212,212987,1,0,0:0:0:0:
236,200,213084,2,0,B|224:160|224:160|228:120,1,80.000000298023,0|2,1:0|0:0,0:0:0:0:
304,72,213474,2,0,B|316:112|316:112|312:152,1,80.000000298023,6|0,0:0|0:0,0:0:0:0:
336,228,213863,2,0,B|384:212|384:212|424:168|424:112,1,160.000000596046,0|0,1:0|1:0,0:0:0:0:
476,224,214448,1,0,0:0:0:0:
468,236,214545,1,0,0:0:0:0:
460,248,214642,2,0,L|436:280,3,40.0000001490115,0|0|0|0,1:0|1:0|1:0|1:0,0:0:0:0:
428,296,215032,6,0,P|368:316|324:316,1,80.000000298023,0|0,1:0|0:0,0:0:0:0:
84,296,215422,2,0,P|144:316|188:316,1,80.000000298023,0|0,1:0|0:0,0:0:0:0:
148,240,215811,1,0,1:0:0:0:
156,228,216201,2,0,B|156:188|156:188|188:156|196:128|196:100,1,100.000000372529,0|0,1:0|0:0,0:0:0:0:
276,192,216590,2,0,P|276:112|192:44,2,160.000000596046,6|0|0,0:0|1:0|1:0,0:0:0:0:
424,256,217759,6,0,B|388:280|388:280|344:296,1,80.000000298023,0|0,1:0|0:0,0:0:0:0:
88,128,218149,2,0,B|124:104|124:104|168:88,1,80.000000298023,0|0,1:0|0:0,0:0:0:0:
352,212,218538,1,0,1:0:0:0:
160,172,218733,1,0,0:0:0:0:
160,172,218831,1,0,0:0:0:0:
160,172,218928,1,0,1:0:0:0:
160,284,219123,1,0,0:0:0:0:
352,100,219318,2,0,L|464:100,1,80.000000298023,0|0,1:0|0:0,0:0:0:0:
436,180,219707,6,0,B|428:220|428:220|460:284|408:312|380:328,2,160.000000596046,6|0|0,0:0|1:0|1:0,0:0:0:0:
352,248,220681,1,0,0:0:0:0:
352,248,220779,1,0,0:0:0:0:
352,248,220876,2,0,B|324:216|324:216|272:192,1,80.000000298023,0|0,1:0|0:0,0:0:0:0:
212,228,221266,2,0,B|240:260|240:260|292:284,2,80.000000298023,0|0|0,1:0|0:0|1:0,0:0:0:0:
168,160,221850,5,0,0:0:0:0:
168,144,221948,1,0,0:0:0:0:
168,128,222045,2,0,L|168:48,1,80.000000298023,4|0,0:0|0:0,0:0:0:0:
244,72,222435,1,0,1:0:0:0:
277,50,222532,1,0,1:0:0:0:
317,46,222629,1,0,1:0:0:0:
354,60,222727,1,0,1:0:0:0:
381,88,222824,1,4,0:0:0:0:
256,192,222922,12,0,227110,0:0:0:0:
232,153,227500,5,6,0:0:0:0:
280,231,227694,1,0,0:0:0:0:
295,168,227889,1,0,1:0:0:0:
217,216,228084,1,0,0:0:0:0:
144,124,228279,5,2,0:0:0:0:
368,260,228474,1,0,0:0:0:0:
188,304,228668,5,0,1:0:0:0:
324,80,228863,1,0,0:0:0:0:
396,160,229058,2,0,P|424:112|416:72,1,80.000000298023,2|0,0:0|0:0,0:0:0:0:
472,228,229448,1,0,1:0:0:0:
472,228,229642,1,0,0:0:0:0:
368,260,229837,5,2,0:0:0:0:
256,340,230032,1,0,0:0:0:0:
196,216,230227,1,0,1:0:0:0:
316,152,230422,1,0,0:0:0:0:
168,168,230616,5,2,0:0:0:0:
280,88,230811,1,0,0:0:0:0:
340,212,231006,5,0,1:0:0:0:
220,276,231201,1,0,0:0:0:0:
260,48,231396,1,2,0:0:0:0:
140,112,231591,1,0,0:0:0:0:
80,184,231785,2,0,L|80:272,2,80.000000298023,0|0|4,1:0|0:0|0:0,0:0:0:0:
192,284,232370,5,0,0:0:0:0:
268,204,232564,1,0,1:0:0:0:
328,300,232759,1,0,0:0:0:0:
396,212,232954,1,2,0:0:0:0:
400,196,233344,5,0,1:0:0:0:
324,116,233538,1,0,0:0:0:0:
264,212,233733,1,2,0:0:0:0:
196,124,233928,1,0,0:0:0:0:
136,220,234123,6,0,L|72:144,1,95.9999974279402,0|2,1:0|0:0,0:0:0:0:
199,278,234707,1,0,0:0:0:0:
284,276,234902,2,0,P|260:340|240:352,2,80.000000298023,0|0|2,1:0|0:0|0:0,0:0:0:0:
256,144,235681,5,0,1:0:0:0:
276,128,235876,1,0,0:0:0:0:
292,112,236071,1,2,0:0:0:0:
312,96,236266,1,0,0:0:0:0:
332,80,236461,1,0,1:0:0:0:
356,88,236655,2,0,L|356:144,2,40.0000001490115,0|0|6,0:0|0:0|0:0,0:0:0:0:
268,260,237045,5,0,0:0:0:0:
180,188,237240,1,0,1:0:0:0:
276,128,237435,1,0,0:0:0:0:
176,80,237629,1,2,0:0:0:0:
276,128,237824,5,0,0:0:0:0:
180,188,238019,1,0,1:0:0:0:
268,260,238214,1,0,0:0:0:0:
368,292,238409,6,0,P|412:284|428:232,1,80.000000298023,2|0,0:0|0:0,0:0:0:0:
440,156,238798,1,0,1:0:0:0:
436,124,238896,1,0,0:0:0:0:
420,96,238993,1,0,0:0:0:0:
396,72,239090,1,0,0:0:0:0:
368,52,239188,6,0,B|332:76|332:76|284:84,1,80.000000298023,2|0,0:0|0:0,0:0:0:0:
208,44,239577,1,0,1:0:0:0:
140,128,239772,1,0,0:0:0:0:
208,216,239967,1,2,0:0:0:0:
276,128,240162,1,0,0:0:0:0:
340,220,240357,1,0,1:0:0:0:
448,192,240551,2,0,P|448:124|436:92,1,80.000000298023,0|2,0:0|0:0,0:0:0:0:
352,48,240941,1,0,0:0:0:0:
276,128,241136,5,0,1:0:0:0:
270,155,241233,1,0,1:0:0:0:
258,180,241330,1,0,1:0:0:0:
239,200,241428,1,0,1:0:0:0:
214,214,241525,1,0,0:0:0:0:
