osu file format v14

[General]
AudioFilename: Draw_the_Emotional Bad_Apple!!.mp3
AudioLeadIn: 0
PreviewTime: -1
Countdown: 1
SampleSet: Normal
StackLeniency: 0.7
Mode: 1
LetterboxInBreaks: 1
WidescreenStoryboard: 0

[Editor]
DistanceSpacing: 2
BeatDivisor: 8
GridSize: 8
TimelineZoom: 4.499998

[Metadata]
Title:Bad Apple!!
TitleUnicode:Bad Apple!!
Artist:Draw the Emotional
ArtistUnicode:Draw the Emotional
Creator:TraxieChan
Version:Inner Oni
Source:Touhou
Tags:Touhou, metal, rock, reimu, yukari
BeatmapID:747382
BeatmapSetID:337852

[Difficulty]
HPDrainRate:5
CircleSize:4
OverallDifficulty:5
ApproachRate:5
SliderMultiplier:1
SliderTickRate:1

[Events]
//Background and Video events
//Break Periods
//Storyboard Layer 0 (Background)
//Storyboard Layer 1 (Fail)
//Storyboard Layer 2 (Pass)
//Storyboard Layer 3 (Foreground)
//Storyboard Sound Samples

[TimingPoints]
8864.99319002052,441.176470588235,4,1,0,100,1,0
15868,-62.5,4,1,0,100,0,0
30096,-40,4,1,0,100,0,0
44214,-62.5,4,1,0,100,0,0
71842,-40,4,1,0,100,0,0
72449,-38.4615384615385,4,1,0,100,0,1
99857,-40,4,1,0,100,0,0
100078,-43.4782608695652,4,1,0,100,0,0
100298,-47.6190476190476,4,1,0,100,0,0
100519,-50,4,1,0,100,0,0
120271,-50,4,1,0,100,0,0
124563,-45.4545454545455,4,1,0,100,0,0
124784,-41.6666666666667,4,1,0,100,0,0
125004,-38.4615384615385,4,1,0,100,0,0
125225,-35.7142857142857,4,1,0,100,0,0
127872,-33.3333333333333,4,1,0,100,0,0
128203,-28.5714285714287,4,1,0,100,0,0
128644,-25,4,1,0,100,0,0

[HitObjects]
240,160,15923,5,4,0:0:0:0:
288,112,16144,1,2,0:0:0:0:
288,112,16364,1,0,0:0:0:0:
256,96,16585,1,2,0:0:0:0:
136,168,16806,1,0,0:0:0:0:
168,128,16916,1,2,0:0:0:0:
168,128,17026,1,2,0:0:0:0:
256,96,17137,1,2,0:0:0:0:
136,168,17247,1,0,0:0:0:0:
256,96,17467,1,0,0:0:0:0:
312,136,17578,1,2,0:0:0:0:
136,168,17688,1,0,0:0:0:0:
296,72,17909,1,2,0:0:0:0:
304,104,18019,1,2,0:0:0:0:
240,200,18129,1,0,0:0:0:0:
240,96,18350,1,0,0:0:0:0:
168,128,18460,1,2,0:0:0:0:
256,200,18570,1,0,0:0:0:0:
208,144,18681,1,2,0:0:0:0:
176,168,18791,1,0,0:0:0:0:
248,208,19012,1,2,0:0:0:0:
248,208,19122,1,2,0:0:0:0:
208,144,19232,1,0,0:0:0:0:
96,144,19342,1,0,0:0:0:0:
208,144,19453,1,2,0:0:0:0:
176,88,19673,1,0,0:0:0:0:
248,208,19784,1,2,0:0:0:0:
248,208,19894,1,0,0:0:0:0:
176,88,20114,1,0,0:0:0:0:
152,16,20335,1,2,0:0:0:0:
176,88,20445,1,2,0:0:0:0:
104,160,20556,1,0,0:0:0:0:
120,88,20666,1,0,0:0:0:0:
288,112,20776,1,2,0:0:0:0:
288,112,20997,1,4,0:0:0:0:
288,112,21217,1,0,0:0:0:0:
224,80,21328,1,2,0:0:0:0:
288,112,21438,1,2,0:0:0:0:
224,80,21548,1,2,0:0:0:0:
288,112,21659,1,0,0:0:0:0:
288,112,21879,1,0,0:0:0:0:
256,120,21934,1,0,0:0:0:0:
224,128,21989,1,0,0:0:0:0:
288,112,22100,1,2,0:0:0:0:
184,136,22320,1,2,0:0:0:0:
288,112,22431,1,0,0:0:0:0:
184,136,22541,1,2,0:0:0:0:
144,184,22596,1,2,0:0:0:0:
288,112,22651,1,2,0:0:0:0:
224,88,22762,1,2,0:0:0:0:
192,80,22817,1,2,0:0:0:0:
160,80,22872,1,2,0:0:0:0:
224,88,22982,1,6,0:0:0:0:
256,96,23203,1,2,0:0:0:0:
160,80,23313,1,0,0:0:0:0:
288,112,23423,1,0,0:0:0:0:
288,112,23644,1,0,0:0:0:0:
288,112,23864,1,2,0:0:0:0:
160,104,23975,1,0,0:0:0:0:
288,112,24085,1,0,0:0:0:0:
192,80,24195,1,0,0:0:0:0:
288,112,24306,1,2,0:0:0:0:
288,112,24526,1,4,0:0:0:0:
288,112,24747,1,2,0:0:0:0:
160,80,24857,1,0,0:0:0:0:
288,112,24967,1,0,0:0:0:0:
160,80,25078,1,2,0:0:0:0:
288,112,25188,1,4,0:0:0:0:
160,80,25409,1,0,0:0:0:0:
160,80,25464,1,0,0:0:0:0:
288,112,25519,1,0,0:0:0:0:
224,120,25629,1,0,0:0:0:0:
160,120,25684,1,0,0:0:0:0:
96,128,25739,1,0,0:0:0:0:
120,8,25850,1,2,0:0:0:0:
256,104,25960,1,0,0:0:0:0:
136,120,26070,1,2,0:0:0:0:
288,112,26181,1,0,0:0:0:0:
288,112,26291,1,0,0:0:0:0:
160,104,26401,1,0,0:0:0:0:
288,112,26512,1,6,0:0:0:0:
288,112,26732,1,2,0:0:0:0:
288,112,26953,1,4,0:0:0:0:
288,112,27173,1,2,0:0:0:0:
288,112,27394,1,4,0:0:0:0:
288,112,27614,1,2,0:0:0:0:
256,112,27670,1,0,0:0:0:0:
200,128,27725,1,0,0:0:0:0:
288,112,27834,1,2,0:0:0:0:
288,112,28056,1,2,0:0:0:0:
224,104,28111,1,0,0:0:0:0:
288,112,28278,1,2,0:0:0:0:
184,104,28333,1,2,0:0:0:0:
160,40,28388,1,2,0:0:0:0:
288,112,28497,1,2,0:0:0:0:
184,104,28553,1,2,0:0:0:0:
128,80,28608,1,2,0:0:0:0:
288,112,28718,1,2,0:0:0:0:
184,104,28774,1,2,0:0:0:0:
128,80,28829,1,2,0:0:0:0:
288,112,28938,1,2,0:0:0:0:
184,104,28994,1,2,0:0:0:0:
128,80,29049,1,2,0:0:0:0:
288,112,29159,1,2,0:0:0:0:
256,104,29215,1,2,0:0:0:0:
192,96,29270,1,2,0:0:0:0:
288,112,29379,1,4,0:0:0:0:
288,112,29599,5,0,0:0:0:0:
160,40,29655,1,0,0:0:0:0:
160,40,29710,1,0,0:0:0:0:
160,40,29765,1,0,0:0:0:0:
160,40,29820,1,0,0:0:0:0:
160,40,29876,1,0,0:0:0:0:
160,40,29931,1,0,0:0:0:0:
160,40,29986,1,0,0:0:0:0:
184,104,30041,1,0,0:0:0:0:
320,224,30151,1,0,0:0:0:0:
272,192,30262,1,0,0:0:0:0:
64,224,30372,1,2,0:0:0:0:
64,224,30482,1,2,0:0:0:0:
64,224,30537,1,0,0:0:0:0:
64,224,30592,1,0,0:0:0:0:
64,256,30703,1,0,0:0:0:0:
128,88,30813,1,0,0:0:0:0:
64,224,30923,1,2,0:0:0:0:
64,224,31034,1,0,0:0:0:0:
64,224,31144,1,2,0:0:0:0:
64,224,31254,1,0,0:0:0:0:
64,224,31364,1,2,0:0:0:0:
80,200,31420,1,0,0:0:0:0:
64,224,31475,1,0,0:0:0:0:
64,256,31585,1,0,0:0:0:0:
80,200,31695,1,0,0:0:0:0:
64,224,31806,1,2,0:0:0:0:
64,224,31916,1,0,0:0:0:0:
136,128,32026,1,2,0:0:0:0:
216,40,32137,1,0,0:0:0:0:
64,224,32247,1,2,0:0:0:0:
64,256,32302,1,0,0:0:0:0:
80,200,32357,1,0,0:0:0:0:
80,200,32467,1,0,0:0:0:0:
64,224,32578,1,0,0:0:0:0:
64,224,32688,1,2,0:0:0:0:
112,184,32798,1,0,0:0:0:0:
80,200,32909,1,2,0:0:0:0:
120,200,33019,1,0,0:0:0:0:
64,224,33129,1,2,0:0:0:0:
64,224,33184,1,0,0:0:0:0:
96,176,33239,1,0,0:0:0:0:
96,176,33350,1,2,0:0:0:0:
120,120,33405,1,0,0:0:0:0:
184,104,33460,1,2,0:0:0:0:
320,224,33515,1,2,0:0:0:0:
216,160,33570,1,0,0:0:0:0:
272,192,33681,1,0,0:0:0:0:
64,224,33791,1,2,0:0:0:0:
136,128,33901,1,0,0:0:0:0:
360,264,34012,1,2,0:0:0:0:
64,224,34067,1,0,0:0:0:0:
64,224,34122,1,0,0:0:0:0:
64,224,34232,1,0,0:0:0:0:
104,184,34342,1,0,0:0:0:0:
64,224,34453,1,2,0:0:0:0:
64,224,34563,1,0,0:0:0:0:
80,200,34673,1,2,0:0:0:0:
64,224,34784,1,0,0:0:0:0:
64,224,34894,1,2,0:0:0:0:
64,224,34949,1,0,0:0:0:0:
80,168,35004,1,0,0:0:0:0:
104,112,35114,1,0,0:0:0:0:
80,200,35224,1,0,0:0:0:0:
64,224,35335,1,2,0:0:0:0:
64,224,35445,1,0,0:0:0:0:
136,128,35555,1,2,0:0:0:0:
216,40,35666,1,0,0:0:0:0:
64,256,35776,1,2,0:0:0:0:
104,208,35831,1,0,0:0:0:0:
80,200,35886,1,0,0:0:0:0:
80,200,35996,1,0,0:0:0:0:
64,224,36107,1,0,0:0:0:0:
64,224,36217,1,2,0:0:0:0:
80,200,36328,1,0,0:0:0:0:
64,224,36438,1,2,0:0:0:0:
120,200,36548,1,0,0:0:0:0:
64,224,36658,1,2,0:0:0:0:
64,224,36713,1,0,0:0:0:0:
80,168,36769,1,0,0:0:0:0:
168,88,36879,1,2,0:0:0:0:
120,128,36934,1,0,0:0:0:0:
168,88,36989,1,0,0:0:0:0:
184,104,37100,1,0,0:0:0:0:
320,224,37210,1,0,0:0:0:0:
272,192,37321,1,2,0:0:0:0:
64,224,37431,1,0,0:0:0:0:
64,224,37541,1,2,0:0:0:0:
64,224,37596,1,0,0:0:0:0:
64,224,37651,1,0,0:0:0:0:
64,256,37762,1,0,0:0:0:0:
128,88,37872,1,0,0:0:0:0:
64,224,37982,1,2,0:0:0:0:
64,224,38093,1,0,0:0:0:0:
64,224,38203,1,2,0:0:0:0:
64,224,38313,1,0,0:0:0:0:
64,224,38423,1,2,0:0:0:0:
80,200,38479,1,0,0:0:0:0:
64,224,38534,1,0,0:0:0:0:
64,256,38644,1,0,0:0:0:0:
80,200,38754,1,0,0:0:0:0:
64,224,38864,1,2,0:0:0:0:
64,224,38975,1,0,0:0:0:0:
136,128,39085,1,2,0:0:0:0:
216,40,39196,1,0,0:0:0:0:
64,224,39306,1,2,0:0:0:0:
64,256,39361,1,0,0:0:0:0:
80,200,39416,1,0,0:0:0:0:
80,200,39526,1,0,0:0:0:0:
64,224,39637,1,0,0:0:0:0:
64,224,39747,1,2,0:0:0:0:
112,184,39857,1,0,0:0:0:0:
80,200,39968,1,2,0:0:0:0:
120,200,40078,1,0,0:0:0:0:
64,224,40188,1,2,0:0:0:0:
64,224,40243,1,0,0:0:0:0:
96,176,40298,1,0,0:0:0:0:
96,176,40409,1,2,0:0:0:0:
120,120,40464,1,0,0:0:0:0:
184,104,40519,1,2,0:0:0:0:
320,224,40574,1,2,0:0:0:0:
272,192,40629,1,0,0:0:0:0:
192,104,40739,1,0,0:0:0:0:
64,224,40850,1,2,0:0:0:0:
136,128,40960,1,0,0:0:0:0:
360,264,41071,1,2,0:0:0:0:
64,224,41126,1,0,0:0:0:0:
64,224,41181,1,0,0:0:0:0:
64,224,41291,1,0,0:0:0:0:
104,184,41401,1,0,0:0:0:0:
64,224,41512,1,2,0:0:0:0:
64,224,41622,1,0,0:0:0:0:
80,200,41732,1,2,0:0:0:0:
64,224,41843,1,0,0:0:0:0:
64,224,41953,1,2,0:0:0:0:
64,224,42008,1,0,0:0:0:0:
80,168,42063,1,0,0:0:0:0:
104,112,42173,1,0,0:0:0:0:
80,200,42283,1,0,0:0:0:0:
64,224,42394,1,2,0:0:0:0:
64,224,42504,1,0,0:0:0:0:
136,128,42614,1,2,0:0:0:0:
216,40,42725,1,0,0:0:0:0:
64,256,42835,1,2,0:0:0:0:
104,208,42890,1,0,0:0:0:0:
80,200,42945,1,0,0:0:0:0:
80,200,43055,1,0,0:0:0:0:
64,224,43166,1,0,0:0:0:0:
64,224,43276,1,2,0:0:0:0:
80,200,43387,1,0,0:0:0:0:
64,224,43497,5,2,0:0:0:0:
120,200,43607,1,0,0:0:0:0:
64,224,43717,1,2,0:0:0:0:
64,224,43772,1,0,0:0:0:0:
80,168,43828,1,0,0:0:0:0:
168,88,43938,1,2,0:0:0:0:
120,128,43993,1,0,0:0:0:0:
168,88,44048,1,2,0:0:0:0:
152,88,44103,1,2,0:0:0:0:
208,112,44159,1,4,0:0:0:0:
224,192,44269,1,2,0:0:0:0:
168,72,44379,5,0,0:0:0:0:
256,152,44489,1,0,0:0:0:0:
192,40,44600,1,2,0:0:0:0:
184,120,44710,1,0,0:0:0:0:
72,200,44820,1,0,0:0:0:0:
152,216,44931,1,0,0:0:0:0:
256,152,45041,1,2,0:0:0:0:
168,72,45262,1,0,0:0:0:0:
112,176,45482,1,2,0:0:0:0:
72,200,45703,1,0,0:0:0:0:
80,200,45923,1,2,0:0:0:0:
312,136,46144,1,2,0:0:0:0:
192,40,46364,1,2,0:0:0:0:
248,208,46475,1,0,0:0:0:0:
264,272,46585,1,0,0:0:0:0:
264,104,46695,1,0,0:0:0:0:
80,200,46806,1,2,0:0:0:0:
168,72,47027,1,0,0:0:0:0:
256,152,47137,1,0,0:0:0:0:
192,40,47248,1,2,0:0:0:0:
168,72,47357,1,0,0:0:0:0:
72,200,47468,1,2,0:0:0:0:
248,152,47578,1,2,0:0:0:0:
136,184,47688,1,2,0:0:0:0:
168,72,47909,1,0,0:0:0:0:
256,152,48019,1,0,0:0:0:0:
192,40,48130,1,2,0:0:0:0:
72,200,48350,1,0,0:0:0:0:
104,184,48460,1,0,0:0:0:0:
80,200,48570,1,2,0:0:0:0:
160,176,48681,1,0,0:0:0:0:
168,72,48791,1,2,0:0:0:0:
272,128,48901,1,0,0:0:0:0:
272,128,49012,1,2,0:0:0:0:
72,200,49232,1,2,0:0:0:0:
248,160,49453,1,0,0:0:0:0:
200,128,49508,1,0,0:0:0:0:
168,72,49673,1,2,0:0:0:0:
176,128,49728,1,2,0:0:0:0:
216,104,49894,1,0,0:0:0:0:
200,48,49949,1,0,0:0:0:0:
72,200,50115,1,2,0:0:0:0:
160,112,50170,1,2,0:0:0:0:
80,200,50335,1,2,0:0:0:0:
168,72,50390,1,0,0:0:0:0:
168,72,50556,1,0,0:0:0:0:
160,112,50611,1,0,0:0:0:0:
192,40,50776,1,0,0:0:0:0:
168,72,50831,1,2,0:0:0:0:
72,200,50997,1,2,0:0:0:0:
120,168,51052,1,2,0:0:0:0:
80,200,51217,1,2,0:0:0:0:
160,192,51328,1,0,0:0:0:0:
168,72,51438,1,2,0:0:0:0:
168,72,51548,1,0,0:0:0:0:
192,40,51659,1,2,0:0:0:0:
200,120,51769,1,0,0:0:0:0:
72,200,51879,1,0,0:0:0:0:
152,200,51989,1,0,0:0:0:0:
80,200,52100,1,2,0:0:0:0:
232,160,52320,1,0,0:0:0:0:
80,200,52541,1,2,0:0:0:0:
160,184,52651,1,0,0:0:0:0:
80,200,52762,1,2,0:0:0:0:
80,200,52982,1,2,0:0:0:0:
168,72,53203,1,0,0:0:0:0:
192,40,53424,1,2,0:0:0:0:
224,152,53534,1,0,0:0:0:0:
72,200,53644,1,2,0:0:0:0:
80,200,53864,1,2,0:0:0:0:
168,72,54085,1,2,0:0:0:0:
192,40,54306,1,2,0:0:0:0:
232,152,54416,1,0,0:0:0:0:
72,200,54526,1,2,0:0:0:0:
168,160,54637,1,2,0:0:0:0:
80,200,54747,1,2,0:0:0:0:
168,72,54968,1,0,0:0:0:0:
192,40,55188,1,2,0:0:0:0:
160,88,55298,1,0,0:0:0:0:
72,200,55408,1,0,0:0:0:0:
112,152,55519,1,0,0:0:0:0:
80,200,55629,1,2,0:0:0:0:
168,72,55850,1,0,0:0:0:0:
192,40,56071,1,2,0:0:0:0:
96,104,56181,1,0,0:0:0:0:
72,200,56291,1,0,0:0:0:0:
80,200,56512,1,0,0:0:0:0:
136,192,56567,1,0,0:0:0:0:
112,152,56732,1,2,0:0:0:0:
192,40,56953,1,0,0:0:0:0:
216,96,57008,1,0,0:0:0:0:
120,144,57173,1,2,0:0:0:0:
80,200,57394,1,0,0:0:0:0:
136,192,57449,1,0,0:0:0:0:
200,120,57614,1,2,0:0:0:0:
192,40,57836,1,2,0:0:0:0:
240,144,57945,1,2,0:0:0:0:
72,200,58056,1,2,0:0:0:0:
168,128,58166,1,2,0:0:0:0:
80,200,58276,1,0,0:0:0:0:
168,72,58497,1,0,0:0:0:0:
192,40,58718,1,2,0:0:0:0:
72,200,58938,1,0,0:0:0:0:
152,176,59048,1,0,0:0:0:0:
80,200,59159,1,2,0:0:0:0:
160,176,59269,1,0,0:0:0:0:
168,72,59379,1,0,0:0:0:0:
192,112,59489,1,0,0:0:0:0:
192,40,59600,1,2,0:0:0:0:
72,200,59821,1,0,0:0:0:0:
80,200,60041,1,2,0:0:0:0:
168,72,60262,1,0,0:0:0:0:
256,152,60372,1,0,0:0:0:0:
192,40,60483,1,2,0:0:0:0:
72,200,60703,1,0,0:0:0:0:
80,200,60923,1,2,0:0:0:0:
168,72,61144,1,2,0:0:0:0:
256,152,61254,1,0,0:0:0:0:
192,40,61365,1,2,0:0:0:0:
72,200,61585,1,2,0:0:0:0:
80,200,61806,1,0,0:0:0:0:
184,144,61916,1,0,0:0:0:0:
168,72,62027,1,2,0:0:0:0:
192,40,62247,1,2,0:0:0:0:
96,112,62467,1,0,0:0:0:0:
80,200,62688,1,2,0:0:0:0:
216,120,62909,1,2,0:0:0:0:
104,128,63019,1,0,0:0:0:0:
192,40,63130,1,2,0:0:0:0:
72,200,63350,1,0,0:0:0:0:
80,200,63570,1,0,0:0:0:0:
136,168,63626,1,0,0:0:0:0:
168,72,63791,1,2,0:0:0:0:
208,112,63846,1,2,0:0:0:0:
192,40,64012,1,0,0:0:0:0:
208,112,64067,1,0,0:0:0:0:
72,200,64232,1,2,0:0:0:0:
208,112,64287,1,2,0:0:0:0:
208,112,64453,1,2,0:0:0:0:
208,112,64508,1,0,0:0:0:0:
168,72,64674,1,0,0:0:0:0:
208,112,64728,1,0,0:0:0:0:
192,40,64895,1,0,0:0:0:0:
208,112,64949,1,2,0:0:0:0:
72,200,65115,1,2,0:0:0:0:
208,112,65170,1,2,0:0:0:0:
80,200,65335,1,2,0:0:0:0:
120,192,65445,1,0,0:0:0:0:
240,104,65556,1,2,0:0:0:0:
120,192,65666,1,0,0:0:0:0:
256,88,65776,1,2,0:0:0:0:
120,192,65887,1,0,0:0:0:0:
104,144,65997,1,0,0:0:0:0:
120,192,66107,1,0,0:0:0:0:
120,192,66217,1,2,0:0:0:0:
104,144,66438,1,0,0:0:0:0:
192,40,66659,1,2,0:0:0:0:
192,160,66769,1,0,0:0:0:0:
72,200,66879,1,0,0:0:0:0:
184,152,66989,1,2,0:0:0:0:
192,40,67100,1,2,0:0:0:0:
128,192,67320,1,2,0:0:0:0:
80,200,67540,1,2,0:0:0:0:
192,152,67651,1,0,0:0:0:0:
168,72,67762,1,0,0:0:0:0:
192,40,67982,1,0,0:0:0:0:
168,168,68092,1,0,0:0:0:0:
72,200,68202,5,2,0:0:0:0:
192,40,68423,1,2,0:0:0:0:
72,200,68643,1,2,0:0:0:0:
80,200,68863,1,0,0:0:0:0:
168,72,69084,1,2,0:0:0:0:
168,168,69195,1,0,0:0:0:0:
192,40,69305,1,2,0:0:0:0:
72,200,69526,1,2,0:0:0:0:
192,40,69747,1,2,0:0:0:0:
168,168,69857,1,0,0:0:0:0:
72,200,69967,1,0,0:0:0:0:
80,200,70187,1,2,0:0:0:0:
168,72,70408,1,0,0:0:0:0:
192,40,70629,1,0,0:0:0:0:
184,96,70684,1,0,0:0:0:0:
144,88,70850,1,2,0:0:0:0:
192,40,71070,1,0,0:0:0:0:
144,88,71126,1,0,0:0:0:0:
144,88,71291,1,2,0:0:0:0:
136,176,71512,1,0,0:0:0:0:
80,200,71567,1,0,0:0:0:0:
152,104,71732,1,2,0:0:0:0:
192,40,71952,1,0,0:0:0:0:
144,88,72008,1,0,0:0:0:0:
144,88,72063,1,0,0:0:0:0:
192,56,72118,1,0,0:0:0:0:
184,224,72173,1,0,0:0:0:0:
72,200,72227,1,0,0:0:0:0:
112,152,72283,1,0,0:0:0:0:
272,112,72339,1,0,0:0:0:0:
240,160,72394,1,0,0:0:0:0:
176,64,72504,1,0,0:0:0:0:
240,160,72614,1,2,0:0:0:0:
216,40,72725,1,0,0:0:0:0:
360,296,72835,1,2,0:0:0:0:
144,240,72945,1,0,0:0:0:0:
176,88,73056,1,0,0:0:0:0:
104,184,73166,1,2,0:0:0:0:
344,280,73276,1,2,0:0:0:0:
184,88,73497,1,0,0:0:0:0:
304,240,73717,1,2,0:0:0:0:
168,56,73938,1,0,0:0:0:0:
312,256,74159,1,2,0:0:0:0:
208,192,74269,1,0,0:0:0:0:
144,8,74379,1,0,0:0:0:0:
112,192,74489,1,0,0:0:0:0:
272,192,74600,1,2,0:0:0:0:
160,152,74710,1,0,0:0:0:0:
224,112,74820,1,0,0:0:0:0:
272,192,74931,1,2,0:0:0:0:
104,136,75041,1,2,0:0:0:0:
120,120,75262,1,0,0:0:0:0:
360,296,75483,1,2,0:0:0:0:
256,40,75592,1,0,0:0:0:0:
176,88,75704,1,2,0:0:0:0:
160,24,75813,1,2,0:0:0:0:
344,280,75924,1,2,0:0:0:0:
144,208,76034,1,0,0:0:0:0:
184,88,76145,1,2,0:0:0:0:
88,160,76254,1,0,0:0:0:0:
304,240,76365,1,2,0:0:0:0:
224,264,76475,1,0,0:0:0:0:
168,56,76586,1,0,0:0:0:0:
224,264,76695,1,0,0:0:0:0:
312,256,76807,1,2,0:0:0:0:
144,8,77027,1,0,0:0:0:0:
272,192,77248,1,2,0:0:0:0:
144,112,77357,1,0,0:0:0:0:
272,192,77468,1,2,0:0:0:0:
160,112,77578,1,0,0:0:0:0:
168,144,77688,1,0,0:0:0:0:
144,208,77798,1,0,0:0:0:0:
240,160,77909,1,2,0:0:0:0:
144,208,78019,1,2,0:0:0:0:
360,296,78130,1,0,0:0:0:0:
104,248,78239,1,2,0:0:0:0:
176,88,78351,1,0,0:0:0:0:
96,232,78460,1,2,0:0:0:0:
344,280,78570,1,2,0:0:0:0:
184,88,78791,1,2,0:0:0:0:
80,152,78901,1,0,0:0:0:0:
304,240,79012,1,2,0:0:0:0:
168,56,79233,1,2,0:0:0:0:
112,160,79342,1,2,0:0:0:0:
312,256,79454,1,0,0:0:0:0:
112,160,79563,1,0,0:0:0:0:
144,8,79673,1,2,0:0:0:0:
112,160,79784,1,0,0:0:0:0:
272,192,79895,1,2,0:0:0:0:
224,264,80004,1,0,0:0:0:0:
272,192,80115,1,0,0:0:0:0:
224,264,80225,1,0,0:0:0:0:
272,192,80336,1,2,0:0:0:0:
240,160,80556,1,0,0:0:0:0:
360,296,80777,1,2,0:0:0:0:
176,88,80998,1,2,0:0:0:0:
344,280,81218,1,0,0:0:0:0:
248,216,81328,1,2,0:0:0:0:
184,88,81439,1,0,0:0:0:0:
24,232,81548,1,2,0:0:0:0:
304,240,81659,1,0,0:0:0:0:
32,232,81769,1,0,0:0:0:0:
168,56,81880,1,0,0:0:0:0:
32,224,81989,1,2,0:0:0:0:
312,256,82101,1,0,0:0:0:0:
144,8,82321,1,0,0:0:0:0:
176,120,82431,1,0,0:0:0:0:
272,192,82542,1,2,0:0:0:0:
272,192,82762,1,2,0:0:0:0:
272,192,82983,1,0,0:0:0:0:
240,160,83203,1,2,0:0:0:0:
240,160,83313,1,0,0:0:0:0:
360,296,83424,1,2,0:0:0:0:
152,248,83534,1,0,0:0:0:0:
176,88,83644,1,0,0:0:0:0:
152,248,83754,1,0,0:0:0:0:
88,144,83864,1,2,0:0:0:0:
80,224,84085,1,0,0:0:0:0:
208,120,84306,1,2,0:0:0:0:
88,144,84416,1,0,0:0:0:0:
168,56,84527,1,0,0:0:0:0:
168,112,84637,1,2,0:0:0:0:
312,256,84748,1,2,0:0:0:0:
144,136,84857,1,0,0:0:0:0:
144,8,84968,1,2,0:0:0:0:
144,136,85078,1,0,0:0:0:0:
272,192,85189,1,2,0:0:0:0:
152,192,85298,1,2,0:0:0:0:
272,192,85409,1,0,0:0:0:0:
144,136,85519,1,2,0:0:0:0:
272,192,85630,1,2,0:0:0:0:
240,160,85850,1,0,0:0:0:0:
360,296,86070,1,2,0:0:0:0:
296,192,86181,1,0,0:0:0:0:
176,88,86292,1,0,0:0:0:0:
272,152,86401,1,0,0:0:0:0:
344,280,86512,1,2,0:0:0:0:
232,232,86622,1,0,0:0:0:0:
184,88,86733,1,2,0:0:0:0:
272,152,86842,1,0,0:0:0:0:
304,240,86953,1,2,0:0:0:0:
272,152,87063,1,0,0:0:0:0:
168,56,87174,1,0,0:0:0:0:
272,152,87284,1,2,0:0:0:0:
312,256,87395,1,0,0:0:0:0:
144,8,87614,1,2,0:0:0:0:
272,192,87836,1,0,0:0:0:0:
240,160,87945,1,2,0:0:0:0:
272,192,88056,1,0,0:0:0:0:
136,200,88166,1,2,0:0:0:0:
272,192,88277,1,0,0:0:0:0:
176,120,88387,1,0,0:0:0:0:
240,160,88497,1,2,0:0:0:0:
176,120,88607,1,2,0:0:0:0:
360,296,88718,1,0,0:0:0:0:
256,232,88828,1,0,0:0:0:0:
176,88,88939,1,2,0:0:0:0:
80,152,89048,1,0,0:0:0:0:
344,280,89159,1,2,0:0:0:0:
184,88,89379,1,2,0:0:0:0:
128,120,89600,1,0,0:0:0:0:
32,192,89710,1,2,0:0:0:0:
128,120,89820,1,2,0:0:0:0:
32,200,89931,1,0,0:0:0:0:
128,120,90041,1,2,0:0:0:0:
40,200,90151,1,0,0:0:0:0:
128,120,90262,1,2,0:0:0:0:
40,200,90372,1,0,0:0:0:0:
128,120,90482,1,2,0:0:0:0:
40,200,90592,1,2,0:0:0:0:
128,120,90703,1,0,0:0:0:0:
40,200,90813,1,0,0:0:0:0:
128,120,90923,1,2,0:0:0:0:
48,136,91144,1,0,0:0:0:0:
360,296,91365,1,2,0:0:0:0:
256,232,91475,1,0,0:0:0:0:
176,88,91586,1,2,0:0:0:0:
184,264,91695,1,2,0:0:0:0:
344,280,91806,1,0,0:0:0:0:
240,224,91916,1,0,0:0:0:0:
184,88,92027,1,2,0:0:0:0:
136,200,92137,1,0,0:0:0:0:
304,240,92247,1,0,0:0:0:0:
192,192,92357,1,2,0:0:0:0:
168,56,92468,1,2,0:0:0:0:
144,176,92578,1,0,0:0:0:0:
312,256,92689,1,2,0:0:0:0:
144,8,92909,1,0,0:0:0:0:
272,192,93130,1,0,0:0:0:0:
168,136,93239,1,2,0:0:0:0:
272,192,93350,1,0,0:0:0:0:
136,192,93460,1,2,0:0:0:0:
272,192,93571,1,0,0:0:0:0:
168,136,93681,1,2,0:0:0:0:
168,136,93791,1,2,0:0:0:0:
40,192,93901,1,0,0:0:0:0:
168,136,94012,1,2,0:0:0:0:
72,192,94122,1,2,0:0:0:0:
176,88,94233,1,0,0:0:0:0:
168,136,94342,1,0,0:0:0:0:
344,280,94453,1,2,0:0:0:0:
184,88,94674,1,0,0:0:0:0:
304,240,94894,1,0,0:0:0:0:
208,168,95004,1,2,0:0:0:0:
168,56,95115,1,0,0:0:0:0:
200,176,95225,1,2,0:0:0:0:
312,256,95336,1,2,0:0:0:0:
224,176,95445,1,0,0:0:0:0:
144,8,95556,1,2,0:0:0:0:
184,120,95666,1,0,0:0:0:0:
272,192,95777,1,2,0:0:0:0:
168,136,95887,1,2,0:0:0:0:
272,192,95997,1,0,0:0:0:0:
120,104,96107,1,2,0:0:0:0:
272,192,96218,1,2,0:0:0:0:
240,160,96438,1,0,0:0:0:0:
176,88,96548,1,2,0:0:0:0:
360,296,96659,1,0,0:0:0:0:
176,88,96879,1,0,0:0:0:0:
344,280,97100,1,2,0:0:0:0:
184,88,97321,1,0,0:0:0:0:
304,240,97541,1,2,0:0:0:0:
280,136,97651,1,0,0:0:0:0:
168,56,97762,1,0,0:0:0:0:
312,256,97983,1,2,0:0:0:0:
144,8,98203,1,0,0:0:0:0:
280,136,98423,1,2,0:0:0:0:
216,136,98534,1,0,0:0:0:0:
104,128,98644,1,2,0:0:0:0:
272,192,98754,1,0,0:0:0:0:
240,160,98864,1,2,0:0:0:0:
240,160,98975,1,0,0:0:0:0:
104,128,99085,1,0,0:0:0:0:
104,128,99195,1,2,0:0:0:0:
104,128,99306,1,0,0:0:0:0:
360,296,99416,1,2,0:0:0:0:
344,280,99526,1,0,0:0:0:0:
120,128,99637,1,2,0:0:0:0:
136,176,99747,1,2,0:0:0:0:
184,88,99967,1,0,0:0:0:0:
304,240,100188,1,2,0:0:0:0:
168,56,100409,1,0,0:0:0:0:
312,256,100629,1,2,0:0:0:0:
200,216,100739,1,2,0:0:0:0:
144,8,100850,1,2,0:0:0:0:
272,192,101071,1,2,0:0:0:0:
272,192,101291,1,0,0:0:0:0:
272,192,101512,1,6,0:0:0:0:
240,160,101732,1,2,0:0:0:0:
360,296,101953,1,2,0:0:0:0:
120,152,102063,1,0,0:0:0:0:
176,88,102174,1,2,0:0:0:0:
344,280,102394,1,0,0:0:0:0:
184,88,102615,1,0,0:0:0:0:
80,144,102725,1,0,0:0:0:0:
304,240,102835,1,2,0:0:0:0:
168,56,103056,1,0,0:0:0:0:
312,256,103277,1,6,0:0:0:0:
144,8,103497,1,0,0:0:0:0:
272,192,103718,1,2,0:0:0:0:
168,136,103828,1,0,0:0:0:0:
272,192,103938,1,0,0:0:0:0:
80,136,104159,1,0,0:0:0:0:
240,160,104379,1,0,0:0:0:0:
128,120,104489,1,2,0:0:0:0:
360,296,104600,1,2,0:0:0:0:
176,88,104820,1,0,0:0:0:0:
112,104,105041,1,6,0:0:0:0:
184,88,105262,1,0,0:0:0:0:
304,240,105482,1,2,0:0:0:0:
208,168,105592,1,0,0:0:0:0:
168,56,105703,1,2,0:0:0:0:
128,168,105813,1,2,0:0:0:0:
312,256,105924,1,0,0:0:0:0:
128,168,106034,1,2,0:0:0:0:
144,8,106144,1,0,0:0:0:0:
128,168,106254,1,2,0:0:0:0:
272,192,106365,1,0,0:0:0:0:
168,136,106475,1,2,0:0:0:0:
272,192,106585,1,2,0:0:0:0:
168,136,106695,1,2,0:0:0:0:
272,192,106806,1,0,0:0:0:0:
240,160,107026,1,4,0:0:0:0:
360,296,107247,1,6,0:0:0:0:
168,136,107467,1,4,0:0:0:0:
344,280,107688,1,2,0:0:0:0:
248,216,107798,1,2,0:0:0:0:
184,88,107909,1,0,0:0:0:0:
80,128,108019,1,0,0:0:0:0:
304,240,108129,1,2,0:0:0:0:
168,56,108350,1,0,0:0:0:0:
112,160,108570,1,6,0:0:0:0:
112,152,108791,1,0,0:0:0:0:
272,192,109012,1,0,0:0:0:0:
160,152,109122,1,2,0:0:0:0:
272,192,109232,1,0,0:0:0:0:
272,192,109453,1,2,0:0:0:0:
240,160,109673,1,2,0:0:0:0:
120,136,109784,1,2,0:0:0:0:
360,296,109894,1,0,0:0:0:0:
176,88,110115,1,0,0:0:0:0:
80,144,110335,1,6,0:0:0:0:
80,144,110556,1,0,0:0:0:0:
160,152,110776,1,6,0:0:0:0:
168,56,110997,1,0,0:0:0:0:
312,256,111218,1,2,0:0:0:0:
144,8,111438,1,2,0:0:0:0:
168,184,111548,1,2,0:0:0:0:
272,192,111659,1,2,0:0:0:0:
272,192,111879,1,0,0:0:0:0:
272,192,112100,1,6,0:0:0:0:
240,160,112320,1,2,0:0:0:0:
160,152,112431,1,0,0:0:0:0:
360,296,112541,1,0,0:0:0:0:
176,88,112762,1,2,0:0:0:0:
344,280,112982,1,2,0:0:0:0:
184,88,113203,1,0,0:0:0:0:
304,240,113423,1,2,0:0:0:0:
88,168,113534,1,0,0:0:0:0:
168,56,113644,1,2,0:0:0:0:
88,168,113754,1,2,0:0:0:0:
312,256,113865,1,0,0:0:0:0:
144,8,114085,1,2,0:0:0:0:
272,192,114306,1,2,0:0:0:0:
152,200,114416,1,2,0:0:0:0:
272,192,114526,1,2,0:0:0:0:
272,192,114747,1,0,0:0:0:0:
240,160,114967,1,0,0:0:0:0:
120,176,115078,1,0,0:0:0:0:
360,296,115188,1,2,0:0:0:0:
256,232,115298,1,0,0:0:0:0:
176,88,115409,1,2,0:0:0:0:
344,280,115629,1,6,0:0:0:0:
184,88,115850,1,0,0:0:0:0:
304,240,116070,1,0,0:0:0:0:
200,176,116181,1,0,0:0:0:0:
168,56,116291,1,2,0:0:0:0:
312,256,116512,1,2,0:0:0:0:
144,8,116732,1,0,0:0:0:0:
272,192,116953,1,2,0:0:0:0:
272,192,117173,1,0,0:0:0:0:
272,192,117394,1,6,0:0:0:0:
240,160,117614,1,2,0:0:0:0:
184,112,117725,1,0,0:0:0:0:
360,296,117835,1,2,0:0:0:0:
176,88,118056,1,0,0:0:0:0:
344,280,118276,1,0,0:0:0:0:
240,224,118387,1,2,0:0:0:0:
184,88,118497,1,0,0:0:0:0:
184,192,118607,1,0,0:0:0:0:
304,240,118717,1,2,0:0:0:0:
168,56,118938,1,0,0:0:0:0:
312,256,119159,1,6,0:0:0:0:
144,8,119379,1,0,0:0:0:0:
272,192,119600,1,6,0:0:0:0:
272,192,119820,1,2,0:0:0:0:
112,152,119931,1,2,0:0:0:0:
272,192,120041,1,0,0:0:0:0:
240,160,120262,1,6,0:0:0:0:
360,296,120483,1,0,0:0:0:0:
256,240,120592,1,2,0:0:0:0:
176,88,120704,1,2,0:0:0:0:
128,120,120813,1,0,0:0:0:0:
344,280,120924,1,2,0:0:0:0:
184,88,121145,1,6,0:0:0:0:
304,240,121365,1,2,0:0:0:0:
224,152,121475,1,2,0:0:0:0:
168,56,121586,1,0,0:0:0:0:
312,256,121807,1,6,0:0:0:0:
144,8,122026,1,0,0:0:0:0:
272,192,122248,1,0,0:0:0:0:
160,160,122357,1,0,0:0:0:0:
272,192,122467,1,2,0:0:0:0:
272,192,122689,1,6,0:0:0:0:
240,160,122909,1,0,0:0:0:0:
360,296,123129,1,2,0:0:0:0:
176,88,123351,1,2,0:0:0:0:
64,128,123460,1,2,0:0:0:0:
344,280,123571,1,0,0:0:0:0:
184,88,123792,1,0,0:0:0:0:
304,240,124012,1,2,0:0:0:0:
176,176,124122,1,0,0:0:0:0:
168,56,124233,1,2,0:0:0:0:
312,256,124454,1,6,0:0:0:0:
144,8,124673,1,0,0:0:0:0:
272,192,124894,1,2,0:0:0:0:
272,192,125115,1,2,0:0:0:0:
272,192,125336,1,0,0:0:0:0:
216,176,125445,1,2,0:0:0:0:
360,296,125556,1,0,0:0:0:0:
184,152,125666,1,2,0:0:0:0:
312,264,125776,1,0,0:0:0:0:
176,88,125887,1,2,0:0:0:0:
136,128,125997,1,2,0:0:0:0:
136,128,126107,1,0,0:0:0:0:
344,280,126217,1,2,0:0:0:0:
136,128,126328,1,2,0:0:0:0:
184,88,126438,1,2,0:0:0:0:
136,128,126548,1,0,0:0:0:0:
304,240,126659,1,2,0:0:0:0:
136,128,126769,1,0,0:0:0:0:
168,56,126880,1,2,0:0:0:0:
312,256,127100,1,0,0:0:0:0:
144,8,127321,1,2,0:0:0:0:
272,192,127541,1,0,0:0:0:0:
272,192,127762,1,6,0:0:0:0:
272,192,127982,1,4,0:0:0:0:
192,48,128423,1,4,0:0:0:0:
152,264,128864,1,4,0:0:0:0:
