osu file format v14

[General]
AudioFilename: kokoro.mp3
AudioLeadIn: 0
PreviewTime: 57706
Countdown: 0
SampleSet: Normal
StackLeniency: 0.7
Mode: 0
LetterboxInBreaks: 1
WidescreenStoryboard: 0

[Editor]
Bookmarks: 1706,228009
DistanceSpacing: 0.5
BeatDivisor: 4
GridSize: 8
TimelineZoom: 1.2

[Metadata]
Title:We Cannot Get Out of Here Forever
TitleUnicode:We Cannot Get Out of Here Forever
Artist:Draw The Emotional & Foreground Eclipse
ArtistUnicode:Draw The Emotional & Foreground Eclipse
Creator:-Kriston-
Version:Eternity
Source:Touhou
Tags:C81 C83 Metal Vocal Anime Touhou Merami Katochi Draw The Emotional Kriston
BeatmapID:650515
BeatmapSetID:288437

[Difficulty]
HPDrainRate:8
CircleSize:4
OverallDifficulty:8
ApproachRate:9
SliderMultiplier:2.1
SliderTickRate:2

[Events]
//Background and Video events
0,0,"Dteepls.jpg",0,0
//Break Periods
2,162876,169743
//Storyboard Layer 0 (Background)
//Storyboard Layer 1 (Fail)
//Storyboard Layer 2 (Pass)
//Storyboard Layer 3 (Foreground)
//Storyboard Sound Samples

[TimingPoints]
3040,333.333333333333,4,1,1,100,1,0
9706,-80,4,1,1,100,0,0
15039,-100,4,1,1,100,0,0
25706,-111.111111111111,4,1,1,100,0,0
36373,-100,4,1,1,100,0,0
45706,-100,4,1,1,11,0,0
47039,-100,4,1,1,100,0,0
52373,-90.9090909090909,4,1,1,100,0,0
56373,-66.6666666666667,4,1,1,100,0,0
57373,-80,4,1,1,100,0,0
57706,-66.6666666666667,4,1,1,100,0,1
67039,-66.6666666666667,4,1,1,5,0,1
67539,-66.6666666666667,4,1,1,50,0,1
68039,-66.6666666666667,4,1,1,100,0,1
76373,-80,4,1,1,100,0,0
81039,-100,4,1,1,100,0,0
81706,-100,4,1,1,70,0,0
82373,-100,4,1,1,75,0,0
83039,-100,4,1,1,80,0,0
83706,-100,4,1,1,85,0,0
84373,-100,4,1,1,90,0,0
85039,-100,4,1,1,95,0,0
85706,-100,4,1,1,100,0,0
85710,400,4,1,1,100,1,0
86910,428.571428571429,4,1,1,100,1,0
87350,461.538461538462,4,1,1,100,1,0
87350,-100,4,1,1,80,0,0
93811,-100,4,1,1,70,0,0
94734,-100,4,1,1,60,0,0
102119,-90.9090909090909,4,1,1,80,0,0
109503,-80,4,1,1,100,0,1
124273,-80,4,1,1,100,0,0
126013,333.333333333333,4,1,1,100,1,0
128010,333.333333333333,4,1,1,100,1,0
128013,-111.111111111111,4,1,1,100,0,0
138676,-111.111111111111,4,1,1,60,0,0
144009,-111.111111111111,4,1,1,70,0,0
145343,-111.111111111111,4,1,1,80,0,0
146676,-111.111111111111,4,1,1,90,0,0
148009,-111.111111111111,4,1,1,100,0,0
149343,-133.333333333333,4,1,1,100,0,0
160009,-133.333333333333,4,1,1,50,0,0
161343,-133.333333333333,4,1,1,25,0,0
162676,-133.333333333333,4,1,1,5,0,0
170343,-111.111111111111,4,1,1,60,0,0
170443,-111.111111111111,4,1,1,60,0,0
180343,-66.6666666666667,4,1,1,60,0,0
180684,-100,4,1,1,80,0,0
181343,-100,4,1,1,70,0,0
182676,-100,4,1,1,80,0,0
184009,-100,4,1,1,90,0,0
185176,-100,4,1,1,100,0,0
188009,-90.9090909090909,4,1,1,100,0,0
189343,-80,4,1,1,100,0,0
192009,-66.6666666666667,4,1,1,100,0,1
221343,-80,4,1,1,100,0,0

[Colours]
Combo1 : 97,97,97
Combo2 : 128,0,0

[HitObjects]
104,208,1706,5,8,0:0:0:0:
408,208,2040,1,8,0:0:0:0:
256,56,2373,1,8,0:0:0:0:
256,91,2456,1,8,0:0:0:0:
256,126,2539,1,8,0:0:0:0:
256,161,2622,1,8,0:0:0:0:
256,196,2706,1,8,0:0:0:0:
256,231,2789,1,8,0:0:0:0:
256,266,2872,1,8,0:0:0:0:
256,301,2956,1,8,0:0:0:0:
256,336,3039,5,4,0:0:0:0:
384,208,3873,1,0,0:0:0:0:
384,208,3956,1,0,0:0:0:0:
384,208,4039,1,8,0:0:0:0:
312,296,4206,1,0,0:0:0:0:
240,296,4373,2,0,B|216:248|296:216|296:216|296:96,1,210,4|8,0:0|0:0,0:0:0:0:
208,120,4873,5,0,0:0:0:0:
192,136,4956,1,0,0:0:0:0:
176,152,5039,1,0,0:0:0:0:
120,216,5206,1,0,0:0:0:0:
48,296,5373,1,8,0:0:0:0:
192,296,5539,1,0,0:0:0:0:
256,224,5706,2,0,B|320:224|360:312|360:312|416:232|416:232,1,210,4|8,0:0|0:0,0:0:0:0:
400,184,6206,5,0,0:0:0:0:
400,160,6289,1,0,0:0:0:0:
400,136,6373,1,0,0:0:0:0:
400,56,6539,1,0,0:0:0:0:
168,56,6706,1,8,0:0:0:0:
280,232,6873,1,0,0:0:0:0:
264,56,7039,2,0,B|288:104|208:136|208:136|208:256,1,210,4|8,0:0|0:0,0:0:0:0:
208,312,7539,5,0,0:0:0:0:
208,312,7623,1,0,0:0:0:0:
208,312,7706,1,0,0:0:0:0:
96,312,7873,1,0,0:0:0:0:
288,224,8039,1,8,0:0:0:0:
288,248,8123,1,0,0:0:0:0:
288,272,8206,1,0,0:0:0:0:
288,296,8289,1,0,0:0:0:0:
288,320,8373,1,0,0:0:0:0:
96,312,8539,5,0,0:0:0:0:
368,216,8706,1,8,0:0:0:0:
368,184,8789,1,0,0:0:0:0:
368,152,8873,2,0,L|416:120,2,52.5,0|0|0,0:0|0:0|0:0,0:0:0:0:
344,128,9123,1,0,0:0:0:0:
320,104,9206,1,0,0:0:0:0:
296,80,9289,1,0,0:0:0:0:
272,56,9373,1,8,0:0:0:0:
96,216,9539,5,0,0:0:0:0:
96,64,9706,2,0,B|120:104|120:104|160:104|160:104|208:168,1,131.25,4|0,0:0|0:0,0:0:0:0:
256,208,10039,1,8,0:0:0:0:
352,136,10206,1,0,0:0:0:0:
352,280,10373,1,0,0:0:0:0:
256,64,10539,1,0,0:0:0:0:
424,208,10706,1,8,0:0:0:0:
256,344,10873,1,0,0:0:0:0:
208,256,11039,6,0,B|184:296|136:296|136:296|136:360,1,131.25,0|0,0:0|0:0,0:0:0:0:
40,344,11373,1,8,0:0:0:0:
256,344,11539,1,0,0:0:0:0:
256,200,11706,1,0,0:0:0:0:
344,344,11873,1,0,0:0:0:0:
336,88,12039,1,8,0:0:0:0:
344,344,12206,1,4,0:0:0:0:
400,272,12373,6,0,B|472:232|472:232|472:128,1,131.25,12|0,0:0|0:0,0:0:0:0:
344,88,12706,2,0,B|400:128|400:128|400:216,1,131.25,8|0,0:0|0:0,0:0:0:0:
176,312,13039,2,0,B|120:272|120:272|120:184,1,131.25
120,128,13373,2,0,B|48:168|48:168|48:280,1,131.25,8|0,0:0|0:0,0:0:0:0:
256,272,13706,1,0,0:0:0:0:
256,64,13873,1,0,0:0:0:0:
256,352,14039,1,8,0:0:0:0:
256,136,14206,1,0,0:0:0:0:
256,352,14373,1,0,0:0:0:0:
144,280,14539,5,8,0:0:0:0:
120,256,14623,1,8,0:0:0:0:
96,232,14706,1,0,0:0:0:0:
72,206,14789,1,0,0:0:0:0:
72,173,14873,1,8,0:0:0:0:
72,140,14956,1,8,0:0:0:0:
72,108,15039,1,0,0:0:0:0:
64,304,15206,5,0,0:0:0:0:
216,136,15373,1,8,0:0:0:0:
264,208,15539,2,0,L|208:208,2,52.5
104,208,15873,1,0,0:0:0:0:
416,208,16039,1,8,0:0:0:0:
416,288,16206,2,0,B|328:304|344:192|344:192|272:192,1,210
416,288,16706,1,8,0:0:0:0:
264,272,16873,1,0,0:0:0:0:
240,272,16956,1,0,0:0:0:0:
216,272,17039,1,0,0:0:0:0:
152,168,17206,1,0,0:0:0:0:
168,184,17290,1,0,0:0:0:0:
184,200,17373,1,8,0:0:0:0:
96,296,17539,5,0,0:0:0:0:
112,280,17622,1,0,0:0:0:0:
128,264,17706,1,0,0:0:0:0:
128,64,17873,2,0,B|128:104|128:104|96:128|96:128|96:200,1,105,0|8,0:0|0:0,0:0:0:0:
208,88,18206,1,0,0:0:0:0:
240,88,18289,1,0,0:0:0:0:
272,88,18372,1,0,0:0:0:0:
424,160,18539,2,0,L|312:160,1,105,0|8,0:0|0:0,0:0:0:0:
248,160,18873,2,0,B|256:232|320:232|320:232|312:304|224:304,1,210,0|0,0:0|0:0,0:0:0:0:
416,288,19373,1,8,0:0:0:0:
160,288,19539,2,0,L|104:240,2,52.5
416,288,19873,1,0,0:0:0:0:
72,72,20039,5,8,0:0:0:0:
72,96,20123,1,0,0:0:0:0:
80,120,20206,1,0,0:0:0:0:
104,144,20289,1,0,0:0:0:0:
136,152,20373,2,0,B|184:184|184:184|184:240,1,105,4|0,0:0|0:0,0:0:0:0:
400,112,20706,1,8,0:0:0:0:
448,176,20873,1,0,0:0:0:0:
224,112,21039,1,0,0:0:0:0:
168,176,21206,1,0,0:0:0:0:
312,248,21373,1,8,0:0:0:0:
384,312,21539,1,0,0:0:0:0:
240,312,21706,6,0,L|136:312,1,105
64,232,22039,2,0,L|176:232,1,105,8|0,0:0|0:0,0:0:0:0:
256,232,22373,1,0,0:0:0:0:
344,192,22539,1,0,0:0:0:0:
432,232,22706,2,0,B|464:224|432:176|432:176|432:88,1,105,8|4,0:0|0:0,0:0:0:0:
80,192,23039,5,12,0:0:0:0:
224,192,23206,1,0,0:0:0:0:
80,320,23373,2,0,B|136:304|136:304|176:240,1,105,8|0,0:0|0:0,0:0:0:0:
80,64,23706,2,0,B|136:80|136:80|176:144,1,105,0|0,0:0|0:0,0:0:0:0:
408,192,24039,2,0,L|304:192,1,105,8|0,0:0|0:0,0:0:0:0:
408,304,24373,1,0,0:0:0:0:
224,192,24539,1,0,0:0:0:0:
408,304,24706,1,8,0:0:0:0:
224,304,24873,1,0,0:0:0:0:
224,104,25039,5,0,0:0:0:0:
200,120,25123,1,0,0:0:0:0:
176,104,25206,1,0,0:0:0:0:
152,120,25289,1,0,0:0:0:0:
136,104,25373,1,0,0:0:0:0:
112,120,25456,1,0,0:0:0:0:
96,136,25539,1,0,0:0:0:0:
80,152,25623,1,0,0:0:0:0:
64,168,25706,5,4,0:0:0:0:
56,248,25873,2,0,B|56:304|56:304|104:328|104:328,1,94.499997116089,0|4,0:0|0:0,0:0:0:0:
144,264,26206,2,0,L|240:264,1,94.499997116089,0|8,0:0|0:0,0:0:0:0:
328,264,26539,1,8,0:0:0:0:
408,264,26706,1,4,0:0:0:0:
456,129,27039,6,0,B|456:80|456:80|408:56|421:62,1,94.499997116089,4|0,0:0|0:0,0:0:0:0:
368,120,27373,2,4,L|273:120,1,94.499997116089,4|0,0:0|0:0,0:0:0:0:
192,120,27706,1,8,0:0:0:0:
112,120,27873,1,0,0:0:0:0:
32,120,28039,1,4,0:0:0:0:
64,248,28373,6,0,B|128:248|152:328|152:328|256:328,1,188.999994232178,4|0,0:0|0:0,0:0:0:0:
296,328,28873,1,0,0:0:0:0:
384,328,29039,1,8,0:0:0:0:
384,208,29373,1,0,0:0:0:0:
256,208,29539,1,0,0:0:0:0:
112,208,29706,1,4,0:0:0:0:
56,56,30039,5,0,0:0:0:0:
256,208,30206,1,0,0:0:0:0:
256,56,30373,1,8,0:0:0:0:
256,208,30539,1,2,0:0:0:0:
464,56,30706,1,8,0:0:0:0:
256,208,30873,1,2,0:0:0:0:
456,216,31039,5,0,0:0:0:0:
432,240,31123,1,0,0:0:0:0:
408,264,31206,1,0,0:0:0:0:
384,288,31289,1,0,0:0:0:0:
360,312,31373,1,0,0:0:0:0:
328,312,31456,1,0,0:0:0:0:
296,312,31539,1,0,0:0:0:0:
264,312,31623,1,0,0:0:0:0:
232,312,31706,1,8,0:0:0:0:
232,216,31873,1,0,0:0:0:0:
80,80,32039,6,0,B|104:160|160:152|160:152|160:232,1,188.999994232178
160,248,32456,1,0,0:0:0:0:
160,272,32539,1,0,0:0:0:0:
176,80,32706,2,0,L|272:80,1,94.499997116089,0|0,0:0|0:0,0:0:0:0:
352,80,33039,1,8,0:0:0:0:
432,80,33206,1,2,0:0:0:0:
352,80,33373,1,8,0:0:0:0:
432,80,33539,1,2,0:0:0:0:
272,80,33706,5,0,0:0:0:0:
240,80,33789,1,0,0:0:0:0:
208,80,33873,1,0,0:0:0:0:
176,80,33956,1,0,0:0:0:0:
144,80,34039,1,0,0:0:0:0:
160,104,34123,1,0,0:0:0:0:
184,128,34206,1,0,0:0:0:0:
208,152,34289,1,0,0:0:0:0:
232,176,34373,1,8,0:0:0:0:
120,176,34539,1,2,0:0:0:0:
184,240,34706,1,10,0:0:0:0:
120,176,34873,1,2,0:0:0:0:
120,288,35039,6,0,B|144:336|144:336|216:344,1,94.499997116089,4|0,0:0|0:0,0:0:0:0:
392,288,35373,2,0,B|368:336|368:336|296:344,1,94.499997116089,4|0,0:0|0:0,0:0:0:0:
120,96,35706,2,8,L|80:56,2,47.2499985580445,8|8|8,0:2|0:2|0:2,0:2:0:0:
288,248,36039,1,4,0:0:0:0:
416,64,36373,1,4,0:0:0:0:
360,120,36539,1,0,0:0:0:0:
304,64,36706,1,8,0:0:0:0:
280,88,36789,1,0,0:0:0:0:
256,112,36873,1,0,0:0:0:0:
184,184,37039,2,0,B|184:224|184:224|152:248|152:248|152:312,3,105,8|0|8|0,0:0|0:0|0:0|0:0,0:0:0:0:
304,320,37706,5,8,0:0:0:0:
280,296,37789,1,0,0:0:0:0:
256,272,37873,1,0,0:0:0:0:
320,152,38039,1,8,0:0:0:0:
320,224,38206,1,0,0:0:0:0:
256,112,38373,1,8,0:0:0:0:
256,272,38539,1,0,0:0:0:0:
256,112,38706,1,8,0:0:0:0:
256,272,38873,1,0,0:0:0:0:
112,104,39039,6,0,L|72:64,2,52.5,8|0|0,0:0|0:0|0:0,0:0:0:0:
112,296,39373,1,8,0:0:0:0:
256,296,39539,1,0,0:0:0:0:
400,104,39706,2,0,L|440:64,2,52.5,8|0|0,0:0|0:0|0:0,0:0:0:0:
344,160,40039,1,8,0:0:0:0:
272,104,40206,1,0,0:0:0:0:
272,208,40373,5,8,0:0:0:0:
296,224,40456,1,0,0:0:0:0:
320,240,40539,1,0,0:0:0:0:
344,256,40623,1,0,0:0:0:0:
328,272,40706,1,8,0:0:0:0:
312,288,40789,1,0,0:0:0:0:
296,304,40873,1,0,0:0:0:0:
280,320,40956,1,0,0:0:0:0:
264,336,41039,1,12,0:0:0:0:
104,336,41206,1,0,0:0:0:0:
264,336,41373,1,8,0:0:0:0:
104,232,41539,1,0,0:0:0:0:
104,136,41706,5,8,0:0:0:0:
136,136,41789,1,0,0:0:0:0:
168,136,41873,1,0,0:0:0:0:
240,136,42039,1,8,0:0:0:0:
328,136,42206,1,0,0:0:0:0:
408,136,42373,2,0,B|448:88|448:88|448:32,3,105,8|0|8|0,0:0|0:0|0:0|0:0,0:0:0:0:
280,208,43039,5,8,0:0:0:0:
256,232,43123,1,0,0:0:0:0:
232,256,43206,1,0,0:0:0:0:
176,312,43373,1,8,0:0:0:0:
128,368,43539,1,0,0:0:0:0:
72,312,43706,2,0,L|72:208,3,105,8|0|8|0,0:0|0:0|0:0|0:0,0:0:0:0:
72,184,44289,1,0,0:0:0:0:
72,168,44373,5,8,0:0:0:0:
152,80,44539,1,0,0:0:0:0:
152,96,44623,1,0,0:0:0:0:
152,112,44706,1,8,0:0:0:0:
240,264,44873,1,0,0:0:0:0:
240,240,44956,1,0,0:0:0:0:
240,216,45039,1,8,0:0:0:0:
320,112,45206,1,8,0:0:0:0:
320,184,45373,1,0,0:0:0:0:
384,152,45539,1,0,0:0:0:0:
256,192,45706,8,4,46706,0:0:0:0:
112,304,47039,6,0,B|160:256|160:256|160:208,1,105,4|0,0:0|0:0,0:0:0:0:
280,304,47373,2,0,B|232:256|232:256|232:208,1,105,8|0,0:0|0:0,0:0:0:0:
328,224,47706,1,0,0:0:0:0:
368,304,47873,2,0,P|416:248|400:184,1,105,0|8,0:0|0:0,0:0:0:0:
328,224,48206,1,0,0:0:0:0:
328,104,48373,5,0,0:0:0:0:
192,104,48539,1,0,0:0:0:0:
176,104,48623,1,0,0:0:0:0:
160,104,48706,1,8,0:0:0:0:
80,216,48873,1,0,0:0:0:0:
104,216,48956,1,0,0:0:0:0:
128,216,49039,1,0,0:0:0:0:
400,296,49206,1,0,0:0:0:0:
368,296,49289,1,0,0:0:0:0:
328,296,49373,2,8,L|280:352,3,52.5
296,336,49706,1,4,0:0:0:0:
224,208,49928,5,4,0:0:0:0:
416,32,50151,5,4,0:0:0:0:
88,80,50373,5,4,0:0:0:0:
448,192,50595,5,4,0:0:0:0:
288,152,50817,5,4,0:0:0:0:
448,336,51039,5,4,0:0:0:0:
88,288,51262,5,4,0:0:0:0:
336,72,51484,5,4,0:0:0:0:
272,280,51706,2,8,L|304:344,4,52.5
168,88,52206,1,8,0:0:0:0:
88,112,52373,2,0,B|120:160|120:160|160:152|192:200,1,115.50000352478,4|0,0:0|0:0,0:0:0:0:
172,176,52623,1,0,0:0:0:0:
172,176,52706,1,8,0:0:0:0:
328,176,52873,1,0,0:0:0:0:
408,176,53039,2,0,B|408:216|408:216|384:248|384:248|384:320,1,115.50000352478,8|0,0:0|0:0,0:0:0:0:
384,283,53289,1,0,0:0:0:0:
384,283,53373,1,8,0:0:0:0:
408,96,53539,1,0,0:0:0:0:
112,328,53706,5,8,0:0:0:0:
192,328,53873,1,0,0:0:0:0:
192,304,53956,1,0,0:0:0:0:
192,280,54039,1,8,0:0:0:0:
192,208,54206,1,0,0:0:0:0:
120,144,54373,2,0,B|200:112|200:112|256:144|256:144|256:16,1,231.000007049561,0|8,0:0|0:0,0:0:0:0:
272,72,54789,1,0,0:0:0:0:
288,88,54873,1,0,0:0:0:0:
304,104,54956,1,0,0:0:0:0:
320,120,55039,5,4,0:0:0:0:
88,120,55206,1,0,0:0:0:0:
320,120,55373,1,8,0:0:0:0:
56,184,55539,1,0,0:0:0:0:
360,184,55706,1,8,0:0:0:0:
208,304,55873,1,0,0:0:0:0:
208,128,56039,1,8,0:0:0:0:
208,304,56206,1,0,0:0:0:0:
152,40,56373,2,0,B|232:40|232:40|256:72|256:72|280:40|280:40|392:40,1,236.250009012223,4|0,0:0|0:0,0:0:0:0:
376,64,56706,2,0,B|312:136|312:136|344:160|344:208,1,157.500006008148,8|0,0:0|0:0,0:0:0:0:
128,192,57039,1,8,0:0:0:0:
240,72,57206,1,0,0:0:0:0:
64,272,57373,2,4,B|72:328|112:352|112:352|288:352,1,262.5
352,272,57873,5,0,0:0:0:0:
440,272,58039,2,0,B|440:216|440:216|416:176|416:176|416:104,1,157.500006008148,8|0,0:0|0:0,0:0:0:0:
352,272,58373,1,0,0:0:0:0:
176,64,58539,1,0,0:0:0:0:
352,272,58706,1,8,0:0:0:0:
208,224,58873,1,0,0:0:0:0:
152,288,59039,6,0,B|91:288|91:288|99:256|123:240|83:200,1,157.500006008148
88,112,59373,2,0,P|160:144|176:240,1,157.500006008148,8|0,0:0|0:0,0:0:0:0:
176,64,59706,1,0,0:0:0:0:
432,192,59873,1,0,0:0:0:0:
176,64,60039,1,8,0:0:0:0:
432,192,60206,1,0,0:0:0:0:
432,272,60373,6,0,B|336:240|336:160|336:160|152:160,1,315.000012016297,0|8,0:0|0:0,0:0:0:0:
160,176,60789,1,0,0:0:0:0:
136,200,60873,1,0,0:0:0:0:
112,224,60956,1,0,0:0:0:0:
88,248,61039,1,0,0:0:0:0:
176,288,61206,1,0,0:0:0:0:
192,304,61289,1,0,0:0:0:0:
208,320,61373,1,8,0:0:0:0:
64,272,61539,5,0,0:0:0:0:
445,272,61706,2,0,L|285:272,1,157.500006008148,4|0,0:0|0:0,0:0:0:0:
66,112,62039,2,0,L|224:112,1,157.500006008148,12|0,0:0|0:0,0:0:0:0:
336,344,62373,2,0,B|272:344|272:344|240:328|240:328|182:328,1,157.500006008148,4|0,0:0|0:0,0:0:0:0:
184,40,62706,2,0,B|248:40|248:40|280:56|280:56|337:56,1,157.500006008148,8|0,0:0|0:0,0:0:0:0:
352,72,62956,1,0,0:0:0:0:
368,88,63039,1,4,0:0:0:0:
128,280,63206,5,0,0:0:0:0:
256,192,63373,1,8,0:0:0:0:
128,280,63539,1,0,0:0:0:0:
336,168,63706,2,0,P|312:248|240:264,1,157.500006008148
416,280,64039,2,0,L|416:112,1,157.500006008148,8|0,0:0|0:0,0:0:0:0:
416,104,64289,1,0,0:0:0:0:
416,80,64373,1,4,0:0:0:0:
112,80,64539,5,0,0:0:0:0:
128,96,64623,1,0,0:0:0:0:
144,112,64706,1,8,0:0:0:0:
128,128,64789,1,0,0:0:0:0:
112,144,64873,1,0,0:0:0:0:
96,160,64956,1,0,0:0:0:0:
80,176,65039,1,4,0:0:0:0:
304,280,65206,1,0,0:0:0:0:
8,256,65373,2,0,B|64:256|64:256|96:280|96:280|208:280,1,157.500006008148,8|0,0:0|0:0,0:0:0:0:
304,352,65706,6,0,B|400:344|432:304|432:248|400:208|312:184|240:184|240:184|176:184|176:184|336:0,2,630.000024032594,4|0|0,0:0|0:0|0:0,0:0:0:0:
280,352,67123,1,0,0:0:0:0:
256,352,67206,1,0,0:0:0:0:
232,352,67289,1,0,0:0:0:0:
208,352,67373,1,0,0:0:0:0:
184,352,67456,1,0,0:0:0:0:
160,352,67539,1,0,0:0:0:0:
136,352,67623,5,0,0:0:0:0:
120,336,67706,1,0,0:0:0:0:
104,320,67789,1,0,0:0:0:0:
88,304,67873,1,0,0:0:0:0:
72,288,67956,1,0,0:0:0:0:
56,272,68039,2,0,B|56:192|56:192|128:152|128:144,1,157.500006008148
144,232,68373,2,0,L|376:232,1,210.000008010865,4|0,0:0|0:0,0:0:0:0:
354,232,68706,1,8,0:0:0:0:
144,152,68873,1,0,0:0:0:0:
440,152,69039,2,0,P|368:40|304:168,1,315.000012016297,8|0,0:0|0:0,0:0:0:0:
144,152,69539,1,0,0:0:0:0:
72,296,69706,6,0,L|296:296,1,210.000008010865,4|0,0:0|0:0,0:0:0:0:
282,296,70039,1,8,0:0:0:0:
72,296,70206,1,0,0:0:0:0:
432,296,70373,1,8,0:0:0:0:
280,296,70539,1,0,0:0:0:0:
432,216,70706,1,8,0:0:0:0:
432,192,70789,1,8,0:0:0:0:
416,168,70873,1,8,0:0:0:0:
392,152,70956,1,8,0:0:0:0:
368,152,71039,5,4,0:0:0:0:
288,152,71206,1,0,0:0:0:0:
168,56,71373,1,8,0:0:0:0:
288,152,71539,1,0,0:0:0:0:
168,152,71706,1,8,0:0:0:0:
288,152,71873,1,0,0:0:0:0:
168,248,72039,1,8,0:0:0:0:
288,152,72206,1,0,0:0:0:0:
48,64,72373,1,8,0:0:0:0:
48,88,72456,1,0,0:0:0:0:
56,104,72539,1,0,0:0:0:0:
72,120,72623,1,0,0:0:0:0:
96,128,72706,2,0,L|256:128,1,157.500006008148,8|0,0:0|0:0,0:0:0:0:
336,128,73039,6,0,P|336:208|256:224,1,157.500006008148,8|0,0:0|0:0,0:0:0:0:
440,128,73373,1,8,0:0:0:0:
256,312,73539,1,0,0:0:0:0:
160,312,73706,1,8,0:0:0:0:
160,288,73789,1,0,0:0:0:0:
168,264,73873,1,0,0:0:0:0:
184,248,73956,1,0,0:0:0:0:
208,240,74039,1,0,0:0:0:0:
72,128,74206,1,0,0:0:0:0:
256,312,74373,1,8,0:0:0:0:
440,128,74539,1,0,0:0:0:0:
256,312,74706,1,8,0:0:0:0:
256,152,74873,1,0,0:0:0:0:
256,312,75039,6,0,B|376:304|392:224|392:224|392:64,1,315.000012016297,4|8,0:0|0:0,0:0:0:0:
160,312,75539,1,0,0:0:0:0:
320,128,75706,2,0,B|320:216|320:216|280:248|224:240,1,157.500006008148,8|0,0:0|0:0,0:0:0:0:
160,240,76039,2,0,B|160:184|160:184|248:192|240:96,1,157.500006008148,8|0,0:0|0:0,0:0:0:0:
80,48,76373,1,0,0:0:0:0:
80,64,76456,1,0,0:0:0:0:
80,80,76539,1,0,0:0:0:0:
432,336,76873,1,0,0:0:0:0:
432,320,76956,1,0,0:0:0:0:
432,304,77039,1,0,0:0:0:0:
80,48,77206,1,0,0:0:0:0:
80,64,77289,1,0,0:0:0:0:
80,80,77372,1,0,0:0:0:0:
256,192,77539,1,0,0:0:0:0:
352,112,77873,2,0,L|408:56,2,65.625
80,336,78373,5,0,0:0:0:0:
80,320,78456,1,0,0:0:0:0:
80,304,78539,1,0,0:0:0:0:
432,48,78706,1,0,0:0:0:0:
432,64,78789,1,0,0:0:0:0:
432,80,78872,1,0,0:0:0:0:
168,192,79039,1,0,0:0:0:0:
336,192,79206,1,0,0:0:0:0:
56,192,79539,5,0,0:0:0:0:
72,192,79622,1,0,0:0:0:0:
88,192,79705,1,0,0:0:0:0:
456,192,79873,1,0,0:0:0:0:
440,192,79956,1,0,0:0:0:0:
424,192,80039,1,0,0:0:0:0:
256,192,80206,1,0,0:0:0:0:
160,112,80539,2,0,L|104:56,2,65.625
384,280,81039,6,0,P|400:336|416:344,3,52.5,8|0|0|0,0:0|0:0|0:0|0:0,0:0:0:0:
368,256,81373,2,0,P|352:200|320:176,3,52.5
336,192,81706,5,8,0:0:0:0:
328,176,81789,1,0,0:0:0:0:
304,168,81873,1,0,0:0:0:0:
280,176,81956,1,0,0:0:0:0:
264,192,82039,1,0,0:0:0:0:
248,208,82123,1,0,0:0:0:0:
232,224,82206,1,0,0:0:0:0:
216,232,82289,1,0,0:0:0:0:
184,240,82373,6,0,P|160:288|152:288,2,52.5,8|0|0,0:0|0:0|0:0,0:0:0:0:
160,240,82623,1,0,0:0:0:0:
144,232,82707,1,0,0:0:0:0:
128,216,82790,1,0,0:0:0:0:
120,200,82873,1,0,0:0:0:0:
112,184,82956,1,0,0:0:0:0:
112,168,83039,6,0,P|64:136|56:112,2,52.5,8|0|0,0:0|0:0|0:0,0:0:0:0:
120,152,83289,1,0,0:0:0:0:
128,136,83373,1,0,0:0:0:0:
144,120,83456,1,0,0:0:0:0:
168,112,83540,1,0,0:0:0:0:
192,112,83623,1,0,0:0:0:0:
216,112,83706,6,0,P|224:56|216:48,2,52.5,8|0|0,0:0|0:0|0:0,0:0:0:0:
232,120,83956,1,0,0:0:0:0:
248,136,84039,1,0,0:0:0:0:
264,144,84123,1,0,0:0:0:0:
280,144,84206,1,0,0:0:0:0:
296,136,84289,1,0,0:0:0:0:
312,120,84373,6,0,P|328:176|312:200,2,52.5,8|0|0,0:0|0:0|0:0,0:0:0:0:
328,112,84623,1,0,0:0:0:0:
352,104,84706,1,0,0:0:0:0:
368,112,84789,1,0,0:0:0:0:
384,128,84873,1,0,0:0:0:0:
392,144,84956,1,0,0:0:0:0:
392,168,85039,6,0,P|448:144|456:120,2,52.5,8|0|0,0:0|0:0|0:0,0:0:0:0:
384,192,85289,1,0,0:0:0:0:
368,208,85373,1,0,0:0:0:0:
352,216,85456,1,0,0:0:0:0:
336,232,85539,1,0,0:0:0:0:
336,248,85623,1,0,0:0:0:0:
344,264,85706,5,8,0:0:0:0:
184,144,85910,5,4,0:0:0:0:
456,336,86110,5,4,0:0:0:0:
96,56,86310,5,4,0:0:0:0:
456,136,86510,5,12,0:0:0:0:
72,304,86710,5,4,0:0:0:0:
456,224,86910,5,4,0:0:0:0:
128,144,87124,5,4,0:0:0:0:
256,192,87350,8,4,91965,0:0:0:0:
192,264,92657,6,0,L|192:312,2,35
192,240,92888,2,0,B|136:280|136:280|120:280|120:280|56:328,1,157.5,12|12,0:0|0:0,0:0:0:0:
80,48,93580,5,4,0:0:0:0:
424,48,93811,1,8,0:0:0:0:
400,48,93888,1,0,0:0:0:0:
376,48,93965,1,0,0:0:0:0:
352,48,94042,1,0,0:0:0:0:
336,64,94119,1,0,0:0:0:0:
320,80,94196,1,0,0:0:0:0:
304,96,94273,1,4,0:0:0:0:
80,304,94734,2,0,B|144:280|144:280|176:232,1,105,12|0,0:0|0:0,0:0:0:0:
152,176,95196,2,0,B|80:200|80:200|48:248,1,105,8|0,0:0|0:0,0:0:0:0:
432,304,95657,2,0,B|368:280|368:280|336:232,1,105,8|0,0:0|0:0,0:0:0:0:
360,176,96119,2,0,B|432:200|432:200|464:248,1,105,8|0,0:0|0:0,0:0:0:0:
80,304,96580,5,8,0:0:0:0:
432,304,96811,1,0,0:0:0:0:
152,176,97042,1,8,0:0:0:0:
360,176,97273,1,0,0:0:0:0:
208,80,97503,1,8,0:0:0:0:
304,80,97734,1,0,0:0:0:0:
256,152,97965,1,8,0:0:0:0:
256,168,98080,1,0,0:0:0:0:
256,184,98196,1,0,0:0:0:0:
256,200,98311,1,0,0:0:0:0:
256,216,98426,5,8,0:0:0:0:
104,312,98657,1,0,0:0:0:0:
408,312,98888,1,8,0:0:0:0:
104,72,99119,1,0,0:0:0:0:
408,72,99350,1,8,0:0:0:0:
136,344,99580,1,0,0:0:0:0:
136,40,99811,1,8,0:0:0:0:
376,344,100042,1,0,0:0:0:0:
376,40,100273,1,8,0:0:0:0:
256,352,100503,1,0,0:0:0:0:
56,192,100734,1,8,0:0:0:0:
464,192,100965,1,0,0:0:0:0:
256,40,101196,1,8,0:0:0:0:
256,192,101426,1,0,0:0:0:0:
184,208,101657,2,0,B|200:272|264:296|320:272|336:184,1,210,4|12,0:0|0:0,0:0:0:0:
344,184,102234,1,0,0:0:0:0:
353,163,102350,1,0,0:0:0:0:
363,142,102465,5,0,0:0:0:0:
372,122,102580,1,8,0:0:0:0:
360,104,102696,1,0,0:0:0:0:
344,88,102812,1,0,0:0:0:0:
328,72,102927,5,0,0:0:0:0:
312,56,103042,1,8,0:0:0:0:
288,56,103157,1,0,0:0:0:0:
256,56,103272,1,0,0:0:0:0:
232,56,103387,5,0,0:0:0:0:
208,56,103503,1,8,0:0:0:0:
192,72,103619,1,0,0:0:0:0:
176,88,103734,1,0,0:0:0:0:
160,104,103849,5,0,0:0:0:0:
144,120,103965,1,8,0:0:0:0:
152,136,104081,1,0,0:0:0:0:
160,152,104196,1,0,0:0:0:0:
168,168,104311,5,0,0:0:0:0:
176,184,104427,1,8,0:0:0:0:
200,184,104542,1,0,0:0:0:0:
224,184,104657,1,0,0:0:0:0:
248,184,104773,5,0,0:0:0:0:
272,184,104888,1,8,0:0:0:0:
288,200,105003,1,0,0:0:0:0:
304,216,105119,1,0,0:0:0:0:
320,232,105234,5,0,0:0:0:0:
304,248,105350,1,8,0:0:0:0:
288,264,105465,1,0,0:0:0:0:
272,280,105580,1,0,0:0:0:0:
256,296,105696,5,0,0:0:0:0:
240,312,105811,2,0,L|216:384,3,57.7500017623902,8|0|0|0,0:0|0:0|0:0|0:0,0:0:0:0:
200,352,106273,6,0,L|152:288,3,57.7500017623902,8|0|0|0,0:0|0:0|0:0|0:0,0:0:0:0:
144,312,106734,6,0,L|64:344,3,57.7500017623902,8|0|0|0,0:0|0:0|0:0|0:0,0:0:0:0:
80,304,107196,6,0,L|88:224,3,57.7500017623902,8|0|0|0,0:0|0:0|0:0|0:0,0:0:0:0:
112,232,107657,6,0,L|192:216,3,57.7500017623902,8|0|0|0,0:0|0:0|0:0|0:0,0:0:0:0:
152,192,108119,6,0,L|104:144,3,57.7500017623902,8|0|0|0,0:0|0:0|0:0|0:0,0:0:0:0:
112,128,108580,6,0,L|176:80,3,57.7500017623902,8|0|0|0,0:0|0:0|0:0|0:0,0:0:0:0:
158,93,109042,1,4,0:0:0:0:
440,56,109503,1,8,0:0:0:0:
416,80,109580,1,0,0:0:0:0:
392,104,109657,1,0,0:0:0:0:
368,128,109734,1,0,0:0:0:0:
344,152,109811,1,0,0:0:0:0:
368,176,109888,1,0,0:0:0:0:
392,200,109965,1,0,0:0:0:0:
408,232,110042,1,0,0:0:0:0:
408,264,110119,1,0,0:0:0:0:
392,296,110196,1,0,0:0:0:0:
376,320,110273,1,0,0:0:0:0:
352,336,110350,1,0,0:0:0:0:
320,336,110426,6,0,L|280:272,2,43.75
288,336,110657,1,0,0:0:0:0:
256,320,110734,1,0,0:0:0:0:
232,296,110811,1,0,0:0:0:0:
200,288,110888,1,0,0:0:0:0:
168,288,110965,1,0,0:0:0:0:
144,304,111042,1,0,0:0:0:0:
120,328,111119,1,0,0:0:0:0:
96,304,111196,1,0,0:0:0:0:
72,280,111273,1,0,0:0:0:0:
48,256,111350,6,0,L|0:256,2,43.75
72,232,111580,1,0,0:0:0:0:
96,208,111657,1,0,0:0:0:0:
120,184,111734,1,0,0:0:0:0:
144,160,111811,1,0,0:0:0:0:
128,136,111888,1,0,0:0:0:0:
128,104,111965,1,0,0:0:0:0:
144,72,112042,1,0,0:0:0:0:
176,56,112119,1,0,0:0:0:0:
208,56,112196,1,0,0:0:0:0:
240,64,112273,6,0,L|272:16,2,43.75
224,88,112503,1,0,0:0:0:0:
224,120,112580,1,0,0:0:0:0:
240,144,112657,1,0,0:0:0:0:
272,152,112734,1,0,0:0:0:0:
304,152,112811,1,0,0:0:0:0:
328,136,112888,1,0,0:0:0:0:
344,112,112965,1,0,0:0:0:0:
352,88,113042,1,0,0:0:0:0:
352,56,113119,1,0,0:0:0:0:
336,32,113196,6,0,L|296:0,2,43.75
368,32,113426,1,0,0:0:0:0:
400,40,113503,1,0,0:0:0:0:
424,64,113580,1,0,0:0:0:0:
432,88,113657,1,0,0:0:0:0:
432,112,113734,1,0,0:0:0:0:
424,144,113811,1,0,0:0:0:0:
408,168,113888,1,0,0:0:0:0:
392,192,113965,1,0,0:0:0:0:
392,224,114042,1,0,0:0:0:0:
400,256,114119,6,0,L|464:256,2,43.75
368,256,114350,1,0,0:0:0:0:
336,256,114426,1,0,0:0:0:0:
304,256,114503,1,0,0:0:0:0:
280,272,114580,1,0,0:0:0:0:
272,304,114657,1,0,0:0:0:0:
256,336,114734,1,0,0:0:0:0:
232,352,114811,1,0,0:0:0:0:
200,352,114888,1,0,0:0:0:0:
176,336,114965,1,0,0:0:0:0:
152,312,115042,6,0,L|112:352,2,43.75
152,280,115273,1,0,0:0:0:0:
144,248,115350,1,0,0:0:0:0:
120,224,115426,1,0,0:0:0:0:
88,208,115503,1,0,0:0:0:0:
56,200,115580,1,0,0:0:0:0:
88,176,115657,1,0,0:0:0:0:
112,152,115734,1,0,0:0:0:0:
128,128,115811,1,0,0:0:0:0:
144,96,115888,1,0,0:0:0:0:
144,64,115965,6,0,L|104:32,2,43.75
176,64,116196,1,0,0:0:0:0:
208,80,116273,1,0,0:0:0:0:
224,104,116349,1,0,0:0:0:0:
232,136,116426,1,0,0:0:0:0:
232,168,116503,1,0,0:0:0:0:
224,200,116580,1,0,0:0:0:0:
208,224,116657,1,0,0:0:0:0:
184,240,116734,1,0,0:0:0:0:
152,248,116811,1,0,0:0:0:0:
120,240,116888,6,0,L|80:208,2,43.75
136,272,117119,1,0,0:0:0:0:
160,296,117196,1,0,0:0:0:0:
192,304,117273,1,0,0:0:0:0:
224,304,117350,1,0,0:0:0:0:
256,296,117426,1,0,0:0:0:0:
280,280,117503,1,0,0:0:0:0:
312,272,117580,1,0,0:0:0:0:
344,288,117657,1,0,0:0:0:0:
360,320,117734,1,0,0:0:0:0:
360,352,117811,6,0,L|312:400,2,43.75
392,336,118042,1,0,0:0:0:0:
424,320,118119,1,0,0:0:0:0:
448,296,118196,1,0,0:0:0:0:
456,264,118273,1,0,0:0:0:0:
448,232,118350,1,0,0:0:0:0:
424,208,118426,1,0,0:0:0:0:
400,184,118503,1,0,0:0:0:0:
376,160,118580,1,0,0:0:0:0:
352,136,118657,1,0,0:0:0:0:
328,112,118734,6,0,L|384:64,2,43.75
304,128,118965,1,0,0:0:0:0:
280,152,119042,1,0,0:0:0:0:
256,176,119119,1,0,0:0:0:0:
264,208,119196,1,0,0:0:0:0:
288,224,119273,1,0,0:0:0:0:
320,232,119350,1,0,0:0:0:0:
336,256,119426,1,0,0:0:0:0:
344,288,119503,1,0,0:0:0:0:
336,320,119580,1,0,0:0:0:0:
312,344,119657,6,0,L|344:384,2,43.75
280,352,119888,1,0,0:0:0:0:
248,336,119965,1,0,0:0:0:0:
224,312,120042,1,0,0:0:0:0:
200,288,120119,1,0,0:0:0:0:
176,264,120196,1,0,0:0:0:0:
144,256,120273,1,0,0:0:0:0:
112,256,120350,1,0,0:0:0:0:
80,272,120426,1,0,0:0:0:0:
56,296,120503,1,0,0:0:0:0:
56,328,120580,6,0,L|56:376,2,43.75
56,296,120811,1,0,0:0:0:0:
56,264,120888,1,0,0:0:0:0:
56,232,120965,1,0,0:0:0:0:
56,200,121042,1,0,0:0:0:0:
56,168,121119,1,0,0:0:0:0:
56,136,121196,1,0,0:0:0:0:
64,104,121273,1,0,0:0:0:0:
80,72,121350,1,0,0:0:0:0:
112,56,121426,1,0,0:0:0:0:
152,56,121503,6,0,L|152:8,2,43.75
192,56,121734,1,0,0:0:0:0:
216,72,121811,1,0,0:0:0:0:
240,96,121888,1,0,0:0:0:0:
248,120,121965,1,0,0:0:0:0:
248,144,122042,1,0,0:0:0:0:
216,136,122119,1,0,0:0:0:0:
184,128,122196,1,0,0:0:0:0:
152,136,122273,1,0,0:0:0:0:
128,160,122350,1,0,0:0:0:0:
120,184,122426,6,0,L|48:184,2,43.75
120,216,122657,1,0,0:0:0:0:
136,248,122734,1,0,0:0:0:0:
160,264,122811,1,0,0:0:0:0:
192,264,122888,1,0,0:0:0:0:
224,256,122965,1,0,0:0:0:0:
248,240,123042,1,0,0:0:0:0:
272,216,123119,1,0,0:0:0:0:
304,232,123196,1,0,0:0:0:0:
320,256,123273,1,0,0:0:0:0:
320,288,123350,6,0,L|280:328,2,43.75
352,288,123580,1,0,0:0:0:0:
384,272,123657,1,0,0:0:0:0:
408,248,123734,1,0,0:0:0:0:
416,216,123811,1,0,0:0:0:0:
416,48,124042,1,0,0:0:0:0:
416,48,124273,5,4,0:0:0:0:
96,48,126013,1,8,0:0:0:0:
112,64,126096,1,0,0:0:0:0:
128,80,126179,1,0,0:0:0:0:
192,136,126346,1,0,0:0:0:0:
256,192,126513,1,0,0:0:0:0:
256,192,126679,8,0,127679,0:0:0:0:
392,296,128010,6,0,B|304:208|304:208|288:272|200:272,1,210,4|8,0:0|0:0,0:0:0:0:
80,264,128510,1,0,0:0:0:0:
104,264,128593,1,0,0:0:0:0:
128,264,128676,1,8,0:0:0:0:
352,80,128843,5,0,0:0:0:0:
328,96,128926,1,0,0:0:0:0:
304,112,129010,2,0,B|256:144|256:144|208:88|136:88,1,188.999994232178,0|4,0:0|0:0,0:0:0:0:
144,176,129510,1,0,0:0:0:0:
160,192,129593,1,0,0:0:0:0:
176,208,129676,2,0,L|248:296,2,94.499997116089,8|0|8,0:0|0:0|0:0,0:0:0:0:
72,96,130176,1,0,0:0:0:0:
272,192,130343,2,8,L|344:272,1,94.499997116089,8|0,0:0|0:0,0:0:0:0:
256,96,130676,2,0,B|320:72|376:120|376:120|448:88|472:88,1,188.999994232178,4|8,0:0|0:0,0:0:0:0:
72,96,131176,5,0,0:0:0:0:
88,112,131260,1,0,0:0:0:0:
104,128,131343,1,8,0:0:0:0:
208,232,131676,2,0,B|209:228|272:232|296:272|296:272|328:232|352:200,1,188.999994232178
440,80,132176,1,8,0:0:0:0:
424,104,132260,1,0,0:0:0:0:
408,128,132343,1,8,0:0:0:0:
360,200,132510,1,0,0:0:0:0:
304,264,132676,2,0,B|272:304|272:304|272:352,3,94.499997116089,8|0|0|0,0:0|0:0|0:0|0:0,0:0:0:0:
240,200,133343,5,4,0:0:0:0:
224,184,133426,1,0,0:0:0:0:
208,168,133510,1,0,0:0:0:0:
192,152,133593,1,0,0:0:0:0:
176,136,133676,1,8,0:0:0:0:
448,128,133843,1,0,0:0:0:0:
304,128,134010,1,8,0:0:0:0:
72,128,134343,6,0,B|72:192|72:192|160:288,1,188.999994232178
312,312,134843,1,0,0:0:0:0:
288,312,134926,1,0,0:0:0:0:
264,312,135010,1,8,0:0:0:0:
408,312,135176,1,0,0:0:0:0:
488,312,135343,2,0,B|488:224|400:224|400:224|352:176,1,188.999994232178,8|0,0:0|0:0,0:0:0:0:
352,176,135760,1,0,0:0:0:0:
336,160,135843,1,0,0:0:0:0:
320,144,135926,1,0,0:0:0:0:
304,128,136010,5,8,0:0:0:0:
216,128,136176,1,0,0:0:0:0:
304,128,136343,1,0,0:0:0:0:
128,128,136510,1,0,0:0:0:0:
304,128,136676,1,8,0:0:0:0:
48,128,136843,1,0,0:0:0:0:
304,128,137010,2,0,B|392:216|392:216|344:264,1,188.999994232178,0|8,0:0|0:0,0:0:0:0:
328,280,137426,1,0,0:0:0:0:
304,304,137510,1,0,0:0:0:0:
280,328,137593,1,0,0:0:0:0:
256,304,137676,1,0,0:0:0:0:
232,280,137760,1,0,0:0:0:0:
208,256,137843,1,0,0:0:0:0:
120,256,138010,2,0,B|72:264|72:264|56:304|64:352,2,94.499997116089,0|0|8,0:0|0:0|0:0,0:0:0:0:
448,48,138676,5,4,0:0:0:0:
64,48,140010,1,4,0:0:0:0:
448,336,140676,1,4,0:0:0:0:
64,336,141343,1,12,0:0:0:0:
448,48,142010,1,4,0:0:0:0:
256,192,142676,1,4,0:0:0:0:
192,256,143176,6,0,L|152:304,2,47.2499985580445,0|0|12,0:0|0:0|0:0,0:0:0:0:
256,192,143509,1,0,0:0:0:0:
336,192,143676,2,0,P|376:96|312:104,1,188.999994232178,8|0,0:0|0:0,0:0:0:0:
336,288,144176,1,0,0:0:0:0:
336,192,144343,1,0,0:0:0:0:
248,288,144509,1,0,0:0:0:0:
256,112,144676,1,8,0:0:0:0:
168,288,144843,1,4,0:0:0:0:
176,56,145009,1,8,0:0:0:0:
88,288,145176,1,0,0:0:0:0:
432,56,145343,6,0,L|336:56,1,94.499997116089
336,128,145676,2,0,L|248:168,1,94.499997116089
336,208,146009,2,0,L|296:296,1,94.499997116089,8|4,0:0|0:0,0:0:0:0:
88,56,146343,2,0,B|144:56|144:56|176:112,1,94.499997116089,8|0,0:0|0:0,0:0:0:0:
88,144,146676,5,8,0:0:0:0:
88,144,146759,1,0,0:0:0:0:
88,144,146843,1,0,0:0:0:0:
168,184,147009,1,0,0:0:0:0:
88,144,147176,1,0,0:0:0:0:
88,320,147342,1,8,0:0:0:0:
88,320,147426,1,0,0:0:0:0:
88,320,147509,1,0,0:0:0:0:
168,280,147676,1,0,0:0:0:0:
88,320,147843,1,0,0:0:0:0:
392,48,148009,5,8,0:0:0:0:
408,72,148093,1,0,0:0:0:0:
416,104,148176,1,0,0:0:0:0:
416,128,148259,1,0,0:0:0:0:
408,152,148343,1,0,0:0:0:0:
392,176,148426,1,0,0:0:0:0:
384,200,148509,1,0,0:0:0:0:
384,224,148593,1,0,0:0:0:0:
392,248,148676,1,0,0:0:0:0:
408,264,148759,1,0,0:0:0:0:
416,288,148843,1,0,0:0:0:0:
416,312,148926,1,0,0:0:0:0:
408,336,149009,2,0,L|368:376,3,47.2499985580445
374,369,149343,5,4,0:0:0:0:
96,80,150009,1,8,0:0:0:0:
200,176,151343,1,8,0:0:0:0:
320,248,152009,2,0,P|392:264|440:256,2,105.000004005432,8|0|8,0:0|0:0|0:0,0:0:0:0:
328,216,152676,2,0,P|400:200|424:176,2,105.000004005432,8|0|8,0:0|0:0|0:0,0:0:0:0:
424,176,153343,1,4,0:0:0:0:
104,232,153843,1,0,0:0:0:0:
120,248,153926,1,0,0:0:0:0:
144,256,154009,1,8,0:0:0:0:
280,112,154343,1,0,0:0:0:0:
192,248,154676,6,0,P|120:264|72:256,2,105.000004005432,4|0|0,0:0|0:0|0:0,0:0:0:0:
184,216,155343,2,0,P|112:200|88:176,2,105.000004005432,8|0|0,0:0|0:0|0:0,0:0:0:0:
192,184,156009,2,0,P|152:144|144:96,2,105.000004005432,4|0|0,0:0|0:0|0:0,0:0:0:0:
344,248,156676,1,8,0:0:0:0:
344,248,156843,1,0,0:0:0:0:
344,248,157009,1,8,0:0:0:0:
120,272,157343,6,0,B|120:296|120:296|112:304|112:304|112:320,3,39.3750015020371,8|0|0|0,0:0|0:0|0:0|0:0,0:0:0:0:
88,208,157676,2,0,B|88:232|88:232|96:240|96:240|96:256,3,39.3750015020371
136,160,158009,2,0,B|136:184|136:184|128:192|128:192|128:208,3,39.3750015020371,8|0|0|0,0:0|0:0|0:0|0:0,0:0:0:0:
96,88,158343,2,0,B|96:112|96:112|104:120|104:120|104:136,3,39.3750015020371
152,40,158676,6,0,B|152:64|152:64|144:72|144:72|144:88,3,39.3750015020371,8|0|0|0,0:0|0:0|0:0|0:0,0:0:0:0:
176,104,159009,2,0,B|176:128|176:128|184:136|184:136|184:152,3,39.3750015020371
208,176,159343,2,0,B|208:200|208:200|200:208|200:208|200:224,3,39.3750015020371,8|0|0|0,0:0|0:0|0:0|0:0,0:0:0:0:
216,248,159676,2,0,B|216:272|216:272|224:280|224:280|224:296,3,39.3750015020371
256,192,160009,12,4,162676,0:0:0:0:
416,72,170343,5,0,0:0:0:0:
408,96,170426,1,0,0:0:0:0:
392,112,170509,1,0,0:0:0:0:
368,120,170593,1,0,0:0:0:0:
344,120,170676,6,0,B|280:120|280:120|280:160|264:176|240:176,1,141.749995674133,8|0,0:0|0:0,0:0:0:0:
216,176,171009,2,8,B|160:176|160:176|112:232,1,94.499997116089
48,208,171343,2,0,B|48:272|120:304|120:304|200:304,1,188.999994232178,0|8,0:0|0:0,0:0:0:0:
200,304,171759,1,0,0:0:0:0:
224,304,171843,1,0,0:0:0:0:
248,304,171926,1,0,0:0:0:0:
272,304,172009,6,0,B|352:304|352:304|344:288|320:224|376:224,1,141.749995674133
344,216,172343,2,0,L|344:88,2,94.499997116089,8|8|8,0:0|0:0|0:0,0:0:0:0:
264,72,172843,1,0,0:0:0:0:
408,72,173009,2,8,B|440:152|384:192|384:192|288:192,1,188.999994232178,8|0,0:0|0:0,0:0:0:0:
128,192,173509,5,0,0:0:0:0:
152,192,173593,1,0,0:0:0:0:
176,192,173676,1,8,0:0:0:0:
40,192,173843,1,0,0:0:0:0:
264,192,174009,2,0,B|264:272|264:272|240:304|152:288,2,188.999994232178,8|0|8,0:0|0:0|0:0,0:0:0:0:
264,176,174759,1,0,0:0:0:0:
264,160,174843,1,0,0:0:0:0:
264,144,174926,1,0,0:0:0:0:
264,128,175009,1,8,0:0:0:0:
440,200,175176,5,0,0:0:0:0:
376,128,175343,2,8,L|464:232,1,94.499997116089,0|8,0:0|0:0,0:0:0:0:
360,240,175676,2,0,L|288:312,2,94.499997116089,0|0|8,0:0|0:0|0:0,0:0:0:0:
96,56,176343,1,0,0:0:0:0:
192,144,176509,1,8,0:0:0:0:
96,56,176676,1,0,0:0:0:0:
416,328,177009,1,0,0:0:0:0:
320,240,177175,1,0,0:0:0:0:
416,328,177343,2,0,L|472:384,3,47.2499985580445,8|0|0|0,0:0|0:0|0:0|0:0,0:0:0:0:
416,328,177676,1,0,0:0:0:0:
256,192,177843,1,0,0:0:0:0:
352,192,178009,2,0,B|352:272|280:272|280:272|200:272,1,188.999994232178,8|0,0:0|0:0,0:0:0:0:
256,192,178676,12,0,179676,0:0:0:0:
256,48,180343,6,0,B|256:96|256:96|248:112|248:112|264:120|264:120|248:144|248:144|264:152|264:152|248:176|248:176|264:184|264:184|248:208|248:208|264:216|264:216|248:232|248:232|264:240|264:240|256:256|256:256|256:352,1,315.000012016297,0|4,0:0|0:0,0:0:0:0:
88,56,181343,1,4,0:0:0:0:
88,56,181509,1,4,0:0:0:0:
160,192,182676,1,4,0:0:0:0:
160,192,182842,1,4,0:0:0:0:
336,264,184009,1,12,0:0:0:0:
336,264,184175,1,12,0:0:0:0:
168,264,184676,1,12,0:0:0:0:
168,264,184842,1,12,0:0:0:0:
280,160,185176,1,0,0:0:0:0:
264,176,185259,1,0,0:0:0:0:
248,192,185343,1,12,0:0:0:0:
360,80,185565,5,12,0:0:0:0:
72,176,185787,5,12,0:0:0:0:
368,280,186009,5,12,0:0:0:0:
16,56,186232,5,4,0:0:0:0:
456,216,186454,5,4,0:0:0:0:
72,280,186676,2,4,L|296:280,1,210,12|0,0:0|0:0,0:0:0:0:
440,104,187343,2,0,L|230:104,1,210,8|0,0:0|0:0,0:0:0:0:
464,288,188009,2,0,B|376:304|392:192|392:192|312:192,1,231.000007049561,12|0,0:0|0:0,0:0:0:0:
48,96,188676,2,0,B|136:80|120:192|120:192|200:192,1,231.000007049561,12|0,0:0|0:0,0:0:0:0:
384,288,189343,6,0,L|288:192,1,131.25,8|0,0:0|0:0,0:0:0:0:
291,195,189676,2,0,L|395:91,1,131.25,8|0,0:0|0:0,0:0:0:0:
288,192,190009,2,0,L|181:298,1,131.25,8|0,0:0|0:0,0:0:0:0:
384,288,190343,1,8,0:0:0:0:
192,288,190509,1,0,0:0:0:0:
104,192,190676,2,0,L|48:128,3,65.625,8|0|0|0,0:0|0:0|0:0|0:0,0:0:0:0:
88,120,191009,2,0,L|152:56,3,65.625,8|0|0|0,0:0|0:0|0:0|0:0,0:0:0:0:
112,48,191343,2,0,L|57:-2,3,65.625,8|0|0|0,0:0|0:0|0:0|0:0,0:0:0:0:
63,3,191676,1,8,0:0:0:0:
448,216,192009,6,0,B|344:216|344:216|288:264|224:280|176:264|184:264,1,236.250009012223,4|0,0:0|0:0,0:0:0:0:
192,264,192343,2,0,P|88:184|96:160,1,157.500006008148,8|8,0:0|0:0,0:0:0:0:
88,336,192676,1,4,0:0:0:0:
88,184,192843,1,0,0:0:0:0:
88,336,193009,1,8,0:0:0:0:
88,96,193176,1,4,0:0:0:0:
152,40,193343,6,0,B|208:80|168:136|168:136|304:136,1,236.250009012223
292,136,193676,1,8,0:0:0:0:
448,256,193843,1,8,0:0:0:0:
232,200,194009,1,4,0:0:0:0:
216,216,194093,1,0,0:0:0:0:
200,232,194176,1,0,0:0:0:0:
184,248,194259,1,0,0:0:0:0:
168,264,194343,1,8,0:0:0:0:
352,80,194509,1,0,0:0:0:0:
440,80,194676,6,0,B|472:160|440:232|440:232|304:232,1,236.250009012223,4|0,0:0|0:0,0:0:0:0:
360,232,195009,1,8,0:0:0:0:
200,232,195176,1,8,0:0:0:0:
360,232,195343,1,4,0:0:0:0:
88,120,195509,1,0,0:0:0:0:
360,232,195676,1,8,0:0:0:0:
88,32,195843,1,0,0:0:0:0:
80,208,196009,1,8,0:0:0:0:
104,224,196093,1,0,0:0:0:0:
120,240,196176,1,0,0:0:0:0:
136,256,196259,1,0,0:0:0:0:
152,272,196343,1,8,0:0:0:0:
352,64,196510,5,0,0:0:0:0:
376,64,196593,1,0,0:0:0:0:
400,64,196676,2,0,B|400:112|400:112|416:136|416:136|416:168,2,105.000004005432,8|0|0,0:0|0:0|0:0,0:0:0:0:
360,88,197009,2,0,L|360:200,2,105.000004005432,8|0|0,0:0|0:0|0:0,0:0:0:0:
360,193,197343,1,8,0:0:0:0:
96,296,197676,6,0,P|176:240|176:168,1,157.500006008148
184,112,198009,1,8,0:0:0:0:
96,56,198343,2,0,L|96:224,1,157.500006008148
136,280,198676,2,0,P|184:328|224:344,2,105.000004005432,8|0|0,0:0|0:0|0:0,0:0:0:0:
160,256,199009,2,0,P|224:232|248:192,2,105.000004005432,8|0|0,0:0|0:0|0:0,0:0:0:0:
243,203,199343,1,8,0:0:0:0:
312,280,199509,1,8,0:0:0:0:
384,208,199676,1,8,0:0:0:0:
312,280,199843,1,0,0:0:0:0:
136,280,200009,1,0,0:0:0:0:
136,256,200093,1,0,0:0:0:0:
128,240,200176,1,0,0:0:0:0:
112,232,200259,1,0,0:0:0:0:
96,232,200343,5,8,0:0:0:0:
80,224,200426,1,8,0:0:0:0:
64,224,200509,1,8,0:0:0:0:
48,216,200593,1,8,0:0:0:0:
32,208,200676,5,0,0:0:0:0:
24,192,200759,1,0,0:0:0:0:
32,176,200843,1,0,0:0:0:0:
48,160,200926,2,0,L|112:88,1,78.7500030040742,0|12,0:0|0:0,0:0:0:0:
176,32,201176,1,12,0:0:0:0:
440,32,201343,5,0,0:0:0:0:
424,48,201427,1,0,0:0:0:0:
408,64,201510,1,0,0:0:0:0:
392,80,201593,1,0,0:0:0:0:
376,96,201677,1,8,0:0:0:0:
312,160,201843,1,8,0:0:0:0:
256,216,202009,1,0,0:0:0:0:
200,160,202176,1,0,0:0:0:0:
256,216,202343,1,8,0:0:0:0:
144,104,202509,1,0,0:0:0:0:
128,88,202593,1,0,0:0:0:0:
112,72,202676,2,0,P|72:24|72:-24,2,105.000004005432,8|0|0,0:0|0:0|0:0,0:0:0:0:
88,104,203009,2,0,P|32:96|0:48,2,105.000004005432,8|0|0,0:0|0:0|0:0,0:0:0:0:
88,192,203343,1,12,0:0:0:0:
88,104,203509,1,0,0:0:0:0:
88,288,203676,1,12,0:0:0:0:
400,72,204009,6,0,P|440:24|440:-24,2,105.000004005432,8|0|0,0:0|0:0|0:0,0:0:0:0:
424,104,204342,2,0,P|480:96|512:48,2,105.000004005432,8|0|0,0:0|0:0|0:0,0:0:0:0:
424,192,204676,1,12,0:0:0:0:
424,104,204843,1,0,0:0:0:0:
424,288,205009,1,4,0:0:0:0:
232,240,205343,6,0,P|200:320|144:336,2,105.000004005432,8|0|0,0:0|0:0|0:0,0:0:0:0:
280,240,205676,2,0,P|312:320|368:336,2,105.000004005432,8|0|0,0:0|0:0|0:0,0:0:0:0:
256,216,206009,2,0,L|256:48,3,157.500006008148,12|0|12|0,0:0|0:0|0:0|0:0,0:0:0:0:
176,128,206676,1,12,0:0:0:0:
112,192,206843,1,0,0:0:0:0:
176,248,207009,1,8,0:0:0:0:
112,304,207176,1,0,0:0:0:0:
176,360,207343,2,0,L|312:360,2,105.000004005432,8|0|0,0:0|0:0|0:0,0:0:0:0:
192,320,207676,2,0,L|288:240,1,105.000004005432,8|0,0:0|0:0,0:0:0:0:
312,256,207898,2,0,B|368:256|368:256|416:200,1,105.000004005432,0|12,0:0|0:0,0:0:0:0:
80,80,209343,5,4,0:0:0:0:
432,80,210009,1,12,0:0:0:0:
184,72,210676,2,0,P|264:96|344:64,1,157.500006008148,4|0,0:0|0:0,0:0:0:0:
384,144,211009,2,0,P|336:216|392:232,1,157.500006008148,8|0,0:0|0:0,0:0:0:0:
176,312,211343,2,0,P|256:288|336:320,1,157.500006008148
128,144,211676,2,0,P|176:216|120:232,1,157.500006008148,8|0,0:0|0:0,0:0:0:0:
352,128,212009,2,0,P|376:224|336:288,1,157.500006008148
160,128,212343,2,0,P|136:224|176:288,1,157.500006008148,8|0,0:0|0:0,0:0:0:0:
328,96,212676,2,0,P|232:72|168:112,1,157.500006008148
184,288,213009,2,0,P|280:312|344:272,1,157.500006008148,8|0,0:0|0:0,0:0:0:0:
80,128,213343,6,0,B|80:48|80:48|160:48,1,157.500006008148
432,258,213676,2,0,B|432:336|432:336|352:336,1,157.500006008148,8|0,0:0|0:0,0:0:0:0:
160,336,214009,2,0,B|80:336|80:336|80:256,1,157.500006008148
354,48,214343,2,0,B|432:48|432:48|432:128,1,157.500006008148,8|0,0:0|0:0,0:0:0:0:
136,224,214676,2,0,B|200:224|200:224|224:248|224:248|224:328,1,157.500006008148
376,224,215009,2,0,B|312:224|312:224|288:248|288:248|288:328,1,157.500006008148,8|0,0:0|0:0,0:0:0:0:
200,120,215343,2,0,B|242:162|242:162|276:162|276:162|321:116,1,157.500006008148
72,120,215676,1,8,0:0:0:0:
88,136,215759,1,8,0:0:0:0:
104,152,215843,1,8,0:0:0:0:
120,168,215926,1,8,0:0:0:0:
136,184,216009,6,4,L|256:304,1,157.500006008148,4|0,0:0|0:0,0:0:0:0:
264,312,216259,1,0,0:0:0:0:
280,328,216343,1,8,0:0:0:0:
440,328,216509,1,0,0:0:0:0:
360,248,216676,1,4,0:0:0:0:
440,168,216843,1,0,0:0:0:0:
424,152,216926,1,0,0:0:0:0:
408,136,217009,1,8,0:0:0:0:
352,80,217176,1,0,0:0:0:0:
272,72,217343,6,0,B|216:72|216:72|168:88|168:88|88:88,1,157.500006008148,4|0,0:0|0:0,0:0:0:0:
120,176,217676,2,0,B|170:176|170:176|218:160|218:160|274:160,1,157.500006008148,8|0,0:0|0:0,0:0:0:0:
120,264,218009,1,4,0:0:0:0:
272,264,218176,1,0,0:0:0:0:
248,280,218259,1,0,0:0:0:0:
248,304,218343,1,8,0:0:0:0:
272,320,218426,1,8,0:0:0:0:
296,320,218509,1,8,0:0:0:0:
320,320,218593,1,8,0:0:0:0:
344,320,218676,6,4,B|424:320|424:320|448:304|448:304|448:248,1,157.500006008148,4|0,0:0|0:0,0:0:0:0:
368,240,219009,2,0,B|368:160|368:160|456:160,1,157.500006008148,8|0,0:0|0:0,0:0:0:0:
448,80,219343,2,0,L|280:80,1,157.500006008148,4|0,0:0|0:0,0:0:0:0:
272,80,219593,1,0,0:0:0:0:
256,80,219676,1,8,0:0:0:0:
240,80,219759,1,8,0:0:0:0:
224,80,219843,1,8,0:0:0:0:
208,80,219926,1,8,0:0:0:0:
192,80,220009,5,4,0:0:0:0:
272,160,220176,1,0,0:0:0:0:
192,216,220343,1,8,0:0:0:0:
272,272,220509,1,0,0:0:0:0:
136,336,220676,1,8,0:0:0:0:
104,304,220759,1,8,0:0:0:0:
136,272,220843,1,8,0:0:0:0:
104,240,220926,1,8,0:0:0:0:
136,208,221009,1,8,0:0:0:0:
136,64,221176,1,8,0:0:0:0:
256,192,221343,12,4,228009,0:0:0:0:
