osu file format v13

[General]
AudioFilename: Bellsmp3.mp3
AudioLeadIn: 0
PreviewTime: 12523
Countdown: 0
SampleSet: Soft
StackLeniency: 0.7
Mode: 0
LetterboxInBreaks: 0
WidescreenStoryboard: 0

[Editor]
DistanceSpacing: 0.5
BeatDivisor: 3
GridSize: 4
TimelineZoom: 1

[Metadata]
Title:Jingle Bells
TitleUnicode:Jingle Bells
Artist:Drake Bell
ArtistUnicode:Drake Bell
Creator:mancuso_JM_
Version:Insane
Source:
Tags:Merry nickmas Christmas Drake and Josh xmas nickelodeon nick mancusojuanmattos
BeatmapID:326284
BeatmapSetID:129010

[Difficulty]
HPDrainRate:7
CircleSize:4.5
OverallDifficulty:7
ApproachRate:8.5
SliderMultiplier:1.4
SliderTickRate:1

[Events]
//Background and Video events
0,0,"Merry Christmas.jpg",0,0
//Break Periods
2,10245,11848
2,72205,88678
//Storyboard Layer 0 (Background)
//Storyboard Layer 1 (Fail)
//Storyboard Layer 2 (Pass)
//Storyboard Layer 3 (Foreground)
//Storyboard Sound Samples
//Background Colour Transformations
3,100,163,162,255

[TimingPoints]
2610,309.797340906157,4,2,1,85,1,0
61471,-142.857142857143,4,2,1,85,0,0
61678,-100,4,2,1,85,0,0
101786,309.797340906157,4,2,1,85,1,0
109243,311.931375097479,4,2,1,85,1,0
111738,312.01248049922,4,2,1,85,1,0
129225,316.038978140637,4,2,1,85,1,0
131753,312.5,4,2,1,85,1,0
136753,498.960498960499,4,2,1,65,1,0
142740,-100,4,2,1,55,0,0

[Colours]
Combo1 : 202,0,0
Combo2 : 255,130,130
Combo3 : 255,153,0

[HitObjects]
260,340,2610,6,0,P|326:357|387:325,1,140.000000596046,4|8,0:0|0:0,0:0:0:0:
376,232,3126,1,0,0:0:0:0:
376,232,3229,2,0,P|309:214|248:246,1,140.000000596046,2|8,0:0|0:0,0:0:0:0:
164,204,3745,2,0,P|182:137|150:76,1,140.000000596046,2|0,0:0|0:0,0:0:0:0:
120,68,4158,2,0,L|212:53,1,93.3333337306973,8|0,0:0|0:0,0:0:0:0:
232,80,4468,1,2,0:0:0:0:
344,128,4675,1,0,0:0:0:0:
357,141,4778,1,8,0:0:0:0:
476,104,4985,1,0,0:0:0:0:
489,117,5088,5,4,0:0:0:0:
444,252,5398,1,8,0:0:0:0:
380,320,5604,1,0,0:0:0:0:
380,320,5707,2,0,P|314:305|251:334,1,140.000000596046,2|8,0:0|0:0,0:0:0:0:
156,332,6224,2,0,P|114:276|112:207,1,140.000000596046,2|2,0:0|0:0,0:0:0:0:
136,184,6637,1,8,0:0:0:0:
168,96,6843,2,0,L|210:76,1,46.6666668653487,0|2,0:0|0:0,0:0:0:0:
320,160,7153,2,0,L|277:179,1,46.6666668653487,2|8,0:0|0:0,0:0:0:0:
276,292,7463,5,4,0:0:0:0:
144,344,7773,1,2,0:0:0:0:
144,344,7876,1,8,0:0:0:0:
48,240,8083,5,4,0:0:0:0:
136,132,8392,1,2,0:0:0:0:
136,132,8496,1,8,0:0:0:0:
272,164,8702,5,4,0:0:0:0:
276,292,9012,1,2,0:0:0:0:
276,292,9115,1,8,0:0:0:0:
400,232,9322,5,4,0:0:0:0:
292,52,9632,1,2,0:0:0:0:
276,36,9735,1,8,0:0:0:0:
256,28,9838,1,0,0:0:0:0:
236,36,9941,1,0,0:0:0:0:
220,52,10045,1,6,0:0:0:0:
84,88,12523,6,0,P|148:112|213:90,1,140,4|8,0:0|0:0,0:0:0:0:
304,60,13039,2,0,P|369:38|433:62,1,140,2|0,0:0|0:0,0:0:0:0:
468,124,13452,2,0,P|472:170|460:215,1,93.3333333333333,8|0,0:0|0:0,0:0:0:0:
416,276,13762,2,0,B|368:312|368:312|352:284|303:266,1,140,4|8,0:0|0:0,0:0:0:0:
207,266,14279,2,0,B|160:284|144:312|144:312|96:276,1,140,2|2,0:0|0:0,0:0:0:0:
76,260,14692,1,8,0:0:0:0:
24,180,14898,1,0,0:0:0:0:
7,163,15001,5,4,0:0:0:0:
24,24,15311,1,8,0:0:0:0:
159,59,15621,2,0,P|227:76|291:51,1,140.000000596046,2|8,0:0|0:0,0:0:0:0:
380,28,16137,2,0,P|363:95|388:159,1,140.000000596046,2|2,0:0|0:0,0:0:0:0:
408,172,16550,1,8,0:0:0:0:
424,264,16757,1,0,0:0:0:0:
424,263,16860,2,0,P|383:285|337:291,1,93.3333337306973,2|2,0:0|0:0,0:0:0:0:
279,248,17170,2,0,P|233:254|193:275,1,93.3333337306973,8|0,0:0|0:0,0:0:0:0:
184,296,17480,5,4,0:0:0:0:
56,352,17790,1,8,0:0:0:0:
7,219,18099,2,0,P|-7:152|6:84,1,140.000000596046,2|8,0:0|0:0,0:0:0:0:
84,32,18616,1,2,0:0:0:0:
84,32,18719,2,0,P|151:47|215:24,1,140.000000596046,2|8,0:0|0:0,0:0:0:0:
308,28,19235,2,0,P|322:95|306:163,1,140.000000596046,2|2,0:0|0:0,0:0:0:0:
284,176,19648,1,8,0:0:0:0:
253,328,19855,1,0,0:0:0:0:
253,328,19958,6,0,P|187:311|121:333,1,140.000000596046,2|8,0:0|0:0,0:0:0:0:
28,356,20474,1,2,0:0:0:0:
28,356,20578,2,0,P|7:289|14:220,1,140.000000596046,0|8,0:0|0:0,0:0:0:0:
60,140,21094,1,0,0:0:0:0:
60,140,21197,1,0,0:0:0:0:
204,60,21404,5,8,0:0:0:0:
204,60,21507,2,0,L|215:152,1,93.3333333333333,8|4,0:0|0:0,0:0:0:0:
364,320,22023,1,8,0:0:0:0:
380,303,22127,1,8,0:0:0:0:
396,286,22230,1,0,0:0:0:0:
412,269,22333,1,0,0:0:0:0:
428,252,22437,5,4,0:0:0:0:
444,112,22746,1,8,0:0:0:0:
396,31,22953,2,0,P|335:64|268:52,1,140.000000596046,2|2,0:0|0:0,0:0:0:0:
248,40,23366,1,8,0:0:0:0:
108,48,23572,1,0,0:0:0:0:
108,47,23676,2,0,P|87:114|107:180,1,140,4|8,0:0|0:0,0:0:0:0:
151,268,24192,2,0,P|213:237|280:253,1,140.000000596046,2|2,0:0|0:0,0:0:0:0:
292,272,24605,1,8,0:0:0:0:
416,340,24812,1,0,0:0:0:0:
416,340,24915,5,4,0:0:0:0:
496,228,25225,1,8,0:0:0:0:
436,100,25535,2,0,B|384:112|384:112|344:84|304:80,1,140.000000596046,2|8,0:0|0:0,0:0:0:0:
207,80,26051,2,0,B|168:84|128:112|128:112|76:100,1,140.000000596046,2|2,0:0|0:0,0:0:0:0:
56,112,26464,5,8,0:0:0:0:
12,244,26671,1,0,0:0:0:0:
12,244,26774,1,2,0:0:0:0:
120,332,26980,1,0,0:0:0:0:
120,332,27084,1,8,0:0:0:0:
220,232,27290,1,0,0:0:0:0:
220,232,27394,5,4,0:0:0:0:
188,96,27703,1,8,0:0:0:0:
316,43,28013,2,0,P|382:23|449:38,1,140.000000596046,2|8,0:0|0:0,0:0:0:0:
456,132,28529,1,0,0:0:0:0:
456,132,28633,2,0,P|389:152|322:137,1,140.000000596046,2|8,0:0|0:0,0:0:0:0:
232,112,29149,2,0,P|164:96|98:117,1,140.000000596046,2|2,0:0|0:0,0:0:0:0:
84,136,29562,1,8,0:0:0:0:
88,276,29769,1,0,0:0:0:0:
88,276,29872,6,0,P|129:296|175:292,1,93.3333337306973,2|2,0:0|0:0,0:0:0:0:
196,304,30182,1,8,0:0:0:0:
324,364,30492,1,2,0:0:0:0:
416,260,30801,1,8,0:0:0:0:
300,180,31111,5,0,0:0:0:0:
236,112,31318,1,8,0:0:0:0:
219,95,31421,1,0,0:0:0:0:
79,95,31627,1,8,0:0:0:0:
96,112,31731,1,0,0:0:0:0:
108,252,31937,1,8,0:0:0:0:
124,268,32041,1,0,0:0:0:0:
140,284,32144,1,0,0:0:0:0:
156,300,32247,1,8,0:0:0:0:
172,316,32350,5,4,0:0:0:0:
308,356,32660,1,8,0:0:0:0:
432,292,32970,2,0,P|441:246|431:200,1,93.3333337306973,2|2,0:0|0:0,0:0:0:0:
373,160,33280,2,0,P|363:114|371:68,1,93.3333337306973,8|0,0:0|0:0,0:0:0:0:
433,36,33589,6,0,L|293:43,1,140,2|8,0:0|0:0,0:0:0:0:
192,68,34106,2,0,L|184:114,1,46.6666668653487,0|2,0:0|0:0,0:0:0:0:
68,192,34416,2,0,L|75:145,1,46.6666668653487,2|8,0:0|0:0,0:0:0:0:
192,68,34725,1,0,0:0:0:0:
208,51,34829,5,4,0:0:0:0:
348,32,35138,2,0,P|365:98|349:166,1,140.000000596046,8|0,0:0|0:0,0:0:0:0:
292,240,35655,1,2,0:0:0:0:
292,240,35758,2,0,P|229:211|165:235,1,140,8|2,0:0|0:0,0:0:0:0:
99,303,36274,2,0,P|85:286|76:264,1,46.6666666666667,2|8,0:0|0:0,0:0:0:0:
64,136,36584,2,0,L|40:96,1,46.6666668653487,0|2,0:0|0:0,0:0:0:0:
144,24,36894,2,0,L|168:64,1,46.6666668653487,2|8,0:0|0:0,0:0:0:0:
256,172,37204,1,0,0:0:0:0:
256,171,37307,6,0,P|297:151|343:153,1,93.3333337306973,4|2,0:0|0:0,0:0:0:0:
364,248,37617,2,0,P|322:268|276:266,1,93.3333337306973,8|0,0:0|0:0,0:0:0:0:
256,260,37927,1,2,0:0:0:0:
136,187,38236,2,0,P|148:143|140:97,1,93.3333333333333,8|0,0:0|0:0,0:0:0:0:
192,44,38546,2,0,P|235:59|281:53,1,93.3333333333333,4|2,0:0|0:0,0:0:0:0:
339,99,38856,2,0,P|319:141|321:187,1,93.3333333333333,8|0,0:0|0:0,0:0:0:0:
252,220,39166,2,0,P|201:175|135:189,1,140,2|8,0:0|0:0,0:0:0:0:
96,316,39785,6,0,P|141:365|208:354,1,140,4|8,0:0|0:0,0:0:0:0:
304,354,40302,2,0,P|370:365|416:316,1,140,2|2,0:0|0:0,0:0:0:0:
388,232,40715,2,0,P|321:220|276:270,1,140,8|4,0:0|0:0,0:0:0:0:
216,340,41231,5,0,0:0:0:0:
196,354,41334,1,8,0:0:0:0:
48,296,41541,1,0,0:0:0:0:
68,282,41644,1,8,0:0:0:0:
72,124,41850,1,0,0:0:0:0:
92,110,41953,1,8,0:0:0:0:
236,176,42160,1,8,0:0:0:0:
256,162,42263,5,4,0:0:0:0:
348,56,42573,1,8,0:0:0:0:
483,91,42883,2,0,P|495:136|486:182,1,93.3333333333333,2|0,0:0|0:0,0:0:0:0:
436,228,43193,2,0,L|342:224,1,93.3333333333333,8|0,0:0|0:0,0:0:0:0:
326,240,43503,5,4,0:0:0:0:
216,328,43709,1,0,0:0:0:0:
216,328,43813,1,8,0:0:0:0:
84,368,44019,1,0,0:0:0:0:
84,368,44122,1,2,0:0:0:0:
112,232,44329,1,0,0:0:0:0:
112,232,44432,1,8,0:0:0:0:
216,328,44639,1,0,0:0:0:0:
216,327,44742,6,0,P|261:320|305:334,1,93.3333333333333,4|2,0:0|0:0,0:0:0:0:
364,292,45052,2,0,P|343:226|367:161,1,140,8|0,0:0|0:0,0:0:0:0:
364,68,45568,1,2,0:0:0:0:
364,68,45671,2,0,L|268:56,1,93.3333333333333,8|0,0:0|0:0,0:0:0:0:
252,72,45981,5,4,0:0:0:0:
172,120,46188,1,0,0:0:0:0:
155,136,46291,1,8,0:0:0:0:
176,272,46497,1,0,0:0:0:0:
193,256,46600,1,2,0:0:0:0:
332,248,46808,1,2,0:0:0:0:
349,232,46911,1,8,0:0:0:0:
484,200,47117,1,0,0:0:0:0:
484,200,47220,6,0,P|499:132|478:67,1,140,4|8,0:0|0:0,0:0:0:0:
391,32,47737,2,0,P|329:60|264:40,1,140,2|2,0:0|0:0,0:0:0:0:
248,24,48150,1,8,0:0:0:0:
34,66,48460,2,0,P|12:132|28:200,1,140,4|8,0:0|0:0,0:0:0:0:
60,288,48976,2,0,P|122:259|187:279,1,140,2|2,0:0|0:0,0:0:0:0:
200,300,49389,1,8,0:0:0:0:
256,192,49699,12,8,50835,0:0:0:0:
256,192,50938,12,0,51867,0:0:0:0:
80,308,52177,6,0,B|124:296|148:320|148:320|172:344|210:328,1,140,4|8,0:0|0:0,0:0:0:0:
301,328,52693,2,0,B|340:344|364:320|364:320|388:296|432:308,1,140,2|8,0:0|0:0,0:0:0:0:
452,320,53106,1,0,0:0:0:0:
404,104,53416,2,0,B|376:84|336:96|336:96|336:60|302:39,1,140,4|8,0:0|0:0,0:0:0:0:
209,39,53933,2,0,B|176:60|176:96|176:96|136:84|108:104,1,140,2|8,0:0|0:0,0:0:0:0:
88,116,54346,1,0,0:0:0:0:
28,188,54552,1,0,0:0:0:0:
11,204,54655,5,4,0:0:0:0:
24,344,54965,1,8,0:0:0:0:
24,344,55275,2,0,P|87:316|154:332,1,140,2|8,0:0|0:0,0:0:0:0:
248,332,55791,2,0,P|314:348|377:319,1,140,2|2,0:0|0:0,0:0:0:0:
388,300,56204,1,8,0:0:0:0:
408,160,56411,1,0,0:0:0:0:
424,143,56514,1,2,0:0:0:0:
340,32,56721,1,2,0:0:0:0:
324,49,56824,1,8,0:0:0:0:
184,60,57031,1,10,0:0:0:0:
168,77,57134,5,4,0:0:0:0:
36,124,57444,1,8,0:0:0:0:
16,264,57753,2,0,P|55:318|121:310,1,140,2|8,0:0|0:0,0:0:0:0:
156,220,58270,1,2,0:0:0:0:
156,220,58373,2,0,P|116:165|50:173,2,140,2|8|2,0:0|0:0|0:0,0:0:0:0:
260,316,59302,2,0,P|302:336|348:331,1,93.3333333333333,8|0,0:0|0:0,0:0:0:0:
412,296,59612,6,0,P|428:229|409:163,1,140,2|8,0:0|0:0,0:0:0:0:
304,68,60232,2,0,P|245:31|176:30,1,140,2|8,0:0|0:0,0:0:0:0:
20,124,60748,5,2,0:0:0:0:
20,124,60851,2,0,L|24:172,1,46.6666666666667,8|0,0:0|0:0,0:0:0:0:
92,196,61058,2,0,L|96:244,1,46.6666666666667,8|0,0:0|0:0,0:0:0:0:
164,264,61264,2,8,L|168:312,1,46.6666666666667
216,356,61471,6,0,L|280:348,1,65.3333313395183,0|4,0:0|0:0,0:0:0:0:
408,288,61987,1,0,0:0:0:0:
408,288,62091,6,0,P|392:220|407:152,1,140,4|8,0:0|0:0,0:0:0:0:
348,80,62607,2,0,P|280:95|212:79,1,140,2|8,0:0|0:0,0:0:0:0:
192,68,63020,1,0,0:0:0:0:
16,108,63330,2,0,P|31:175|21:244,1,140,4|8,0:0|0:0,0:0:0:0:
36,336,63846,2,0,L|176:320,1,140,2|8,0:0|0:0,0:0:0:0:
192,336,64259,1,0,0:0:0:0:
416,324,64569,5,4,0:0:0:0:
416,324,64879,1,8,0:0:0:0:
484,164,65189,1,2,0:0:0:0:
484,164,65498,1,8,0:0:0:0:
396,68,65705,6,0,B|352:60|308:84|308:84|288:38,1,140,2|2,0:0|0:0,0:0:0:0:
223,38,66118,2,0,B|203:84|203:84|159:60|116:68,1,140,8|2,0:0|0:0,0:0:0:0:
100,84,66531,1,2,0:0:0:0:
84,100,66634,1,0,0:0:0:0:
68,116,66738,1,8,0:0:0:0:
30,283,66944,5,2,0:0:0:0:
30,283,67047,2,0,P|94:301|147:259,1,140,4|8,0:0|0:0,0:0:0:0:
228,216,67564,1,0,0:0:0:0:
228,216,67667,2,0,P|295:215|334:269,1,140,2|8,0:0|0:0,0:0:0:0:
404,332,68183,1,0,0:0:0:0:
420,352,68287,6,0,L|439:213,1,140,2|8,0:0|0:0,0:0:0:0:
332,112,68803,2,0,L|312:250,1,140,2|2,0:0|0:0,0:0:0:0:
292,264,69216,1,8,0:0:0:0:
220,320,69422,1,0,0:0:0:0:
219,320,69526,2,0,P|154:340|93:309,1,140,2|8,0:0|0:0,0:0:0:0:
104,168,70145,2,0,P|169:147|230:178,1,140,2|8,0:0|0:0,0:0:0:0:
304,296,70765,5,4,0:0:0:0:
432,244,70971,1,0,0:0:0:0:
448,227,71075,1,8,0:0:0:0:
400,96,71281,1,8,0:0:0:0:
384,113,71385,1,0,0:0:0:0:
244,96,71591,1,2,0:0:0:0:
228,113,71695,1,8,0:0:0:0:
88,100,71901,1,8,0:0:0:0:
104,83,72005,1,4,0:0:0:0:
256,192,89353,12,8,91521,0:0:0:0:
92,40,91831,5,4,0:0:0:0:
92,40,92141,1,8,0:0:0:0:
48,172,92451,1,2,0:0:0:0:
48,172,92761,1,8,0:0:0:0:
12,256,92967,2,0,B|56:288|56:288|84:256|130:249,1,140,2|2,0:0|0:0,0:0:0:0:
152,256,93380,1,8,0:0:0:0:
252,268,93587,2,0,L|292:245,1,46.6666666666667,0|2,0:0|0:0,0:0:0:0:
272,156,93896,2,0,L|312:133,1,46.6666666666667,2|8,0:0|0:0,0:0:0:0:
468,72,94206,5,0,0:0:0:0:
468,72,94310,2,0,P|488:138|476:206,1,140,2|8,0:0|0:0,0:0:0:0:
428,340,94929,2,0,P|362:320|299:348,1,140,2|8,0:0|0:0,0:0:0:0:
208,356,95445,2,0,P|227:290|199:227,1,140,2|2,0:0|0:0,0:0:0:0:
180,220,95858,1,8,0:0:0:0:
48,176,96065,1,0,0:0:0:0:
48,176,96169,1,2,0:0:0:0:
160,92,96375,1,2,0:0:0:0:
160,92,96478,1,8,0:0:0:0:
300,80,96685,5,0,0:0:0:0:
300,80,96788,2,0,P|294:125|305:170,1,93.3333333333333,2|0,0:0|0:0,0:0:0:0:
348,236,97098,2,0,P|392:224|438:232,1,93.3333333333333,8|0,0:0|0:0,0:0:0:0:
444,312,97407,2,0,P|399:323|353:315,1,93.3333333333333,2|0,0:0|0:0,0:0:0:0:
332,308,97717,1,8,0:0:0:0:
120,328,98027,5,2,0:0:0:0:
4,252,98234,1,0,0:0:0:0:
4,252,98337,1,8,0:0:0:0:
64,124,98543,2,0,L|91:85,1,46.6666666666667,0|2,0:0|0:0,0:0:0:0:
113,77,98750,1,8,0:3:0:0:
135,69,98853,1,8,0:3:0:0:
156,61,98956,1,0,0:0:0:0:
178,53,99060,1,8,0:3:0:0:
200,46,99163,1,8,0:3:0:0:
220,40,99266,1,8,0:0:0:0:
256,192,99370,12,0,101435,0:0:0:0:
88,320,101786,6,0,B|132:300|176:332|176:332|208:298,1,140,4|8,0:0|0:0,0:0:0:0:
303,298,102302,1,0,0:0:0:0:
303,298,102405,2,0,B|336:332|336:332|380:300|424:320,1,140,2|8,0:0|0:0,0:0:0:0:
512,296,102921,1,0,0:0:0:0:
512,296,103025,6,0,L|504:200,1,93.3333333333333,2|0,0:0|0:0,0:0:0:0:
484,192,103334,1,8,0:0:0:0:
376,104,103541,1,0,0:0:0:0:
352,96,103644,1,2,0:0:0:0:
220,136,103851,1,2,0:0:0:0:
196,128,103954,1,8,0:0:0:0:
84,212,104161,1,0,0:0:0:0:
60,204,104264,6,0,L|71:296,1,93.3333333333333,4|0,0:0|0:0,0:0:0:0:
100,360,104574,2,0,L|192:348,1,93.3333333333333,8|0,0:0|0:0,0:0:0:0:
223,283,104883,2,0,P|290:300|350:268,1,140,2|8,0:0|0:0,0:0:0:0:
336,176,105400,2,0,P|269:158|209:190,1,140,2|2,0:0|0:0,0:0:0:0:
196,208,105813,5,8,0:0:0:0:
76,276,106019,1,0,0:0:0:0:
76,276,106123,1,2,0:0:0:0:
4,156,106329,1,2,0:0:0:0:
4,156,106432,1,8,0:0:0:0:
124,80,106639,1,0,0:0:0:0:
124,80,106742,6,0,B|144:40|196:40|196:40|248:40,1,140,4|8,0:0|0:0,0:0:0:0:
328,88,107259,2,0,B|308:128|256:128|256:128|204:128,1,140,2|2,0:0|0:0,0:0:0:0:
180,128,107672,1,8,0:0:0:0:
52,188,107981,2,0,B|12:208|12:260|12:260|12:312,1,140,2|8,0:0|0:0,0:0:0:0:
104,336,108498,2,0,B|144:316|144:264|144:264|144:212,1,140,2|2,0:0|0:0,0:0:0:0:
144,188,108911,1,8,0:0:0:0:
256,192,109243,12,2,110386,0:0:0:0:
256,192,110490,12,8,111426,0:0:0:0:
146,356,111738,6,0,B|210:328|210:328|210:257,1,140,4|8,0:0|0:0,0:0:0:0:
302,257,112258,2,0,B|302:328|302:328|366:356,1,140,2|8,0:0|0:0,0:0:0:0:
388,352,112674,1,0,0:0:0:0:
387,128,112986,2,0,P|321:119|304:55,1,140,4|8,0:0|0:0,0:0:0:0:
207,55,113506,2,0,P|190:119|125:128,1,140,2|8,0:0|0:0,0:0:0:0:
104,116,113922,1,0,0:0:0:0:
16,224,114234,5,4,0:0:0:0:
16,224,114546,1,8,0:0:0:0:
76,352,114858,1,2,0:0:0:0:
76,352,115170,1,8,0:0:0:0:
163,319,115378,6,0,P|223:353|291:340,1,140,2|2,0:0|0:0,0:0:0:0:
307,324,115794,1,8,0:0:0:0:
424,248,116002,1,0,0:0:0:0:
440,231,116106,1,2,0:0:0:0:
328,148,116314,1,2,0:0:0:0:
344,131,116418,1,8,0:0:0:0:
220,64,116626,1,8,0:0:0:0:
236,48,116730,6,0,B|188:44|152:64|152:64|103:42,1,140,4|8,0:0|0:0,0:0:0:0:
16,152,117354,1,2,0:0:0:0:
60,284,117666,2,0,P|104:296|149:285,1,93.3333333333333,8|0,0:0|0:0,0:0:0:0:
179,219,117978,2,0,P|245:239|309:214,1,140,2|8,0:0|0:0,0:0:0:0:
304,120,118498,2,0,P|238:100|174:125,1,140,2|2,0:0|0:0,0:0:0:0:
156,140,118914,1,8,0:0:0:0:
56,252,119122,5,0,0:0:0:0:
56,252,119226,2,0,P|90:283|135:293,1,93.3333333333333,2|2,0:0|0:0,0:0:0:0:
203,276,119538,2,0,P|268:251|333:271,1,140,8|2,0:0|0:0,0:0:0:0:
456,336,120162,1,8,0:0:0:0:
508,208,120474,5,2,0:0:0:0:
416,104,120682,1,0,0:0:0:0:
416,104,120786,1,8,0:0:0:0:
292,164,120994,1,8,0:0:0:0:
292,164,121098,1,0,0:0:0:0:
296,304,121306,1,4,0:0:0:0:
16,284,121722,6,0,P|-1:216|8:147,1,140,4|8,0:0|0:0,0:0:0:0:
56,68,122242,2,0,P|119:42|183:65,1,140,2|2,0:0|0:0,0:0:0:0:
212,128,122658,2,0,P|256:144|300:128,1,93.3333333333333,8|0,0:0|0:0,0:0:0:0:
328,65,122970,2,0,P|392:41|456:68,1,140,4|8,0:0|0:0,0:0:0:0:
504,147,123490,2,0,P|512:216|496:284,1,140,2|2,0:0|0:0,0:0:0:0:
444,328,123906,2,0,P|402:308|356:313,1,93.3333333333333,8|0,0:0|0:0,0:0:0:0:
336,328,124218,5,4,0:0:0:0:
336,328,124530,1,8,0:0:0:0:
200,368,124842,1,2,0:0:0:0:
200,368,125154,1,8,0:0:0:0:
107,355,125362,6,0,P|79:268|102:179,1,186.666666666667,2|10,0:0|0:0,0:0:0:0:
184,64,126090,1,2,0:0:0:0:
268,24,126298,1,0,0:0:0:0:
268,24,126402,1,8,0:0:0:0:
424,96,126610,1,0,0:0:0:0:
424,96,126714,6,0,P|436:164|428:234,1,140,4|8,0:0|0:0,0:0:0:0:
319,323,127338,2,0,P|252:308|189:334,1,140,2|8,0:0|0:0,0:0:0:0:
120,272,127858,1,0,0:0:0:0:
119,272,127962,2,0,P|135:204|109:141,1,140,2|8,0:0|0:0,0:0:0:0:
172,72,128482,2,0,P|235:98|302:82,1,140,2|2,0:0|0:0,0:0:0:0:
320,68,128898,1,8,0:0:0:0:
388,132,129106,5,0,0:0:0:0:
388,132,129225,2,0,P|361:195|377:262,1,140,4|8,0:0|0:0,0:0:0:0:
256,192,129646,12,8,131437,0:0:0:0:
188,108,131753,5,4,0:0:0:0:
324,276,132065,1,8,0:0:0:0:
256,192,132169,12,2,133940,0:0:0:0:
164,64,134253,6,0,B|220:76|244:124|240:216|120:276|120:276|256:216|256:352|256:352|256:216|392:276|392:276|272:216|268:124|292:76|348:64,1,980,4|8,0:0|0:0,0:0:0:0:
436,48,136753,5,2,0:0:0:0:
436,48,137251,1,2,0:0:0:0:
436,48,137750,1,2,0:0:0:0:
76,48,138748,5,2,0:0:0:0:
76,48,139246,1,2,0:0:0:0:
76,48,139745,1,2,0:0:0:0:
256,360,140744,5,2,0:0:0:0:
256,360,141243,1,2,0:0:0:0:
256,360,141742,1,2,0:0:0:0:
256,48,142740,6,8,L|256:72,3,23.3333333333333
256,140,143239,1,8,0:0:0:0:
256,232,143572,2,0,L|256:284,1,46.6666666666667,8|4,0:0|0:0,0:0:0:0:
256,192,143904,12,12,146233,0:0:0:0:
