osu file format v13

[General]
AudioFilename: Bellsmp3.mp3
AudioLeadIn: 0
PreviewTime: 12523
Countdown: 0
SampleSet: Soft
StackLeniency: 0.7
Mode: 0
LetterboxInBreaks: 0
WidescreenStoryboard: 1

[Editor]
DistanceSpacing: 1
BeatDivisor: 3
GridSize: 4
TimelineZoom: 1.3

[Metadata]
Title:Jingle Bells
TitleUnicode:Jingle Bells
Artist:Drake Bell
ArtistUnicode:Drake Bell
Creator:mancuso_JM_
Version:Hard
Source:
Tags:Merry nickmas Christmas Drake and Josh xmas nickelodeon nick mancusojuanmattos
BeatmapID:548114
BeatmapSetID:129010

[Difficulty]
HPDrainRate:7
CircleSize:4
OverallDifficulty:6
ApproachRate:8
SliderMultiplier:1.2
SliderTickRate:1

[Events]
//Background and Video events
0,0,"Merry Christmas.jpg",0,0
//Break Periods
2,10245,11773
2,72204,88603
//Storyboard Layer 0 (Background)
//Storyboard Layer 1 (Fail)
//Storyboard Layer 2 (Pass)
//Storyboard Layer 3 (Foreground)
//Storyboard Sound Samples
//Background Colour Transformations
3,100,163,162,255

[TimingPoints]
2610,309.797340906157,4,2,1,85,1,0
21404,-100,4,2,1,75,0,0
21507,-100,4,2,1,85,0,0
56411,-100,4,2,1,75,0,0
56514,-100,4,2,1,85,0,0
101786,309.797340906157,4,2,1,85,1,0
109243,311.931375097479,4,2,1,85,1,0
111738,312.01248049922,4,2,1,85,1,0
121306,-100,4,2,1,75,0,0
121410,-100,4,2,1,85,0,0
129225,316.038978140637,4,2,1,85,1,0
131753,312.5,4,2,1,85,1,0
136753,498.960498960499,4,2,1,65,1,0
142740,-100,4,2,1,55,0,0

[Colours]
Combo1 : 202,0,0
Combo2 : 255,130,130
Combo3 : 255,153,0

[HitObjects]
84,303,2610,6,0,P|138:281|197:290,1,120,4|8,0:0|0:0,0:0:0:0:
272,336,3126,1,0,0:0:0:0:
272,336,3229,2,0,P|328:352|385:335,1,120,2|8,0:0|0:0,0:0:0:0:
452,276,3745,2,0,B|460:212|428:224|434:159,1,120,2|0,0:0|0:0,0:0:0:0:
444,140,4158,1,8,0:0:0:0:
419,56,4365,2,0,P|401:63|381:64,1,40,0|2,0:0|0:0,0:0:0:0:
296,52,4675,2,0,P|278:43|258:42,1,40,2|8,0:0|0:0,0:0:0:0:
172,56,4985,5,0,0:0:0:0:
172,56,5088,2,0,P|184:114|176:173,2,120,4|8|2,0:0|0:0|0:0,0:0:0:0:
48,12,6017,1,8,0:0:0:0:
16,92,6224,2,0,P|1:169|31:242,1,160,2|8,0:0|0:0,0:0:0:0:
132,304,6947,1,2,0:0:0:0:
212,339,7153,2,0,P|229:329|248:324,1,40,0|8,0:0|0:0,0:0:0:0:
336,340,7463,5,4,0:0:0:0:
456,288,7773,1,2,0:0:0:0:
456,288,7876,2,0,L|438:210,1,80,8|4,0:0|0:0,0:0:0:0:
308,192,8392,1,2,0:0:0:0:
308,192,8495,2,0,L|290:114,1,80,8|4,0:0|0:0,0:0:0:0:
179,40,9012,2,0,P|164:52|145:56,1,40,2|8,0:0|0:0,0:0:0:0:
60,28,9322,1,4,0:0:0:0:
32,156,9632,6,0,L|44:196,3,40,2|8|0|0,0:0|0:0|0:0|0:0,0:0:0:0:
60,208,10045,1,4,0:0:0:0:
30,126,12523,6,0,P|90:119|141:88,1,120,4|8,0:0|0:0,0:0:0:0:
204,40,13039,2,0,P|255:99|331:120,1,160,2|8,0:0|0:0,0:0:0:0:
452,124,13762,2,0,P|448:183|466:240,1,120,4|8,0:0|0:0,0:0:0:0:
503,311,14279,2,0,P|437:271|364:296,1,160,2|8,0:0|0:0,0:0:0:0:
256,344,15001,5,4,0:0:0:0:
256,344,15311,1,8,0:0:0:0:
140,372,15621,1,2,0:0:0:0:
140,372,15931,1,8,0:0:0:0:
64,348,16137,2,0,L|57:228,1,120,2|0,0:0|0:0,0:0:0:0:
68,212,16550,1,8,0:0:0:0:
136,168,16757,1,0,0:0:0:0:
148,152,16860,2,0,L|155:272,1,120,2|8,0:0|0:0,0:0:0:0:
252,344,17480,6,0,P|308:360|366:346,1,120,4|8,0:0|0:0,0:0:0:0:
468,280,18099,1,2,0:0:0:0:
492,159,18409,2,0,P|480:121|480:82,1,80,8|0,0:0|0:0,0:0:0:0:
487,64,18719,2,0,P|433:87|375:78,1,120,2|8,0:0|0:0,0:0:0:0:
304,44,19235,2,0,P|231:17|163:55,1,160,2|8,0:0|0:0,0:0:0:0:
104,108,19855,1,0,0:0:0:0:
104,108,19958,6,0,L|116:228,1,120,2|8,0:0|0:0,0:0:0:0:
168,335,20578,2,0,P|216:302|274:309,1,120,2|8,0:0|0:0,0:0:0:0:
340,356,21094,2,0,B|396:332|396:376|456:356,1,120,2|8,0:0|0:0,0:0:0:0:
476,364,21507,2,0,L|469:284,1,80,8|4,0:0|0:0,0:0:0:0:
391,191,22023,2,0,P|390:172|394:152,3,40,2|8|0|0,0:0|0:0|0:0|0:0,0:0:0:0:
428,136,22437,6,0,L|308:132,1,120,4|8,0:0|0:0,0:0:0:0:
272,60,22953,2,0,P|204:99|130:77,1,160,2|8,0:0|0:0,0:0:0:0:
40,228,23676,2,0,P|89:196|148:204,1,120,4|8,0:0|0:0,0:0:0:0:
200,268,24192,2,0,P|269:303|343:280,1,160,2|8,0:0|0:0,0:0:0:0:
424,192,24915,6,0,L|405:73,2,120,4|8|2,0:0|0:0|0:0,0:0:0:0:
388,308,25844,1,8,0:0:0:0:
311,339,26051,2,0,P|256:319|201:339,1,120,2|2,0:0|0:0,0:0:0:0:
188,354,26464,2,0,P|183:315|167:278,1,80,8|0,0:0|0:0,0:0:0:0:
147,279,26774,2,0,P|148:240|162:202,1,80,2|2,0:0|0:0,0:0:0:0:
179,192,27083,1,8,0:0:0:0:
268,112,27393,6,0,P|324:128|380:107,2,120,4|8|2,0:0|0:0|0:0,0:0:0:0:
156,68,28323,2,0,P|119:52|79:51,1,80,8|0,0:0|0:0,0:0:0:0:
60,60,28632,2,0,L|71:179,1,120,2|8,0:0|0:0,0:0:0:0:
120,244,29149,2,0,B|172:264|220:224|220:224|269:240,1,160,2|8,0:0|0:0,0:0:0:0:
320,300,29768,1,0,0:0:0:0:
320,300,29872,6,0,P|375:319|432:303,1,120,2|8,0:0|0:0,0:0:0:0:
444,184,30491,2,0,P|388:164|331:180,2,120,2|8|2,0:0|0:0|0:0,0:0:0:0:
496,244,31317,2,0,L|489:283,1,40,8|0,0:0|0:0,0:0:0:0:
439,343,31627,2,0,P|422:334|402:332,1,40,8|0,0:0|0:0,0:0:0:0:
329,363,31937,2,0,P|310:371|291:371,3,40,8|0|0|0,0:0|0:0|0:0|0:0,0:0:0:0:
256,336,32350,6,0,B|216:356|204:368|204:368|146:350,2,120,4|8|2,0:0|0:0|0:0,0:0:0:0:
312,279,33176,2,0,P|319:219|305:161,1,120,2|2,0:0|0:0,0:0:0:0:
288,152,33589,2,0,B|232:136|232:172|170:153,2,120,2|8|2,0:0|0:0|0:0,0:0:0:0:
399,103,34519,2,0,P|403:64|420:28,1,80,8|0,0:0|0:0,0:0:0:0:
440,20,34828,6,0,L|320:27,2,120,2|8|0,0:0|0:0|0:0,0:0:0:0:
508,64,35655,2,0,L|500:108,1,40,2|8,0:0|0:0,0:0:0:0:
495,224,36068,2,0,P|483:261|459:292,1,80,2|2,0:0|0:0,0:0:0:0:
448,308,36377,2,0,B|388:296|396:324|329:309,1,120,8|2,0:0|0:0,0:0:0:0:
224,256,36997,1,8,0:0:0:0:
119,311,37307,6,0,P|83:295|44:299,1,80,4|0,0:0|0:0,0:0:0:0:
32,316,37617,2,0,L|24:196,1,120,8|2,0:0|0:0,0:0:0:0:
36,76,38236,1,8,0:0:0:0:
157,59,38546,2,0,B|213:51|220:91|256:116|256:116|292:91|299:51|355:59,1,240,2|2,0:0|0:0,0:0:0:0:
468,92,39475,1,8,0:0:0:0:
508,204,39785,6,0,L|497:323,1,120,2|8,0:0|0:0,0:0:0:0:
420,348,40302,2,0,B|364:328|340:352|312:380|266:355,1,160,2|8,0:0|0:0,0:0:0:0:
175,276,41024,2,0,P|125:305|67:293,2,120,4|8|8,0:0|0:0|0:0,0:0:0:0:
208,204,41850,2,0,P|223:216|240:226,1,40,0|8,0:0|0:0,0:0:0:0:
320,220,42160,1,8,0:0:0:0:
320,220,42264,6,0,L|308:100,2,120,4|8|2,0:0|0:0|0:0,0:0:0:0:
376,328,43193,1,8,0:0:0:0:
255,327,43503,2,0,P|200:306|144:324,1,120,2|8,0:0|0:0,0:0:0:0:
72,356,44019,2,0,B|60:296|82:279|104:264|85:199,1,160,2|8,0:0|0:0,0:0:0:0:
28,96,44742,6,0,P|67:100|103:84,1,80,2|0,0:0|0:0,0:0:0:0:
104,64,45052,2,0,B|144:76|160:92|160:92|213:72,1,120,8|0,0:0|0:0,0:0:0:0:
280,24,45568,1,2,0:0:0:0:
280,24,45671,2,0,P|318:31|358:24,1,80,8|0,0:0|0:0,0:0:0:0:
372,8,45981,2,0,B|368:56|396:80|388:125,1,120,2|8,0:0|0:0,0:0:0:0:
347,196,46497,2,0,P|340:214|339:234,1,40,2|0,0:0|0:0,0:0:0:0:
392,296,46807,2,0,P|385:314|373:330,1,40,2|8,0:0|0:0,0:0:0:0:
296,340,47117,1,0,0:0:0:0:
296,340,47220,6,0,P|238:329|182:347,1,120,4|8,0:0|0:0,0:0:0:0:
100,356,47737,2,0,B|107:305|84:282|59:258|74:201,1,160,2|8,0:0|0:0,0:0:0:0:
84,80,48460,2,0,P|140:95|193:70,1,120,2|8,0:0|0:0,0:0:0:0:
252,16,48976,2,0,P|310:66|386:49,1,160,2|8,0:0|0:0,0:0:0:0:
256,192,49699,12,0,51867,0:0:0:0:
232,180,52177,6,0,B|203:146|159:146|159:146|121:146,1,120,4|8,0:0|0:0,0:0:0:0:
56,192,52693,2,2,B|84:225|128:225|128:225|168:225,1,120,2|8,0:0|0:0,0:0:0:0:
166,225,53106,1,0,0:0:0:0:
256,303,53416,2,0,P|312:287|368:308,1,120,4|8,0:0|0:0,0:0:0:0:
448,292,53933,2,0,P|459:233|441:177,1,120,2|8,0:0|0:0,0:0:0:0:
441,177,54346,1,0,0:0:0:0:
308,68,54655,6,0,B|256:97|256:97|204:68,1,120,4|8,0:0|0:0,0:0:0:0:
88,32,55275,2,0,B|80:84|108:100|100:150,1,120,2|8,0:0|0:0,0:0:0:0:
64,219,55791,2,0,P|129:179|202:205,1,160,2|8,0:0|0:0,0:0:0:0:
259,262,56411,2,0,P|278:265|297:260,1,40,8|0,0:0|0:0,0:0:0:0:
372,232,56721,1,2,0:0:0:0:
372,232,56824,2,0,L|356:148,1,80,8|0,0:0|0:0,0:0:0:0:
363,113,57134,6,0,P|309:135|255:114,1,120,4|8,0:0|0:0,0:0:0:0:
159,39,57753,2,0,P|101:39|58:79,1,120,2|8,0:0|0:0,0:0:0:0:
44,160,58270,1,2,0:0:0:0:
44,160,58373,2,0,B|40:208|64:232|56:278,1,120,2|8,0:0|0:0,0:0:0:0:
8,344,58889,2,0,B|56:377|110:339|110:339|158:350,1,160,2|8,0:0|0:0,0:0:0:0:
236,368,59509,1,0,0:0:0:0:
236,368,59612,2,0,P|291:348|346:368,1,120,2|8,0:0|0:0,0:0:0:0:
468,363,60232,2,0,P|480:305|464:248,1,120,2|8,0:0|0:0,0:0:0:0:
344,228,60851,6,0,L|304:234,2,40,8|0|0,0:0|0:0|0:0,0:0:0:0:
332,148,61161,2,0,L|292:154,2,40,8|0|8,0:0|0:0|0:0,0:0:0:0:
340,68,61471,2,0,L|260:77,1,80,0|4,0:0|0:0,0:0:0:0:
100,72,62091,6,0,B|96:112|96:112|112:144|112:144|104:188,1,120,4|8,0:0|0:0,0:0:0:0:
32,224,62607,2,0,B|28:264|28:264|44:296|44:296|36:340,1,120,2|8,0:0|0:0,0:0:0:0:
36,339,63020,1,0,0:0:0:0:
147,293,63330,2,0,B|183:293|183:293|227:293|256:327,1,120,4|8,0:0|0:0,0:0:0:0:
319,375,63846,2,0,P|360:333|418:324,1,120,2|8,0:0|0:0,0:0:0:0:
418,324,64259,1,0,0:0:0:0:
500,236,64569,6,0,L|488:116,1,120,4|8,0:0|0:0,0:0:0:0:
368,96,65189,2,0,L|379:215,1,120,2|8,0:0|0:0,0:0:0:0:
326,276,65705,2,0,B|285:264|247:284|247:284|239:238|200:227,1,160,2|8,0:0|0:0,0:0:0:0:
96,168,66428,2,0,L|104:128,3,40,2|0|0|8,0:0|0:0|0:0|0:0,0:0:0:0:
156,68,66944,1,0,0:0:0:0:
156,67,67047,6,0,P|207:40|265:52,1,120,4|8,0:0|0:0,0:0:0:0:
284,172,67667,2,0,P|232:199|174:187,1,120,2|8,0:0|0:0,0:0:0:0:
96,168,68183,1,2,0:0:0:0:
96,168,68287,2,0,B|92:216|116:240|108:286,2,120,2|8|0,0:0|0:0|0:0,0:0:0:0:
124,92,69113,1,2,0:0:0:0:
124,91,69216,2,0,P|158:72|185:43,1,80,8|0,0:0|0:0,0:0:0:0:
188,24,69526,2,0,P|223:71|278:95,1,120,2|8,0:0|0:0,0:0:0:0:
392,64,70145,2,0,B|408:120|376:120|395:182,1,120,2|8,0:0|0:0,0:0:0:0:
408,300,70765,5,4,0:0:0:0:
344,348,70971,1,8,0:0:0:0:
344,348,71075,2,0,L|264:356,1,80,0|8,0:0|0:0,0:0:0:0:
252,340,71385,1,0,0:0:0:0:
173,261,71591,1,8,0:0:0:0:
173,261,71695,2,0,L|93:269,1,80,0|8,0:0|0:0,0:0:0:0:
81,253,72004,1,4,0:0:0:0:
256,192,89353,12,0,91521,0:0:0:0:
304,48,91831,6,0,P|256:83|197:88,1,120,4|8,0:0|0:0,0:0:0:0:
80,64,92451,2,0,B|64:120|96:120|77:182,1,120,2|8,0:0|0:0,0:0:0:0:
160,268,93070,2,0,P|210:236|269:238,1,120,2|10,0:0|0:0,0:0:0:0:
332,292,93587,1,0,0:0:0:0:
332,292,93690,2,0,P|389:279|430:235,1,120,2|8,0:0|0:0,0:0:0:0:
420,115,94310,6,0,P|365:91|328:45,2,120,4|8|2,0:0|0:0|0:0,0:0:0:0:
500,96,95136,2,0,B|508:140|488:172|500:215,1,120,2|0,0:0|0:0,0:0:0:0:
499,235,95549,2,0,P|446:211|391:232,1,120,2|8,0:0|0:0,0:0:0:0:
352,304,96065,1,0,0:0:0:0:
352,304,96168,2,0,P|306:340|247:333,1,120,2|8,0:0|0:0,0:0:0:0:
136,288,96788,6,0,L|130:208,1,80,4|0,0:0|0:0,0:0:0:0:
148,196,97098,2,0,P|88:197|39:164,2,120,8|2|8,0:0|0:0|0:0,0:0:0:0:
220,100,98027,2,0,P|279:98|328:131,1,120,2|8,0:0|0:0,0:0:0:0:
400,228,98647,2,0,L|406:267,2,40,8|0|0,0:0|0:0|0:0,0:0:0:0:
476,200,98956,2,0,L|482:239,2,40,8|0|0,0:0|0:0|0:0,0:0:0:0:
256,192,99266,12,2,101435,0:0:0:0:
172,48,101786,6,0,L|202:163,1,120,4|8,0:0|0:0,0:0:0:0:
340,48,102405,2,0,L|309:163,1,120,2|8,0:0|0:0,0:0:0:0:
160,273,103025,2,0,B|200:289|240:261|256:223|256:223|272:261|312:289|352:273,1,240,2|0,0:0|0:0,0:0:0:0:
440,192,103954,1,8,0:0:0:0:
507,91,104264,6,0,P|474:71|434:67,1,80,4|0,0:0|0:0,0:0:0:0:
416,76,104574,2,0,B|356:96|356:96|301:80,1,120,8|0,0:0|0:0,0:0:0:0:
244,24,105090,2,0,P|202:64|144:59,1,120,2|0,0:0|0:0,0:0:0:0:
132,44,105503,2,0,L|144:164,1,120,2|8,0:0|0:0,0:0:0:0:
184,232,106019,2,0,P|201:222|220:216,1,40,2|0,0:0|0:0,0:0:0:0:
288,260,106329,2,0,P|307:265|327:265,1,40,8|0,0:0|0:0,0:0:0:0:
400,236,106639,1,0,0:0:0:0:
400,236,106742,6,0,P|396:177|382:119,1,120,4|8,0:0|0:0,0:0:0:0:
320,64,107259,2,0,B|240:84|248:40|162:54,1,160,2|8,0:0|0:0,0:0:0:0:
55,108,107981,2,0,P|48:167|64:224,1,120,2|8,0:0|0:0,0:0:0:0:
112,287,108498,2,0,P|177:246|250:270,1,160,2|8,0:0|0:0,0:0:0:0:
256,192,109243,12,2,111426,0:0:0:0:
256,315,111738,6,0,P|311:296|368:312,1,120,4|8,0:0|0:0,0:0:0:0:
448,303,112258,2,0,P|459:245|445:187,1,120,2|8,0:0|0:0,0:0:0:0:
445,187,112674,1,0,0:0:0:0:
404,76,112986,2,0,B|364:84|340:100|340:100|294:75,1,120,4|8,0:0|0:0,0:0:0:0:
217,75,113506,2,0,B|172:100|172:100|148:84|108:76,1,120,2|8,0:0|0:0,0:0:0:0:
108,76,113922,1,0,0:0:0:0:
27,168,114234,6,0,P|16:226|34:282,1,120,4|8,0:0|0:0,0:0:0:0:
132,352,114858,2,0,B|176:336|188:312|188:312|237:315,1,120,2|8,0:0|0:0,0:0:0:0:
312,344,115378,2,0,P|384:371|450:332,1,160,2|8,0:0|0:0,0:0:0:0:
480,256,116002,1,0,0:0:0:0:
480,255,116106,2,0,P|480:216|472:177,1,80,2|2,0:0|0:0,0:0:0:0:
456,164,116418,2,0,L|372:168,1,80,8|0,0:0|0:0,0:0:0:0:
359,156,116730,6,0,P|311:189|253:179,1,120,4|8,0:0|0:0,0:0:0:0:
224,64,117354,2,0,P|272:30|330:40,1,120,2|8,0:0|0:0,0:0:0:0:
408,56,117874,1,2,0:0:0:0:
408,56,117978,2,0,P|440:105|455:163,1,120,2|8,0:0|0:0,0:0:0:0:
423,239,118498,2,0,P|352:212|286:252,1,160,2|8,0:0|0:0,0:0:0:0:
236,316,119122,1,2,0:0:0:0:
236,316,119226,6,0,P|186:347|127:341,1,120,2|8,0:0|0:0,0:0:0:0:
100,224,119850,2,0,P|149:192|208:198,1,120,2|8,0:0|0:0,0:0:0:0:
328,212,120474,1,0,0:0:0:0:
404,183,120682,2,0,P|410:165|412:145,1,40,8|0,0:0|0:0,0:0:0:0:
356,88,120994,1,8,0:0:0:0:
356,88,121098,2,0,L|276:88,1,80,0|4,0:0|0:0,0:0:0:0:
120,60,121722,6,0,B|104:120|136:120|120:178,1,120,4|8,0:0|0:0,0:0:0:0:
180,231,122242,2,0,P|229:199|288:202,1,120,2|8,0:0|0:0,0:0:0:0:
288,202,122658,1,0,0:0:0:0:
316,320,122970,2,0,P|266:352|207:349,1,120,4|8,0:0|0:0,0:0:0:0:
140,308,123490,2,0,B|131:248|102:260|93:199,1,120,2|8,0:0|0:0,0:0:0:0:
93,199,123906,1,0,0:0:0:0:
84,80,124218,6,0,P|142:88|194:60,1,120,4|8,0:0|0:0,0:0:0:0:
317,60,124842,2,0,P|369:88|428:80,1,120,2|8,0:0|0:0,0:0:0:0:
459,8,125362,2,0,P|435:82|458:158,1,160,2|2,0:0|0:0,0:0:0:0:
496,272,126090,1,2,0:0:0:0:
456,340,126298,1,8,0:0:0:0:
456,340,126402,2,0,L|376:343,1,80,0|8,0:0|0:0,0:0:0:0:
363,328,126714,6,0,P|312:356|255:342,1,120,4|8,0:0|0:0,0:0:0:0:
192,240,127338,2,0,B|144:276|144:276|87:256,1,120,2|8,0:0|0:0,0:0:0:0:
40,192,127858,1,2,0:0:0:0:
40,192,127962,2,0,P|24:135|32:76,1,120,2|8,0:0|0:0,0:0:0:0:
92,24,128482,2,0,B|132:24|132:24|164:40|164:40|208:40,1,120,2|8,0:0|0:0,0:0:0:0:
208,40,128898,1,0,0:0:0:0:
288,68,129106,1,8,0:0:0:0:
288,68,129225,6,0,P|340:94|398:84,1,120,4|8,0:0|0:0,0:0:0:0:
256,192,129646,12,8,131437,0:0:0:0:
216,236,131753,5,4,0:0:0:0:
296,148,132065,1,8,0:0:0:0:
256,192,132169,12,0,133940,0:0:0:0:
137,48,134253,6,0,B|68:80|29:160|88:308|220:240|220:240|256:369|256:369|292:240|292:240|424:308|483:160|444:80|375:48,1,960,4|2,0:0|0:0,0:0:0:0:
375,48,137251,1,2,0:0:0:0:
375,48,137750,1,2,0:0:0:0:
137,48,138748,5,2,0:0:0:0:
137,48,139247,1,2,0:0:0:0:
137,48,139746,1,2,0:0:0:0:
256,256,140744,5,2,0:0:0:0:
256,256,141243,1,2,0:0:0:0:
156,192,141742,2,0,P|256:135|356:192,2,240,2|8|4,0:0|0:0|0:0,0:0:0:0:
256,192,143904,12,12,146233,0:0:0:0:
