osu file format v9

[General]
AudioFilename: drake_bell-i_found_a_way.mp3
AudioLeadIn: 0
PreviewTime: 26919
Countdown: 0
SampleSet: Soft
StackLeniency: 0.7
Mode: 0
LetterboxInBreaks: 0

[Editor]
DistanceSpacing: 1
BeatDivisor: 4
GridSize: 4

[Metadata]
Title:I Found a Way
Artist:Drake Bell
Creator:mancusojuanmattos
Version:Normal
Source:Drake & Josh
Tags:Miranda Cosgrove Josh Peck Nickelodeon Nick Katsuri Kenezz KenezzEdward

[Difficulty]
HPDrainRate:4
CircleSize:3
OverallDifficulty:5
ApproachRate:5
SliderMultiplier:1.4
SliderTickRate:2

[Events]
//Background and Video events
0,0,"Drake Bell BG.jpg"
//Break Periods
2,122101,135941
//Storyboard Layer 0 (Background)
//Storyboard Layer 1 (Fail)
//Storyboard Layer 2 (Pass)
//Storyboard Layer 3 (Foreground)
//Storyboard Sound Samples
//Background Colour Transformations
3,100,163,162,255

[TimingPoints]
255,461.538461538462,4,2,1,70,1,0
26101,-100,4,2,1,70,0,1
53793,-100,4,2,1,70,0,0
77793,-100,4,2,1,70,0,1
107331,-100,4,2,1,70,0,0
144255,-100,4,2,1,70,0,1
171947,-100,4,2,1,40,0,0

[Colours]
Combo1 : 175,95,95
Combo2 : 255,64,64
Combo3 : 111,111,111
Combo4 : 209,209,209

[HitObjects]
180,140,3947,2,0,B|180:40|256:4|332:40|332:140,1,280,4|0
364,276,5331,1,8
256,184,5793,1,0
152,276,6255,1,8
256,368,6716,2,0,B|256:276,2,70,0|0|8
364,276,7639,1,0
256,184,8101,5,8
176,72,8562,1,0
92,184,9024,1,8
116,320,9485,2,0,B|176:352|176:352|248:316,1,140,0|8
180,196,10408,1,0
180,196,10870,1,8
256,76,11331,6,0,B|328:108|328:48|400:76,1,140,4|8
460,196,12254,1,0
400,320,12716,2,0,B|328:288|328:348|256:320,2,140,8|0|8
460,196,14101,1,0
460,196,14331,1,0
460,196,14562,1,8
364,92,15024,1,0
260,184,15485,6,0,B|184:132,2,70,8|0|0
260,324,16408,1,8
124,360,16870,1,0
124,360,17101,1,0
124,360,17331,2,0,B|48:328|48:328|48:252,1,140,8|8
120,152,18255,1,8
252,196,18716,5,4
384,152,19178,1,8
252,196,19639,2,0,B|276:264|228:264|252:332,2,140,0|8|0
112,196,21024,1,8
112,336,21485,1,0
112,196,21947,1,8
248,160,22408,6,0,B|248:96|308:36|308:36|368:96|368:164,2,280,4|0|4
304,288,24716,1,0
164,288,25178,1,0
236,168,25639,1,8
188,116,25870,1,0
156,52,26101,5,4
156,52,26562,1,8
156,51,27024,2,0,B|219:16|287:60|287:60|351:16|421:48,1,280,0|0
424,188,28408,1,8
424,328,28870,2,0,B|360:363|292:319|292:319|228:363|158:331,1,280,0|0
80,216,30255,5,8
80,216,30485,2,0,B|164:172|253:219|336:260|432:196,1,350,2|0
368,72,32101,1,8
368,72,32331,1,8
368,72,32562,1,0
256,156,33024,2,8,B|256:244,2,70,8|8|0
144,72,33947,1,4
24,140,34408,5,0
24,280,34870,1,8
144,208,35331,1,0
164,348,35793,6,0,B|232:380|308:348,1,140,8|0
428,348,36716,1,8
428,348,36947,1,2
428,348,37178,2,0,B|464:285|400:285|440:204,1,140,0|8
380,84,38101,6,0,B|379:189|279:189|256:100|256:100|231:189|135:189|135:81,1,420,2|8
64,200,39947,1,0
160,300,40408,2,0,B|160:372,2,70,8|8|0
260,200,41331,1,4
400,200,41793,5,0
292,292,42255,1,8
400,380,42716,1,0
508,292,43178,6,0,B|444:228|484:168|520:100|452:32,1,280,4|8
312,32,44562,2,0,B|176:92,1,140,0|4
176,228,45485,2,0,B|288:312,2,140,0|12|0
52,160,46870,1,12
148,56,47331,1,0
240,160,47793,1,8
240,160,48024,1,0
240,160,48255,6,0,B|184:283|380:363|380:363|576:283|512:160,1,560,4|2
372,152,50562,1,8
256,72,51024,2,0,B|186:72,2,70,0|0|8
256,192,51716,12,4,53793
256,84,55639,5,4
396,84,56101,2,0,B|464:124|464:124|464:196,1,140,8|2
324,184,57024,1,8
416,288,57485,2,0,B|360:332|360:332|280:332,1,140,2|8
196,228,58408,2,0,B|252:184|252:184|332:184,2,140,0|8|0
68,172,59793,5,8
164,68,60255,1,0
260,172,60716,1,8
168,276,61178,2,0,B|168:352,2,70,0|2|8
164,136,62101,1,0
164,136,62562,1,8
260,36,63024,6,0,B|354:9|474:113|448:187,1,280,4|0
332,260,64408,1,8
204,316,64870,2,0,B|110:343|-9:239|15:164,1,280,2|0
116,68,66255,1,8
116,68,66716,1,0
256,64,67178,6,0,B|256:148|344:164,2,140,10|0|8
256,64,68562,2,0,B|256:148|168:164,2,140,2|8|8
256,64,69947,1,8
256,204,70408,5,4
256,344,70870,1,8
376,272,71331,2,0,B|464:272|464:168,2,140,0|8|0
396,132,72716,2,0,B|308:132|308:236,2,140,8|0|8
276,60,74101,2,0,B|208:60|176:148|176:148|152:60|72:60,2,280,2|0|8
260,200,76408,5,0
352,304,76870,1,0
352,304,77101,1,0
352,304,77331,1,8
260,200,77793,5,4
164,304,78255,1,8
24,304,78716,2,0,B|-4:224|36:168|36:168|-4:104|28:28,1,280,0|0
160,76,80101,1,8
296,44,80562,2,0,B|324:124|284:180|284:180|324:244|292:320,1,280,0|0
436,304,81947,5,8
436,304,82178,1,2
436,304,82408,2,0,B|480:224|440:172|440:172|392:112|436:32,2,280,0|2|0
316,372,84716,2,0,B|236:372,2,70,8|8|0
256,244,85639,1,4
116,244,86101,6,0,B|116:200|116:200|80:172|80:172|80:112,1,140,2|8
212,80,87024,1,0
352,104,87485,2,0,B|352:152|352:152|384:176|384:176|384:240,1,140,8|2
256,284,88408,1,8
256,284,88870,1,0
256,284,89331,6,0,B|188:256|152:348|152:348|116:256|40:284,2,280,8|8|8
164,176,91639,2,0,B|164:96,2,70,2|2|8
236,180,92331,1,8
300,152,92562,2,0,B|408:56,1,140,0|4
452,192,93485,5,0
396,320,93947,1,8
256,320,94408,1,0
204,192,94870,1,8
256,64,95331,1,0
396,64,95793,1,8
396,64,96254,6,0,B|452:108|452:196,1,140,0|4
396,316,97178,2,0,B|328:296|252:340,1,140,0|4
136,328,98101,2,0,B|72:284|-24:304,1,140,0|4
0,176,99024,2,0,B|44:112|24:16,1,140,0|4
156,104,99947,6,0,B|156:244|156:244|256:344|256:344|356:244|356:244|356:104,1,560,2|0
256,204,102254,1,8
256,64,102716,1,0
256,64,102947,1,2
256,64,103178,1,8
256,192,103408,12,8,105485
256,280,105947,5,8
148,192,106408,1,0
256,100,106870,1,8
364,192,107331,1,4
256,280,107793,5,0
256,280,108024,2,0,B|148:320|148:248|44:280,1,210,2|8
36,140,109178,1,0
168,88,109639,6,0,B|276:48|276:120|380:84,1,210,0|2
373,86,110562,1,8
256,160,111024,1,0
396,160,111485,6,0,B|396:320,1,140,0|0
256,304,112408,2,0,B|184:304|120:256,1,140,8|0
132,120,113331,1,0
256,188,113793,1,2
380,120,114254,1,0
380,120,114716,1,0
256,56,115178,5,0
256,56,115408,2,0,B|132:56|68:152,1,210,2|8
128,272,116562,1,0
256,324,117024,5,0
256,324,117254,2,0,B|380:324|444:228,1,210,2|8
376,112,118408,1,0
256,44,118870,6,0,B|256:120,1,70,8|2
148,204,119562,2,0,B|104:268,1,70,2|8
224,340,120254,5,8
280,212,120716,1,8
420,212,121178,1,8
460,272,121408,1,8
480,340,121639,1,4
180,68,137331,6,0,B|332:68,1,140,8|0
256,192,138254,1,8
348,296,138716,1,0
256,192,139178,1,8
164,296,139639,2,0,B|88:296|88:296|36:244,1,140,0|8
256,192,140562,12,4,142408
256,264,142870,5,0
128,316,143331,2,0,B|196:368|260:348|260:348|340:368|392:316,1,280,0|4
256,264,144716,5,8
256,124,145178,2,0,B|336:124,2,70,0|2|8
256,196,145870,1,0
256,264,146101,2,0,B|256:348|164:364,2,140,0|8|0
124,300,147485,2,0,B|40:300|24:208,1,140,8|0
136,132,148408,6,0,B|136:12|244:12|256:84|256:84|268:12|380:12|380:132,2,420,8|0|8
160,196,151408,1,8
212,244,151639,1,0
352,248,152101,1,4
352,108,152562,5,0
256,208,153024,1,8
160,108,153485,1,0
256,208,153947,2,0,B|256:288,2,70,8|0|0
364,96,154870,2,0,B|364:176|428:212|428:212|364:260|364:332,2,280,8|8|8
256,188,157178,5,0
156,88,157639,1,8
60,188,158101,1,0
100,244,158331,1,2
156,284,158562,1,8
212,244,158793,1,8
256,188,159024,1,0
256,188,159485,1,4
348,92,159947,6,0,B|456:92|456:288|348:288,1,280,0|0
256,188,161331,1,8
157,288,161793,2,0,B|52:288|52:92|154:92,1,280,0|0
256,188,163178,6,0,B|232:240|264:260|292:276|264:336,2,140,8|0|8
256,48,164562,1,0
368,132,165024,1,8
368,272,165485,1,0
256,356,165947,1,8
116,356,166408,6,0,B|-4:356|-4:248|68:236|68:236|-4:224|-4:112|116:112,2,420,4|8|0
172,312,169408,1,2
240,304,169639,1,8
308,312,169870,1,2
360,356,170101,6,0,B|480:356|480:248|408:236|408:236|480:224|480:112|360:112,1,420,4|8
256,192,171947,12,4,173793
