osu file format v9

[General]
AudioFilename: drake_bell-i_found_a_way.mp3
AudioLeadIn: 0
PreviewTime: 26919
Countdown: 0
SampleSet: Soft
StackLeniency: 0.7
Mode: 0
LetterboxInBreaks: 0

[Editor]
DistanceSpacing: 1
BeatDivisor: 4
GridSize: 4

[Metadata]
Title:I Found a Way
Artist:Drake Bell
Creator:mancusojuanmattos
Version:Hard
Source:Drake & Josh
Tags:Miranda Cosgrove Josh Peck Nickelodeon Nick Katsuri Kenezz KenezzEdward

[Difficulty]
HPDrainRate:6
CircleSize:4
OverallDifficulty:6
ApproachRate:8
SliderMultiplier:1.8
SliderTickRate:2

[Events]
//Background and Video events
0,0,"Drake Bell BG.jpg"
//Break Periods
2,122101,135941
//Storyboard Layer 0 (Background)
//Storyboard Layer 1 (Fail)
//Storyboard Layer 2 (Pass)
//Storyboard Layer 3 (Foreground)
//Storyboard Sound Samples
//Background Colour Transformations
3,100,163,162,255

[TimingPoints]
255,461.538461538462,4,2,1,70,1,0
26101,-100,4,2,1,70,0,1
53793,-100,4,2,1,70,0,0
77793,-100,4,2,1,70,0,1
107331,-100,4,2,1,70,0,0
144255,-100,4,2,1,70,0,1
171947,-100,4,2,1,40,0,0

[Colours]
Combo1 : 175,95,95
Combo2 : 255,64,64
Combo3 : 111,111,111
Combo4 : 209,209,209

[HitObjects]
120,88,3947,1,4
168,164,4178,1,2
252,192,4408,1,8
336,164,4639,1,2
380,88,4870,1,0
256,32,5331,5,8
256,32,5562,2,0,B|256:148,1,90,2|0
256,304,6255,1,8
76,292,6716,1,0
16,224,6947,1,2
4,136,7178,1,8
4,136,7639,1,0
96,132,7870,6,0,B|184:132,1,90,2|8
188,224,8331,2,0,B|84:224,2,90,2|0|2
256,164,9024,1,8
256,256,9255,5,2
324,196,9485,1,0
392,256,9716,1,2
328,316,9947,2,0,B|272:388|156:356,2,180,8|0|8
392,256,11101,5,2
392,256,11216,1,0
392,256,11331,2,0,B|448:176|364:176|408:84,1,180,4|8
316,84,12024,1,2
256,152,12254,1,0
196,84,12485,1,2
108,76,12716,2,0,B|52:156|136:156|92:248,2,180,8|0|8
256,324,14101,5,0
256,236,14331,1,2
332,280,14562,1,8
332,280,15024,1,0
412,324,15254,5,2
412,236,15485,1,8
332,280,15716,1,2
256,236,15947,2,0,B|204:208|204:208|152:268|92:236,1,180,0|8
132,160,16639,5,2
132,160,16870,1,0
132,160,17101,1,2
92,80,17331,2,0,B|148:44|200:100|200:100|256:76,1,180,8|8
288,160,18024,1,2
348,92,18255,5,8
364,108,18370,1,8
376,128,18485,1,8
388,148,18601,1,8
400,168,18716,2,0,B|456:248|456:340,1,180,4|8
368,348,19408,6,0,B|264:348,1,90,2|0
192,320,19870,2,0,B|124:252,1,90,2|8
164,172,20331,1,2
252,192,20562,1,0
340,172,20793,1,2
368,260,21024,1,8
452,292,21255,2,0,B|416:224|524:100|476:24,1,270,2|8
388,32,22178,5,0
304,32,22408,2,0,B|212:-16|184:120|184:120|164:-16|68:32,1,360,2|8
60,120,23562,1,8
116,192,23793,1,8
180,256,24024,1,0
256,304,24255,5,4
400,192,24716,1,0
400,192,24947,1,2
400,192,25178,1,0
256,84,25639,2,0,B|256:180,2,90,8|8|4
112,192,26562,5,8
256,300,27024,1,0
176,260,27255,1,2
112,192,27485,1,8
68,112,27716,2,0,B|112:36|228:36,1,180,2|0
256,120,28408,1,8
292,36,28639,6,0,B|400:36|448:108,1,180,2|0
404,192,29331,1,8
460,260,29562,2,0,B|416:335|306:335,1,180,2|0
256,260,30255,1,8
208,336,30485,2,0,B|98:336|54:260,2,180,2|0|2
208,336,31639,5,0
256,260,31870,1,8
256,168,32101,1,8
208,92,32331,1,0
168,168,32562,1,0
164,260,32793,1,0
164,260,33024,2,0,B|116:260|68:216,2,90,8|8|0
208,92,33947,1,4
352,68,34408,5,0
296,140,34639,1,2
352,208,34870,1,8
412,140,35101,2,0,B|472:140|472:212,1,90,2|0
424,272,35562,1,2
352,208,35793,1,8
288,272,36024,6,0,B|208:236|152:276|100:320|12:272,1,270,4|8
12,188,36947,1,2
60,112,37178,1,0
108,188,37408,1,2
156,112,37639,1,8
204,188,37870,1,0
204,188,38101,2,0,B|288:188|288:188|344:264|344:264|400:188|400:188|488:188,2,360,8|0|2
236,288,40178,6,0,B|280:372,1,90,2|8
384,368,40639,2,0,B|425:288,1,90,8|0
332,228,41101,1,0
332,140,41331,1,4
480,36,41793,6,0,B|396:64|396:24|296:36,1,180,0|8
224,84,42485,1,2
156,144,42716,1,0
88,84,42947,1,2
156,144,43178,1,8
164,232,43408,6,0,B|256:204|344:232,1,180,2|0
404,296,44101,1,8
344,360,44331,2,0,B|258:387|166:359,1,180,2|0
104,296,45024,1,8
80,208,45255,1,0
252,112,45716,6,0,B|252:8,2,90,0|8|0
252,112,46408,2,0,B|200:192,2,90,0|0|8
252,112,47101,2,0,B|304:192,2,90
252,112,47793,1,8
160,112,48024,5,2
92,48,48255,2,0,B|92:160|8:192|8:192|92:228|92:344,2,360,4|0|0
176,100,50331,1,0
164,188,50562,1,8
208,264,50793,5,2
300,264,51024,1,0
348,188,51255,1,2
340,100,51485,1,8
416,48,51716,2,0,B|416:160|500:192|500:192|416:228|416:344,2,360,4|0|0
324,52,53793,6,0,B|274:126,1,90,0|2
184,128,54255,2,0,B|134:53,1,90,0|2
52,56,54716,2,0,B|2:130,1,90,0|2
80,176,55178,1,8
80,192,55408,1,0
80,208,55639,5,4
140,276,55870,1,0
220,320,56101,2,0,B|316:320|316:320|384:268,1,180,8|0
420,188,56793,1,2
328,188,57024,1,8
376,112,57255,1,2
288,96,57485,6,0,B|288:32|368:-8|428:28,1,180,0|8
376,112,58178,1,2
464,116,58408,2,0,B|464:180|384:220|324:184,1,180,0|8
256,256,59101,1,2
256,344,59331,1,0
172,308,59562,5,2
100,256,59793,1,8
172,200,60024,1,2
100,256,60255,2,0,B|4:224|-16:116,1,180,0|8
48,60,60947,1,2
116,120,61178,1,0
184,60,61408,1,2
116,120,61639,2,0,B|168:156|232:156|284:120,2,180,8|0|8
380,60,63024,6,0,B|432:60|464:100,1,90,4|2
452,184,63485,1,8
376,236,63716,2,0,B|324:236|292:196,2,90,2|0|0
452,184,64408,5,8
452,364,64870,1,0
296,272,65331,1,8
116,264,65793,2,0,B|100:304|132:304|116:356,2,90,0|2|8
296,272,66716,1,0
248,196,66947,5,2
296,120,67178,1,8
208,120,67408,1,2
248,40,67639,2,0,B|344:40|344:40|408:104,1,180,0|8
396,188,68331,1,2
400,276,68562,1,8
320,236,68793,1,2
328,324,69024,2,0,B|240:324|240:324|176:256,1,180,8|8
160,240,69601,5,8
148,220,69716,1,0
164,132,69947,1,8
176,112,70062,1,8
196,104,70178,1,8
216,100,70293,1,8
240,100,70408,1,4
256,192,70870,5,8
348,192,71101,1,2
304,268,71331,1,0
352,344,71562,1,2
260,344,71793,1,8
28,324,72255,6,0,B|76:264|48:212|12:144|56:60,1,270,4|2
144,64,73178,1,0
144,152,73408,1,2
224,108,73639,1,8
224,200,73870,1,2
144,240,74101,6,0,B|144:332|244:380|244:380|344:332|344:240,1,360,4|0
264,200,75255,1,2
264,200,75485,1,8
384,68,75947,5,4
204,48,76408,1,0
132,100,76639,1,0
76,172,76870,1,0
256,192,77331,1,0
256,192,77562,1,8
256,192,77678,1,8
256,192,77793,6,0,B|320:192|320:192|368:240|428:192,1,180,4|8
380,20,78716,1,0
320,88,78947,1,2
256,152,79178,1,8
192,88,79408,1,2
124,28,79639,6,0,B|56:28|8:100|44:156,1,180,0|8
128,128,80331,2,0,B|156:220,1,90,2|0
180,300,80793,1,2
244,364,81024,1,8
308,300,81254,2,0,B|232:244,1,90,2|0
268,116,81947,5,8
332,180,82178,2,2,B|376:136|352:48|288:32,1,180,2|2
208,60,82870,2,0,B|164:104|188:192|252:208,1,180,8|0
316,268,83562,1,2
256,336,83793,1,8
336,380,84024,1,2
400,316,84254,1,8
256,68,84716,5,8
256,160,84947,1,8
204,232,85178,2,0,B|196:288|256:320|316:288|308:232,1,180,0|4
256,160,85870,1,0
184,108,86101,5,0
112,164,86331,1,0
112,256,86562,1,8
192,320,86793,2,0,B|112:356|112:356|28:320,1,180,2|0
0,232,87485,1,8
28,148,87716,2,0,B|108:112|108:112|196:148,1,180,2|0
224,232,88408,1,8
248,320,88639,6,0,B|332:360|432:320,1,180,2|0
424,232,89331,1,8
416,144,89562,2,0,B|332:104|232:144,1,180,2|0
256,52,90254,1,8
168,52,90485,1,0
112,124,90716,5,2
208,276,91178,1,8
300,276,91408,1,0
356,204,91639,1,0
416,36,92101,1,8
340,84,92331,1,8
264,132,92562,2,0,B|100:216,1,180,0|4
268,300,93485,5,0
224,376,93716,1,2
176,300,93947,1,8
84,300,94178,2,0,B|-8:300|-8:300|-24:208,1,180,2|0
68,204,94870,1,8
68,112,95101,1,2
144,64,95331,1,0
144,156,95562,1,2
220,204,95793,5,8
220,112,96024,2,0,B|284:48|396:48,1,180
392,140,96716,1,4
476,172,96947,2,0,B|412:236|412:348,1,180,2|0
336,380,97639,1,8
264,328,97870,2,0,B|264:228|200:164,1,180,2|0
288,140,98562,1,12
276,52,98793,2,0,B|212:88|160:28|84:52,1,180,2|0
104,140,99485,1,8
100,232,99716,5,0
100,232,99947,2,0,B|100:320|100:320|188:348|188:348|276:320|276:320|276:232,2,360,2|0|8
188,76,102254,1,8
276,76,102485,5,2
364,100,102716,1,0
364,192,102947,1,2
364,284,103178,1,8
288,288,103408,2,0,B|280:412|448:412|440:288,2,270,2|8|2
364,276,105024,1,8
256,132,105485,5,4
424,192,105947,1,8
256,256,106408,1,8
88,196,106870,2,0,B|172:156|172:44,1,180,0|4
256,208,107793,5,8
204,284,108024,2,0,B|196:340|256:372|316:340|308:284,1,180,2|0
256,208,108716,1,8
256,208,109178,1,0
420,40,109639,5,8
328,40,109870,2,0,B|248:92|192:56|144:24|64:68,1,270,2|8
120,240,111024,1,0
260,356,111485,5,8
168,356,111716,2,0,B|64:356|64:356|-4:296,1,180,2|2
72,240,112408,1,8
128,168,112639,1,2
184,240,112870,2,0,B|284:240|364:192,1,180,2|0
364,104,113562,1,2
304,24,113793,2,0,B|208:24|124:72,2,180,2|0|0
464,104,115178,5,8
432,188,115408,2,0,B|381:204|412:309|412:309|301:278|287:326,1,270,2|0
200,164,116562,1,0
72,292,117024,1,8
60,204,117254,2,0,B|110:187|79:82|79:82|190:113|204:65,1,270,2|0
288,228,118408,1,0
468,228,118870,5,8
468,228,119101,1,2
348,96,119562,2,0,B|270:50,1,90,2|0
180,52,120024,2,0,B|102:98,1,90,2|8
256,192,120716,5,8
256,284,120947,1,2
176,324,121178,1,8
256,360,121408,1,2
300,348,121524,1,0
340,324,121639,1,4
256,196,137331,5,8
256,104,137562,2,0,B|372:80|424:168|424:168|424:252,1,270,2|8
348,196,138485,1,0
340,284,138716,2,0,B|256:340|164:284,1,180,0|8
124,212,139408,1,2
68,140,139639,1,0
156,116,139870,2,0,B|324:32,1,180
408,36,140562,6,0,B|376:144|452:184|452:184|376:240|408:360,1,360,4|0
312,332,141716,1,0
312,332,141947,1,8
312,332,142178,1,0
256,260,142408,6,0,B|164:244|120:144,1,180,4|0
184,84,143101,1,2
236,160,143331,2,0,B|272:196|316:196,1,90,8|0
340,276,143793,1,8
432,276,144024,1,8
432,276,144139,1,8
432,276,144254,2,0,B|476:196|408:196|432:100,1,180,4|8
436,16,144947,5,0
344,16,145178,1,0
264,56,145408,1,2
264,148,145639,1,8
344,192,145870,1,2
400,264,146101,1,0
344,332,146331,1,2
284,264,146562,1,8
232,332,146793,2,0,B|184:292|184:224|232:168,1,180,2|0
256,84,147485,5,8
232,84,147601,1,0
208,84,147716,2,0,B|112:84|48:172,1,180,2|0
80,252,148408,1,8
104,252,148524,1,0
128,252,148639,2,0,B|224:252|288:164,1,180,2|0
268,84,149331,1,8
412,192,149793,5,0
348,252,150024,1,2
416,312,150254,1,8
484,252,150485,1,0
476,164,150716,2,0,B|412:100|412:100|344:164,1,180,0|8
264,192,151408,1,8
252,212,151524,1,8
240,232,151639,2,0,B|192:312|192:312|100:312,1,180,0|4
36,52,152562,5,0
76,132,152793,1,2
168,132,153024,1,8
208,52,153254,1,2
124,24,153485,1,0
124,116,153716,1,0
124,208,153947,1,8
36,228,154178,6,0,B|36:288|88:312|144:312|176:276,1,180,2|0
212,204,154870,1,8
304,204,155101,1,2
264,284,155331,2,0,B|289:313|345:313|397:289|397:229,1,180,0|8
484,204,156024,1,2
428,136,156254,1,0
356,84,156485,1,2
264,84,156716,1,8
256,264,157178,5,0
324,204,157408,1,0
392,264,157639,1,8
324,324,157870,1,0
324,324,158101,2,0,B|256:264,1,90,0|2
168,276,158562,1,8
104,212,158793,1,8
188,176,159024,2,0,B|188:132|244:76|300:132|300:176,1,180,0|4
412,36,159947,5,0
336,84,160178,1,2
408,136,160408,1,8
340,196,160639,2,0,B|240:196|240:196|184:264,1,180
256,308,161331,1,8
256,308,161562,5,2
184,364,161793,1,0
116,308,162024,1,2
108,220,162254,1,8
184,172,162485,1,2
256,120,162716,6,0,B|337:101|337:149|433:121,1,180,0|8
508,168,163408,1,2
444,232,163639,2,0,B|362:250|362:202|266:230,2,180,0|8|0
404,312,164793,1,2
320,340,165024,1,8
228,368,165255,2,0,B|124:368,1,90,2|0
80,296,165716,5,2
80,204,165947,1,8
168,208,166178,2,0,B|144:116|256:12|256:12|372:120|340:208,1,450,2|8
256,240,167562,1,0
256,332,167793,1,8
76,312,168255,2,0,B|16:232|16:232|16:144,1,180,0|8
112,116,168947,5,2
168,188,169178,1,0
256,180,169408,1,2
344,188,169639,1,8
396,116,169870,1,2
436,196,170101,6,0,B|436:288,1,90,4|0
360,332,170562,2,0,B|260:332,1,90,8|2
180,332,171024,1,0
180,240,171255,1,0
100,280,171485,1,8
100,280,171716,1,0
100,188,171947,5,8
136,104,172178,2,0,B|200:36,1,90,2|0
288,36,172639,2,0,B|347:103,1,90,2|0
340,192,173101,2,0,B|280:259,1,90,2|0
260,348,173562,1,2
200,284,173793,1,4
