osu file format v9

[General]
AudioFilename: drake_bell-i_found_a_way.mp3
AudioLeadIn: 0
PreviewTime: 26919
Countdown: 0
SampleSet: Soft
StackLeniency: 0.7
Mode: 0
LetterboxInBreaks: 0

[Editor]
DistanceSpacing: 1
BeatDivisor: 4
GridSize: 4

[Metadata]
Title:I Found a Way
Artist:Drake Bell
Creator:mancusojuanmattos
Version:Easy
Source:Drake & Josh
Tags:Miranda Cosgrove Josh Peck Nickelodeon Nick Katsuri Kenezz KenezzEdward

[Difficulty]
HPDrainRate:2
CircleSize:3
OverallDifficulty:2
ApproachRate:3
SliderMultiplier:1
SliderTickRate:2

[Events]
//Background and Video events
0,0,"Drake Bell BG.jpg"
//Break Periods
2,122101,135941
//Storyboard Layer 0 (Background)
//Storyboard Layer 1 (Fail)
//Storyboard Layer 2 (Pass)
//Storyboard Layer 3 (Foreground)
//Storyboard Sound Samples
//Background Colour Transformations
3,100,163,162,255

[TimingPoints]
255,461.538461538462,4,2,1,70,1,0
26101,-100,4,2,1,70,0,1
45947,-100,4,1,0,100,0,1
46005,-100,4,2,1,70,0,1
47793,-100,4,1,0,100,0,1
47851,-100,4,2,1,70,0,1
53793,-100,4,2,1,70,0,0
77793,-100,4,2,1,70,0,1
107331,-100,4,2,1,70,0,0
144255,-100,4,2,1,70,0,1
171947,-100,4,2,1,40,0,0

[Colours]
Combo1 : 175,95,95
Combo2 : 255,64,64
Combo3 : 111,111,111
Combo4 : 209,209,209

[HitObjects]
92,136,3947,2,0,B|92:48|188:-8|256:116|256:116|320:-8|420:48|420:136,1,500,4|8
416,236,6716,2,0,B|320:304,1,100,2|8
256,232,7639,1,0
188,300,8101,6,0,B|76:300|76:300|28:220,1,200,8|8
100,152,9485,2,0,B|212:152|212:152|256:232,1,200,0|0
256,328,10870,1,8
356,324,11331,6,0,B|476:324|520:224,2,200,2|0|0
264,284,13639,1,8
260,184,14101,2,0,B|302:86|422:86,1,200,2|0
504,140,15485,6,0,B|480:184|416:184,1,100,8|0
336,252,16408,1,8
260,184,16870,2,0,B|233:132|177:132,1,100,8|8
84,108,17793,2,0,B|36:204|120:204|84:316,1,200,8|4
288,324,19639,6,0,B|348:296|424:356|492:324,1,200,0|0
500,228,21024,1,8
468,132,21485,2,0,B|356:132,1,100,0|8
276,88,22408,2,0,B|200:44|88:80|88:160|88:160|88:232,1,300,4|0
188,208,24255,6,0,B|214:304,1,100,8|0
316,304,25178,2,0,B|360:212,1,100,2|8
328,120,26101,5,4
228,120,26562,1,8
140,72,27024,2,0,B|52:143|46:259,1,200,2|0
116,316,28408,1,8
216,316,28870,2,0,B|280:280|312:312|344:340|424:304,1,200
396,212,30255,5,8
300,179,30716,2,0,B|300:92|244:44|180:60|180:60|120:44|56:88|56:184,1,400
180,196,33024,2,0,B|180:296,1,100,8|0
256,360,33947,1,4
356,344,34408,6,0,B|312:280|364:200|404:140|348:44,1,300,2|8
256,32,36255,1,0
160,56,36716,2,0,B|204:120|152:200|112:260|168:356,2,300,8|0|8
256,28,39947,5,0
256,228,40870,1,0
356,216,41331,1,4
456,208,41793,6,0,B|456:320|332:352,1,200
256,296,43178,1,8
172,350,43639,2,0,B|56:320|56:208,1,200
132,148,45024,6,0,B|132:44|256:12|256:12|380:44|380:148,2,400,8|4|8
215,204,49178,2,0,B|193:256|233:256|208:300,1,100,0|8
308,300,50101,2,0,B|332:248|292:248|320:196,2,100,0|8|0
208,300,51485,1,8
256,192,51947,12,4,53793
200,120,55639,6,0,B|200:56|256:20|316:56|316:120,1,200,4|2
256,200,57024,1,8
312,280,57485,2,0,B|312:344|256:380|196:344|196:280,2,200,2|0|0
360,192,59793,6,0,B|464:192|464:192|508:108,1,200,8|8
432,44,61178,2,0,B|344:8|293:46|293:46|216:100|144:40,1,300,2|8
124,140,63024,5,4
256,292,63947,1,0
388,140,64870,1,0
256,292,65793,2,0,B|256:168,2,100,2|8|0
156,284,67178,6,0,B|204:364|204:364|328:364,1,200,2|8
400,340,68562,2,0,B|400:252|464:204|464:204|400:152|400:72,1,300,2|8
300,80,70408,5,4
200,80,70870,1,8
100,80,71331,2,0,B|100:168|36:216|36:216|100:268|100:348,1,300,0|8
200,340,73178,2,0,B|320:340,1,100,0|8
400,336,74101,6,0,B|400:248|464:200|464:200|400:148|400:68,1,300,2|0
300,64,75947,2,0,B|240:104|208:68|176:32|104:68,1,200,8|0
112,164,77331,2,0,B|76:264,1,100,8|4
180,256,78255,5,8
240,336,78716,2,0,B|336:368|336:368|444:332,1,200
460,240,80101,1,8
436,144,80562,2,0,B|340:112|340:112|232:148,1,200
204,232,81947,1,8
156,320,82408,6,0,B|40:320|40:188|40:188|40:56|156:56,1,400,0|0
208,140,84716,2,0,B|312:140,1,100,8|0
312,240,85639,1,4
312,340,86101,6,0,B|232:340|232:340|184:384|116:336,1,200
180,256,87485,1,8
124,172,87947,2,0,B|184:132|244:176|244:176|328:176,1,200
376,256,89331,1,8
440,336,89793,6,0,B|500:268|460:200|460:200|412:128|468:48,2,300,0|8|2
340,356,93024,1,4
240,356,93485,6,0,B|128:356|64:252,1,200,2|0
56,164,94870,1,8
152,144,95331,2,0,B|264:144|328:248,1,200,2|0
356,328,96716,1,8
456,320,97178,6,0,B|456:256|528:192|528:192|444:136|444:72,1,300,0|8
344,68,99024,2,0,B|244:68,1,100,0|8
144,76,99947,2,0,B|64:76|64:180|156:204|156:204|64:228|64:336|144:336,1,400,4|0
224,280,102254,1,8
308,336,102716,6,0,B|388:336|388:232|296:208|296:208|388:184|388:76|308:76,2,400,0|0|8
224,152,107331,1,4
224,352,108254,6,0,B|316:308|432:308,1,200,2|0
444,216,109639,2,0,B|420:108|516:36,1,200,0|2
412,20,111024,1,0
312,24,111485,2,0,B|336:132|240:204,1,200,2|0
256,300,112870,5,2
332,232,113331,1,0
364,328,113793,1,2
436,260,114254,1,0
448,60,115178,6,0,B|340:8|256:56|256:56|156:8|48:60,1,400
36,152,117485,1,2
64,248,117947,2,0,B|172:300|256:252|256:252|356:300|464:248,1,400
424,160,120254,5,8
376,72,120716,1,8
324,160,121178,1,8
376,244,121639,1,4
136,272,137793,6,0,B|136:356|212:384|256:284|256:284|300:384|380:356|380:272,1,400,2|0
256,192,140331,12,4,142408
256,56,143331,6,0,B|208:140|300:140|244:248,1,200,8|4
144,240,144716,5,8
184,332,145178,2,0,B|280:376|388:332,1,200
424,248,146562,1,8
384,156,147024,2,0,B|288:112|176:156,2,200,0|0|0
256,308,149793,5,4
96,188,150716,1,2
256,68,151639,2,0,B|336:136,1,100,0|4
332,232,152562,6,0,B|256:316,1,100,2|8
164,304,153485,2,0,B|92:224,1,100,2|8
128,132,154408,2,0,B|200:48,1,100,2|8
288,84,155331,6,0,B|356:109|362:204|362:204|454:226|470:301,2,300,2|8|0
256,180,158562,2,0,B|224:228|288:228|256:276,2,100,8|0|4
256,80,159947,5,0
92,192,160870,1,0
256,308,161793,1,0
420,192,162716,1,0
256,76,163639,6,0,B|256:184,1,100,2|4
192,252,164562,2,0,B|129:330,1,100,2|4
224,368,165485,2,0,B|332:368,1,100,2|4
416,332,166408,2,0,B|353:253,1,100,2|8
260,216,167331,6,0,B|228:160|256:117|284:72|244:16,1,200
148,36,168716,1,8
48,44,169178,2,0,B|80:100|52:143|24:188|64:244,2,200,0|4|0
148,36,171485,1,8
256,192,171947,12,4,173793
