osu file format v9

[General]
AudioFilename: drake_bell-i_found_a_way.mp3
AudioLeadIn: 0
PreviewTime: 26919
Countdown: 0
SampleSet: Soft
StackLeniency: 0.7
Mode: 0
LetterboxInBreaks: 0

[Editor]
DistanceSpacing: 1
BeatDivisor: 4
GridSize: 4

[Metadata]
Title:I Found a Way
Artist:Drake Bell
Creator:mancusojuanmattos
Version:Collab
Source:Drake & Josh
Tags:Miranda Cosgrove Josh Peck Nickelodeon Nick Katsuri Kenezz KenezzEdward

[Difficulty]
HPDrainRate:6
CircleSize:4
OverallDifficulty:6
ApproachRate:7
SliderMultiplier:1.6
SliderTickRate:2

[Events]
//Background and Video events
0,0,"Drake Bell BG.jpg"
//Break Periods
2,122101,135947
//Storyboard Layer 0 (Background)
//Storyboard Layer 1 (Fail)
//Storyboard Layer 2 (Pass)
//Storyboard Layer 3 (Foreground)
Sprite,Foreground,Centre,"katsuri.png",320,240 M,0,255,,481,66 S,0,255,,0.47776 F,0,255,3485,0 F,0,3485,3947,0,1 F,0,3947,53101,1 F,0,53101,53562,1,0 F,0,53562,106408,0 F,0,106408,106870,0 F,0,106870,107331,0,1 F,0,107331,121639,1 F,0,121639,122101,1,0 F,0,122101,136408,0,0.00207997 F,0,136408,136870,0.00207997,1 F,0,136870,141947,1 F,0,141947,142408,1,0 F,0,142408,159024,0 F,0,159024,159485,0,1 F,0,159485,173562,1,0.9718004 F,0,173562,173793,0.9718004,0
Sprite,Foreground,Centre,"Kenezz.png",320,240 M,0,55178,,480,65 S,0,55178,,0.4777602 F,0,55178,55639,0,1 F,0,55639,106408,1 F,0,106408,106870,1,0 F,0,106870,143793,0 F,0,143793,144255,0,1 F,0,144255,158562,1,0.9978355 F,0,158562,159024,0.9978355,0
//Storyboard Sound Samples
//Background Colour Transformations
3,100,163,162,255

[TimingPoints]
255,461.538461538462,4,2,1,70,1,0
26101,-100,4,2,1,70,0,1
53793,-100,4,2,1,70,0,0
77793,-100,4,2,1,70,0,1
107331,-100,4,2,1,70,0,0
144255,-100,4,2,1,70,0,1
171947,-100,4,2,1,70,0,0

[Colours]
Combo1 : 175,95,95
Combo2 : 255,64,64
Combo3 : 111,111,111
Combo4 : 209,209,209

[HitObjects]
208,64,3947,2,0,B|232:100|216:152|156:160|124:120,1,160,0|8
72,60,4639,1,2
32,128,4870,2,0,B|8:204|28:288,1,160,0|8
100,316,5562,1,2
180,332,5793,2,0,B|216:304|256:316|256:316|296:304|332:332,1,160,0|8
412,316,6485,1,8
484,285,6716,2,0,B|504:204|480:128,1,160,0|8
304,64,7639,6,0,B|280:100|296:152|356:160|388:120,1,160,0|8
380,40,8331,1,2
220,112,8562,2,0,B|223:151|247:191|296:220|328:212,1,160,0|8
256,296,9255,1,2
292,112,9485,2,0,B|288:151|264:191|216:220|184:212,1,160,0|8
116,176,10178,1,8
132,100,10408,1,0
380,100,10870,1,8
416,256,11331,6,0,B|384:220|332:228|304:268|319:313,1,160,0|8
256,360,12024,1,2
192,312,12255,2,0,B|207:268|179:228|127:220|96:256,1,160,0|8
56,184,12947,1,2
59,104,13178,2,0,B|124:104|124:104|188:104|187:49,1,160,0|8
256,8,13870,1,8
324,50,14101,2,0,B|324:104|388:104|388:104|452:104,1,160,0|8
464,264,15024,6,0,B|396:308,1,80,0|2
328,264,15485,1,8
184,264,15947,1,0
115,307,16178,2,0,B|48:264,1,80,2|8
64,104,16870,2,8,B|216:148,1,160
448,104,17793,2,8,B|296:148,1,160
200,280,18716,6,0,B|204:324|256:348|308:324|312:280,1,160,4|8
356,169,19408,2,2,B|391:143|383:86|334:56|296:76,2,160
312,280,20562,2,0,B|308:324|256:348|204:324|200:280,1,160,0|8
157,170,21255,2,2,B|122:143|130:86|179:56|216:76,2,160
256,192,22408,12,8,24255
424,72,25639,5,8
408,108,25755,1,8
392,144,25870,1,8
376,180,25985,1,8
356,216,26101,6,0,B|322:234|314:286|346:326|400:313,1,160,4|8
476,284,26793,1,2
460,204,27024,2,0,B|496:132,2,80,0|2|8
298,322,27716,2,0,B|208:364|152:276|176:208|211:189,1,240,0|8
300,189,28639,2,0,B|336:208|360:276|304:364|213:322,1,240,0|8
123,278,29562,2,0,B|88:176|148:104|218:93,1,240,0|8
293,93,30485,2,0,B|364:104|424:176|388:278,1,240,2|8
256,192,31639,12,2,33024
256,44,33485,6,0,B|256:204,1,160,0|12
104,252,34408,1,0
76,328,34639,1,2
148,364,34870,1,8
216,320,35101,2,0,B|253:331|293:303|293:255|293:255|293:133,1,240,0|8
218,133,36024,2,0,B|218:255|218:255|218:303|258:331|296:320,1,240,0|8
348,260,36947,2,0,B|360:100|360:100|296:48,1,240,0|8
213,49,37870,2,0,B|152:100|152:100|164:260,1,240,0|8
256,192,39024,12,2,40408
176,80,40870,6,0,B|216:68|256:80|256:80|296:68|336:80,1,160,0|12
344,240,41793,2,0,B|396:180,2,80,0|2|8
360,320,42485,2,0,B|272:356|216:288,1,160,2|2
256,220,43178,1,8
152,320,43408,2,0,B|240:356|296:288,1,160,2|2
256,220,44101,1,8
216,152,44331,6,0,B|208:112|152:72|84:112,1,160,2|2
132,176,45024,1,8
296,152,45255,2,0,B|304:112|360:72|428:112,1,160,2|2
380,176,45947,1,8
444,224,46178,2,0,B|415:252|368:245|368:245|320:238|292:267,1,160,0|2
256,336,46870,1,8
67,223,47101,2,0,B|97:252|144:245|144:245|192:238|216:263,1,160,0|2
256,336,47793,1,8
216,204,48255,6,0,B|176:224|120:220|92:160|116:120|168:92|168:92|232:64|232:64|256:88|256:88|280:64|280:64|344:92|344:92|396:120|420:160|392:220|336:224|296:204,1,640,4|4
112,356,50793,1,2
184,320,51024,1,0
256,288,51255,1,2
328,320,51485,1,8
400,356,51716,1,4
256,192,51831,12,2,53562
16,176,55639,6,0,B|48:336,1,160,4|8
120,368,56331,1,8
192,320,56562,2,0,B|212:360|256:376|300:360|320:320,1,160,2|8
256,272,57255,1,0
256,192,57485,1,2
256,112,57716,1,0
192,64,57947,2,0,B|212:24|256:8|300:24|320:64,1,160,8|0
392,16,58639,1,0
464,51,58870,2,0,B|496:208,1,160,8|0
444,360,59793,5,8
364,348,60024,1,0
344,268,60255,2,0,B|384:192|356:112,1,160,2|8
332,36,60947,1,0
256,16,61178,1,2
180,36,61408,1,0
155,113,61639,2,0,B|128:192|168:268,1,160,8|0
148,348,62331,1,0
68,360,62562,1,8
12,116,63024,6,0,B|44:36|128:16,1,160,2|8
208,32,63716,1,8
156,96,63947,2,0,B|124:176|40:196,1,160,2|8
52,276,64639,2,0,B|100:340,1,80,8|2
256,192,65331,1,8
412,44,65793,2,0,B|460:108,1,80,2|0
472,187,66254,2,0,B|388:208|356:288,1,160,8|0
324,364,66947,5,0
256,324,67178,1,8
188,364,67408,1,0
156,288,67639,2,0,B|124:208|39:187,1,160,2|8
24,108,68331,1,0
64,36,68562,2,0,B|96:8|140:12,1,80,2|0
180,80,69024,2,0,B|256:124|332:80,1,160,8|8
374,11,69716,2,0,B|416:8|448:36,1,80,0|8
488,108,70177,1,0
456,180,70408,6,0,B|416:228|416:228|388:320,1,160,4|8
308,340,71101,2,0,B|292:260|332:184,2,160,2|2|0
180,199,72254,2,0,B|220:124|204:44,1,160,2|8
124,62,72947,2,0,B|96:156|96:156|56:204,2,160,2|2|0
256,192,74101,12,8,75947
24,56,76870,5,0
108,236,77331,1,8
104,276,77447,1,8
116,316,77562,1,8
144,344,77678,1,8
180,356,77793,6,0,B|256:400|332:356,1,160,4|8
456,252,78716,1,2
488,176,78947,1,0
476,96,79178,1,8
396,80,79408,2,0,B|358:127|280:140|219:90|210:30,1,240,2|8
301,31,80331,2,0,B|292:90|231:140|153:127|116:80,1,240,2|8
36,80,81255,2,0,B|44:152|140:212|220:196,1,240,2|8
476,304,82178,2,0,B|468:232|372:172|292:188,1,240,2|8
256,260,83101,1,0
200,316,83331,6,0,B|172:348|132:356,1,80,2|0
56,332,83793,1,8
48,252,84024,2,0,B|76:220|116:212,1,80,0|0
148,140,84485,1,0
96,80,84716,2,0,B|40:24,2,80,8|8|0
96,80,85639,5,4
252,28,86101,1,2
332,28,86331,1,0
400,68,86562,1,8
436,140,86793,2,0,B|472:264|392:368,1,240,2|8
204,344,87716,2,0,B|184:296|208:256|256:228|304:256|328:296|308:344,1,240,2|8
118,366,88639,2,0,B|40:264|76:140,1,240,2|8
156,128,89562,2,0,B|184:180|256:204|328:180|356:128,1,240,2|8
428,88,90485,1,0
424,168,90716,6,0,B|384:244|296:256,1,160,2|8
88,168,91639,2,0,B|128:244|216:256,1,160,2|8
256,188,92331,1,8
256,108,92562,5,0
256,108,93024,1,4
52,152,93485,2,0,B|4:88,2,80,0|0|8
28,228,94178,2,0,B|4:308|52:380,1,160,2|0
128,352,94870,1,8
196,308,95101,2,0,B|216:224|184:152,1,160,2|0
256,96,95793,1,8
328,151,96024,2,0,B|296:224|316:308,1,160,2|0
384,352,96716,1,4
459,380,96947,6,0,B|508:308|484:228,1,160,2|0
496,148,97639,1,4
452,80,97870,2,0,B|304:20,1,160,2|0
256,84,98562,1,4
208,20,98793,2,0,B|59:80,1,160,2|0
16,148,99485,1,8
8,228,99716,1,0
52,296,99947,6,0,B|76:356|160:380|220:328|204:260|204:260|156:196|192:132|256:104|320:132|356:196|308:260|308:260|292:328|352:380|436:356|460:296,1,800,4|8
500,228,102485,1,0
512,148,102716,1,2
504,68,102947,2,0,B|448:12,2,80,0|8|0
440,120,103639,6,0,B|368:152|252:120|264:32|344:-32|440:16|408:124|328:156|288:128|256:140|224:128|184:156|104:124|72:16|168:-32|248:32|260:120|144:152|72:120,1,640,4|0
32,256,105947,1,8
32,256,106408,2,0,B|80:320,2,80,8|8|0
4,180,107101,1,0
28,96,107331,6,0,B|51:139|95:147|135:127|143:79,1,160,4|8
212,36,108024,2,0,B|256:32|288:56|292:104|292:104|296:144,1,160,2|8
215,145,108716,2,0,B|220:104|220:104|224:56|256:32|300:36,1,160,2|4
380,36,109408,2,0,B|416:108,1,80,2|8
416,188,109870,2,0,B|472:244|456:340,1,160,2|2
380,352,110562,2,0,B|412:256|336:212,1,160,8|4
256,208,111255,2,0,B|256:288,1,80,2|8
180,312,111716,6,0,B|140:284|104:304|104:304|68:324|28:296,1,160,2|2
28,216,112408,1,8
116,80,112870,5,0
256,156,113331,1,0
116,80,113793,1,0
256,156,114255,1,0
484,96,114716,6,0,B|460:139|416:147|376:127|368:79,1,160,0|8
300,36,115409,2,0,B|256:32|224:56|220:104|220:104|216:144,1,160,2|2
296,145,116101,2,0,B|292:104|292:104|288:56|256:32|212:36,1,160,8|4
132,36,116793,2,0,B|96:108,1,80,2|8
96,188,117255,2,0,B|40:244|56:340,1,160,2|2
132,352,117947,2,0,B|100:256|176:212,1,160,8|4
256,208,118640,2,0,B|256:288,1,80,2|8
332,312,119101,6,0,B|372:284|408:304|408:304|444:324|484:296,1,160,2|2
484,216,119793,1,8
396,80,120255,5,0
256,156,120716,1,0
396,80,121178,1,0
256,156,121640,1,0
380,64,136870,6,0,B|392:144,1,80,0|2
440,208,137331,1,8
372,252,137562,2,0,B|340:280|296:268,1,80,2|0
140,252,138024,2,0,B|172:280|214:268,1,80,2|8
131,64,138485,6,0,B|120:156|48:193,1,160,2|2
52,272,139178,1,8
52,272,139408,1,4
256,352,139870,1,4
460,272,140331,1,4
256,192,140562,12,4,142408
96,172,143331,5,0
192,44,143793,1,8
220,72,143908,1,8
248,100,144024,1,8
276,128,144139,1,8
304,156,144255,6,0,B|376:196|460:164,1,160,4|8
436,324,145178,2,0,B|468:356|512:352,2,80,2|0|8
372,276,145870,2,0,B|308:212|308:116|352:52,1,240,2|8
162,55,146793,2,0,B|204:116|204:212|140:276,1,240,2|8
92,204,147716,2,0,B|147:162|221:188|252:260|214:318,1,240,2|8
419,180,148639,2,0,B|364:221|290:195|259:123|297:65,1,240,2|8
240,12,149562,1,0
164,40,149793,6,0,B|128:64|88:48,1,80,2|0
32,104,150255,2,0,B|60:132|108:128,1,80,8|0
156,192,150716,2,0,B|120:216|80:200,1,80,2|0
28,260,151178,2,0,B|56:288|104:284,1,80,8|8
180,316,151639,2,0,B|256:360|332:316,1,160,0|4
468,192,152562,5,2
484,112,152793,1,0
504,36,153024,1,8
424,24,153255,2,0,B|360:76|360:76|332:24|264:12|228:56,1,240,2|8
284,112,154178,2,0,B|248:155|180:143|152:91|152:91|88:143,1,240,2|8
32,204,155101,2,0,B|52:268|116:300|192:280|220:224,1,240,2|8
480,204,156024,2,0,B|460:268|396:300|320:280|292:224,1,240,2|8
256,152,156947,1,0
200,208,157178,6,0,B|172:288|208:364,1,160,2|8
304,363,157870,2,0,B|340:288|312:208,1,160,2|0
284,132,158562,5,8
300,52,158793,1,8
376,76,159024,2,0,B|352:112|368:168|440:164|456:120,1,160,0|4
448,40,159716,1,0
300,144,159947,6,0,B|312:184|352:204,2,80,0|2|8
211,145,160639,2,0,B|184:224|85:223,1,160,2|2
256,84,161331,1,8
426,223,161562,2,0,B|328:224|300:145,1,160,2|2
256,84,162255,1,8
332,328,162485,2,0,B|292:344|256:320|256:320|220:344|180:328,1,160,2|2
256,84,163178,1,8
208,148,163408,6,0,B|168:160|144:208|168:260|212:264,1,160,2|2
256,84,164101,1,8
304,148,164331,2,0,B|344:160|368:208|344:260|300:264,1,160,2|2
256,84,165024,1,8
328,328,165255,2,0,B|304:356|256:368|208:356|184:328,1,160,2|2
256,84,165947,2,0,B|256:164,1,80,8|0
256,192,166408,12,2,169178
112,84,170101,6,0,B|68:128|64:184|84:240|164:240|232:324|328:140|276:100|256:32|236:100|184:140|280:324|348:240|428:240|448:184|444:128|400:84,1,640,4|0
336,36,172178,1,2
256,288,172639,1,2
176,36,173101,1,2
256,288,173562,2,0,B|256:368,1,80,2|4
