osu file format v14

[General]
AudioFilename: audio.mp3
AudioLeadIn: 0
PreviewTime: 84427
Countdown: 0
SampleSet: None
StackLeniency: 0.7
Mode: 0
LetterboxInBreaks: 0
WidescreenStoryboard: 1

[Editor]
DistanceSpacing: 1.2
BeatDivisor: 4
GridSize: 4
TimelineZoom: 1.450001

[Metadata]
Title:Hotline Bling
TitleUnicode:Hotline Bling
Artist:Drake
ArtistUnicode:Drake
Creator:aonidn1
Version:Hotline Insane
Source:
Tags:
BeatmapID:1049112
BeatmapSetID:492457

[Difficulty]
HPDrainRate:5
CircleSize:4
OverallDifficulty:8
ApproachRate:9
SliderMultiplier:1.8
SliderTickRate:1

[Events]
//Background and Video events
0,0,"BG.png",0,0
//Break Periods
2,71093,83538
2,156427,183093
//Storyboard Layer 0 (Background)
//Storyboard Layer 1 (Fail)
//Storyboard Layer 2 (Pass)
//Storyboard Layer 3 (Foreground)
//Storyboard Sound Samples

[TimingPoints]
0,444.444444444444,4,2,0,100,1,0
0,-100,4,2,0,30,0,0
12666,-181.818181818181,4,2,0,100,0,0
14205,444.444444444444,4,2,0,100,1,0
14205,-100,4,2,0,100,0,0
85316,-100,4,2,4,100,0,1
85421,-100,4,2,0,100,0,1
97538,-100,4,2,0,100,0,0
99538,-100,4,2,0,100,0,1
111760,-100,4,2,0,100,0,0
113760,-100,4,2,0,100,0,0
126427,-100,4,2,0,100,0,0
127982,-100,4,2,0,30,0,0
142204,-100,4,2,4,100,0,1
142316,-100,4,2,0,100,0,1
154427,-100,4,2,3,100,0,0
184871,-100,4,2,0,30,0,0
199093,-100,4,2,4,100,0,1
199204,-100,4,2,0,100,0,1
211316,-100,4,2,2,30,0,0
225754,-100,4,2,2,30,0,0
227538,-100,4,2,2,30,0,0
227649,-100,4,2,0,30,0,0
241760,-100,4,2,0,100,0,1
254427,-100,4,2,0,100,0,0

[Colours]
Combo1 : 138,255,255
Combo2 : 255,166,166
Combo3 : 200,200,147
Combo4 : 145,255,145
Combo5 : 255,255,140

[HitObjects]
256,192,0,5,0,0:0:0:0:
192,100,222,1,0,0:0:0:0:
92,72,444,1,0,0:0:0:0:
24,160,666,1,0,0:0:0:0:
96,240,888,2,0,P|64:280|24:288,2,90,8|0|0,0:0|0:0|0:0,0:0:0:0:
156,156,1555,2,0,L|260:156,1,90
336,132,1999,5,0,0:0:0:0:
480,292,2222,1,0,0:0:0:0:
312,148,2444,1,0,0:0:0:0:
492,268,2666,1,8,0:0:0:0:
288,168,2888,1,0,0:0:0:0:
208,104,3111,2,0,P|156:64|124:56,2,90
180,232,3777,2,0,L|180:332,1,90
80,212,4222,6,0,L|80:104,1,90,0|8,0:0|0:0,0:0:0:0:
152,64,4666,1,0,0:0:0:0:
388,64,4888,1,0,0:0:0:0:
208,64,5111,1,0,0:0:0:0:
336,64,5333,1,0,0:0:0:0:
268,168,5555,2,0,L|268:292,1,90
128,336,5999,5,0,0:0:0:0:
40,232,6222,2,0,P|72:152|88:132,2,90,8|0|0,0:0|0:0|0:0,0:0:0:0:
160,256,6888,2,0,L|276:248,1,90
488,104,7333,2,0,L|376:104,1,90
296,104,7777,1,0,0:0:0:0:
212,160,7999,1,8,0:0:0:0:
240,264,8222,1,0,0:0:0:0:
340,316,8444,1,0,0:0:0:0:
420,248,8666,6,0,L|420:136,1,90
292,36,9111,2,0,P|292:88|260:136,1,90
136,192,9555,2,0,P|136:140|160:88,1,90,0|8,0:0|0:0,0:0:0:0:
296,160,9999,1,0,0:0:0:0:
464,52,10222,1,0,0:0:0:0:
272,144,10444,1,0,0:0:0:0:
400,164,10666,2,0,L|500:164,2,90
316,84,11333,6,0,P|256:84|204:104,1,90,0|8,0:0|0:0,0:0:0:0:
108,196,11777,1,0,0:0:0:0:
168,300,11999,2,0,P|224:324|256:324,1,90
360,272,12444,1,0,0:0:0:0:
448,192,12666,6,0,L|448:136,1,49.5000015106202
384,48,13111,1,0,0:0:0:0:
304,112,13333,2,0,L|184:112,1,99.0000030212403,8|0,0:0|0:0,0:0:0:0:
92,192,13999,2,0,P|92:164|100:128,1,49.5000015106202
176,52,14427,1,0,0:0:0:0:
256,192,14649,6,0,P|304:172|336:136,1,90
432,88,15093,2,0,P|460:128|388:228,1,180,8|0,0:0|0:0,0:0:0:0:
256,192,15760,1,0,0:0:0:0:
152,264,15982,2,0,P|184:312|220:332,1,90,0|8,0:0|0:0,0:0:0:0:
320,292,16427,2,0,P|320:220|256:124,1,180,0|8,0:0|0:0,0:0:0:0:
168,52,17093,5,0,0:0:0:0:
64,32,17316,1,0,0:0:0:0:
80,136,17538,1,8,0:0:0:0:
192,128,17760,2,0,P|260:88|344:152,1,180
400,236,18427,1,0,0:0:0:0:
312,336,18649,2,0,P|304:292|272:248,1,90,8|0,0:0|0:0,0:0:0:0:
208,188,19093,2,0,P|76:244|72:268,1,180
160,344,19760,5,8,0:0:0:0:
208,188,19982,2,0,P|260:136|372:136,1,180,0|8,0:0|0:0,0:0:0:0:
464,128,20649,1,0,0:0:0:0:
464,128,20760,1,0,0:0:0:0:
464,128,20871,2,0,L|464:244,1,90,0|8,0:0|0:0,0:0:0:0:
364,320,21316,2,0,P|320:236|336:144,1,180
288,56,21982,6,0,L|188:32,1,90,0|8,0:0|0:0,0:0:0:0:
64,72,22427,1,0,0:0:0:0:
160,160,22649,2,0,P|192:224|192:276,1,90
204,348,23093,1,0,0:0:0:0:
76,304,23316,1,8,0:0:0:0:
160,160,23538,2,0,P|244:112|320:144,1,180,0|8,0:0|0:0,0:0:0:0:
396,216,24204,5,0,0:0:0:0:
308,316,24427,2,0,L|192:316,1,90,0|8,0:0|0:0,0:0:0:0:
64,288,24871,2,0,P|152:200|136:152,1,180
64,80,25538,2,0,L|156:32,1,90,0|8,0:0|0:0,0:0:0:0:
256,16,25982,1,0,0:0:0:0:
368,64,26204,6,0,P|336:116|400:208,1,180
464,120,26871,2,0,P|488:72|460:28,1,90,8|0,0:0|0:0,0:0:0:0:
332,72,27316,1,0,0:0:0:0:
252,144,27538,1,8,0:0:0:0:
256,248,27760,1,0,0:0:0:0:
240,272,27871,1,0,0:0:0:0:
224,292,27982,2,0,P|168:308|112:304,1,90,0|8,0:0|0:0,0:0:0:0:
48,212,28427,2,0,P|88:164|132:152,1,90
200,228,28871,2,0,P|252:164|216:64,1,180,0|8,0:0|0:0,0:0:0:0:
140,32,29538,5,0,0:0:0:0:
72,140,29760,2,0,L|60:252,1,90
200,344,30204,2,0,L|236:240,1,90,0|8,0:0|0:0,0:0:0:0:
316,116,30649,2,0,P|388:144|424:256,1,180,0|8,0:0|0:0,0:0:0:0:
400,336,31316,1,0,0:0:0:0:
288,236,31538,1,0,0:0:0:0:
220,128,31760,2,0,P|168:80|124:80,1,90,8|0,0:0|0:0,0:0:0:0:
44,104,32204,1,0,0:0:0:0:
56,232,32427,2,0,P|88:304|200:304,1,180,0|8,0:0|0:0,0:0:0:0:
256,236,33093,5,0,0:0:0:0:
128,192,33316,2,0,P|160:144|196:128,1,90
416,116,33760,2,0,P|392:64|332:40,1,90,0|8,0:0|0:0,0:0:0:0:
256,108,34204,2,0,P|256:196|300:280,1,180,0|8,0:0|0:0,0:0:0:0:
436,300,34871,1,0,0:0:0:0:
436,272,34982,1,0,0:0:0:0:
436,244,35093,2,0,P|436:180|412:128,1,90,0|8,0:0|0:0,0:0:0:0:
324,68,35538,2,0,L|216:68,1,90
128,128,35982,2,0,P|148:248|228:288,1,180,0|8,0:0|0:0,0:0:0:0:
304,292,36649,5,0,0:0:0:0:
408,220,36871,2,0,P|404:152|380:96,1,90
256,56,37316,2,0,P|220:92|216:164,1,90,0|8,0:0|0:0,0:0:0:0:
316,212,37760,2,0,P|376:124|476:144,1,180,0|8,0:0|0:0,0:0:0:0:
456,264,38427,1,0,0:0:0:0:
360,344,38649,1,0,0:0:0:0:
256,300,38871,1,8,0:0:0:0:
312,216,39093,2,0,P|292:136|192:88,1,180
116,32,39760,2,0,P|64:68|60:104,1,90,0|8,0:0|0:0,0:0:0:0:
80,200,40204,5,0,0:0:0:0:
156,272,40427,2,0,P|112:320|48:320,1,90
156,140,42649,6,0,P|216:100|324:116,1,180
452,160,43316,2,0,L|452:52,1,90,0|8,0:0|0:0,0:0:0:0:
256,152,43760,2,0,L|256:260,1,90
212,348,44204,1,0,0:0:0:0:
116,280,44427,1,0,0:0:0:0:
136,156,44649,1,8,0:0:0:0:
216,80,44871,2,0,P|300:124|312:232,1,180,0|8,0:0|0:0,0:0:0:0:
380,320,45538,5,0,0:0:0:0:
460,224,45760,2,0,P|440:156|408:112,1,90,0|8,0:0|0:0,0:0:0:0:
236,56,46204,2,0,P|184:80|144:124,1,90
320,148,46649,2,0,P|372:232|316:308,1,180,0|8,0:0|0:0,0:0:0:0:
232,336,47316,1,0,0:0:0:0:
200,232,47538,1,0,0:0:0:0:
120,292,47760,1,0,0:0:0:0:
40,224,47982,2,0,P|52:172|80:144,1,90,0|8,0:0|0:0,0:0:0:0:
192,108,48427,2,0,P|192:64|168:16,1,90
76,148,48871,5,8,0:0:0:0:
148,264,49093,1,0,0:0:0:0:
172,264,49204,1,0,0:0:0:0:
200,264,49316,2,0,P|264:264|304:248,1,90,0|8,0:0|0:0,0:0:0:0:
360,164,49760,2,0,P|432:160|476:188,1,90
296,256,50204,2,0,P|188:192|172:108,1,180,0|8,0:0|0:0,0:0:0:0:
216,48,50871,1,0,0:0:0:0:
300,132,51093,1,0,0:0:0:0:
376,56,51316,1,0,0:0:0:0:
444,124,51538,2,0,P|444:176|420:248,1,90,0|8,0:0|0:0,0:0:0:0:
272,348,51982,6,0,P|284:276|316:244,1,90
348,144,52427,1,8,0:0:0:0:
272,48,52649,1,0,0:0:0:0:
160,108,52871,2,0,L|68:164,1,90,0|8,0:0|0:0,0:0:0:0:
48,284,53316,2,0,P|156:328|224:284,1,180
256,192,53982,1,0,0:0:0:0:
348,288,54204,2,0,P|416:288|448:268,1,90,8|0,0:0|0:0,0:0:0:0:
472,104,54649,2,0,P|416:112|376:140,1,90
300,256,56871,6,0,P|216:224|176:128,1,180
168,32,57538,1,0,0:0:0:0:
264,72,57760,2,0,P|312:116|316:156,1,90,8|0,0:0|0:0,0:0:0:0:
388,192,58204,2,0,P|436:192|476:216,1,90
452,324,58649,1,0,0:0:0:0:
344,256,58871,1,8,0:0:0:0:
256,324,59093,2,0,P|196:264|88:312,1,180,0|8,0:0|0:0,0:0:0:0:
40,232,59760,2,0,P|40:188|56:136,1,90
116,56,60204,5,8,0:0:0:0:
256,188,60427,1,0,0:0:0:0:
88,80,60649,1,0,0:0:0:0:
280,164,60871,2,0,P|368:108|432:144,1,180,0|8,0:0|0:0,0:0:0:0:
440,256,61538,2,0,L|440:352,1,90
332,232,61982,2,0,L|332:128,1,90
336,40,62427,5,8,0:0:0:0:
188,124,62649,1,0,0:0:0:0:
100,224,62871,2,0,P|104:292|136:320,1,90,0|8,0:0|0:0,0:0:0:0:
236,308,63316,1,0,0:0:0:0:
264,308,63427,1,0,0:0:0:0:
292,308,63538,2,0,P|352:308|408:280,1,90,0|8,0:0|0:0,0:0:0:0:
464,192,63982,2,0,P|448:104|368:116,1,180
296,192,64649,1,0,0:0:0:0:
212,108,64871,2,0,P|152:108|96:120,1,90,8|0,0:0|0:0,0:0:0:0:
40,232,65316,6,0,P|88:232|152:224,1,90
212,108,65760,1,0,0:0:0:0:
256,20,65982,1,8,0:0:0:0:
332,72,66204,2,0,P|416:128|396:192,1,180,0|8,0:0|0:0,0:0:0:0:
344,268,66871,2,0,L|424:332,1,90
256,268,67316,2,0,L|164:208,1,90,8|0,0:0|0:0,0:0:0:0:
92,160,67760,1,0,0:0:0:0:
188,68,67982,1,0,0:0:0:0:
296,164,68204,1,0,0:0:0:0:
196,256,68427,6,0,P|160:292|100:312,1,90,8|0,0:0|0:0,0:0:0:0:
116,144,68871,2,0,P|180:108|216:104,1,90
304,72,69316,1,0,0:0:0:0:
504,192,69538,1,8,0:0:0:0:
256,192,84427,6,0,L|152:192,1,90
80,120,84871,1,0,0:0:0:0:
212,64,85093,2,0,L|324:64,1,90,0|4,0:0|0:0,0:0:0:0:
432,168,85538,1,0,0:0:0:0:
384,280,85760,2,0,P|296:332|236:292,1,180,0|8,0:0|0:0,0:0:0:0:
288,216,86427,6,0,L|288:120,1,90
212,64,86871,2,0,P|152:64|100:80,1,90
44,152,87316,1,8,0:0:0:0:
176,248,87538,1,0,0:0:0:0:
24,304,87760,1,0,0:0:0:0:
120,160,87982,2,0,P|192:120|276:160,1,180,8|0,0:0|0:0,0:0:0:0:
324,224,88649,2,0,P|376:224|420:212,1,90,8|0,0:0|0:0,0:0:0:0:
480,88,89093,2,0,P|420:88|384:108,1,90
324,192,89538,1,0,0:0:0:0:
256,92,89760,6,0,L|152:92,1,90,8|0,0:0|0:0,0:0:0:0:
48,192,90204,2,0,L|108:300,1,90
188,328,90649,1,0,0:0:0:0:
344,276,90871,1,8,0:0:0:0:
196,192,91093,2,0,P|264:120|344:128,1,180,0|8,0:0|0:0,0:0:0:0:
432,192,91760,1,0,0:0:0:0:
432,216,91871,1,0,0:0:0:0:
432,240,91982,2,0,P|432:288|412:336,1,90,0|8,0:0|0:0,0:0:0:0:
348,220,92427,2,0,P|348:160|332:96,1,90
256,40,92871,6,0,P|176:68|160:172,1,180,0|8,0:0|0:0,0:0:0:0:
256,208,93538,1,0,0:0:0:0:
384,280,93760,1,0,0:0:0:0:
256,356,93982,1,0,0:0:0:0:
136,296,94204,2,0,P|56:264|52:240,1,90,0|8,0:0|0:0,0:0:0:0:
188,132,94649,2,0,P|232:132|272:152,1,90
312,272,95093,2,0,P|424:260|472:176,1,180,8|0,0:0|0:0,0:0:0:0:
480,92,95760,1,8,0:0:0:0:
372,32,95982,1,0,0:0:0:0:
276,120,96204,6,0,P|192:120|160:136,1,90
36,272,96649,2,0,P|104:288|152:280,1,90,0|8,0:0|0:0,0:0:0:0:
256,192,97093,1,0,0:0:0:0:
340,112,97316,1,0,0:0:0:0:
436,64,97538,1,0,0:0:0:0:
436,220,99538,6,0,P|360:308|300:300,1,180
252,192,100204,1,0,0:0:0:0:
172,92,100427,2,0,P|132:92|76:116,1,90,8|0,0:0|0:0,0:0:0:0:
216,296,100871,2,0,P|268:296|312:280,1,90
392,216,101316,1,0,0:0:0:0:
432,96,101538,1,8,0:0:0:0:
344,48,101760,6,0,P|276:68|248:180,1,180,0|8,0:0|0:0,0:0:0:0:
320,240,102427,2,0,P|368:296|372:332,1,90
180,288,102871,2,0,P|168:232|168:188,1,90,8|0,0:0|0:0,0:0:0:0:
216,84,103316,1,0,0:0:0:0:
320,36,103538,2,0,P|404:124|412:184,1,180,0|8,0:0|0:0,0:0:0:0:
412,288,104204,6,0,L|348:380,1,90
320,176,104649,2,0,L|412:96,1,90
168,148,105093,2,0,L|76:224,1,90,8|0,0:0|0:0,0:0:0:0:
148,336,105538,1,0,0:0:0:0:
232,248,105760,1,8,0:0:0:0:
344,244,105982,1,0,0:0:0:0:
360,228,106093,1,0,0:0:0:0:
376,212,106204,2,0,P|404:172|408:120,1,90,0|8,0:0|0:0,0:0:0:0:
296,36,106649,2,0,P|216:72|184:168,1,180
256,284,107316,6,0,P|208:308|160:308,1,90,0|8,0:0|0:0,0:0:0:0:
56,184,107760,2,0,P|88:128|124:112,1,90
184,32,108204,1,0,0:0:0:0:
324,84,108427,2,0,L|416:84,1,90,0|8,0:0|0:0,0:0:0:0:
476,184,108871,2,0,B|428:224|432:264|432:264|340:332,1,180,0|8,0:0|0:0,0:0:0:0:
256,344,109538,1,0,0:0:0:0:
184,108,109760,1,0,0:0:0:0:
232,344,109982,5,8,0:0:0:0:
216,108,110204,1,0,0:0:0:0:
196,344,110427,1,0,0:0:0:0:
112,300,110649,2,0,P|52:264|40:216,1,90
236,100,111093,2,0,P|300:144|320:176,1,90,8|0,0:0|0:0,0:0:0:0:
136,164,111538,2,0,P|92:120|84:64,1,90
256,84,113760,6,0,B|304:84|304:84|336:104|336:104|444:104,1,180
504,192,114427,1,0,0:0:0:0:
424,288,114649,2,0,P|368:276|312:248,1,90,8|0,0:0|0:0,0:0:0:0:
276,148,115093,2,0,P|216:160|176:200,1,90
136,312,115538,1,0,0:0:0:0:
32,216,115760,2,0,P|40:144|72:100,1,90,8|0,0:0|0:0,0:0:0:0:
120,44,116204,1,0,0:0:0:0:
208,96,116427,2,0,P|260:168|228:248,1,180,8|0,0:0|0:0,0:0:0:0:
292,308,117093,6,0,P|340:308|392:320,1,90,8|0,0:0|0:0,0:0:0:0:
444,256,117538,2,0,P|444:208|456:168,1,90
416,96,117982,2,0,P|364:80|332:56,1,90,0|8,0:0|0:0,0:0:0:0:
256,24,118427,1,0,0:0:0:0:
192,76,118649,2,0,P|168:168|76:240,1,180
36,296,119316,5,8,0:0:0:0:
148,340,119538,1,0,0:0:0:0:
224,244,119760,1,0,0:0:0:0:
224,112,119982,1,8,0:0:0:0:
324,52,120204,1,0,0:0:0:0:
324,52,120316,1,0,0:0:0:0:
324,52,120427,2,0,L|432:128,1,90,0|8,0:0|0:0,0:0:0:0:
460,284,120871,2,0,L|376:216,1,90
256,132,121316,6,0,P|176:184|180:272,1,180,0|8,0:0|0:0,0:0:0:0:
256,344,121982,1,0,0:0:0:0:
332,280,122204,2,0,P|428:212|432:128,1,180
380,72,122871,2,0,L|276:72,1,90,8|0,0:0|0:0,0:0:0:0:
104,240,123316,2,0,L|220:240,1,90,0|8,0:0|0:0,0:0:0:0:
228,232,123760,1,0,0:0:0:0:
252,208,123982,2,0,L|312:124,1,90,0|8,0:0|0:0,0:0:0:0:
376,52,124427,5,0,0:0:0:0:
460,320,124649,1,0,0:0:0:0:
256,156,124871,1,0,0:0:0:0:
412,192,125093,2,0,L|344:264,1,90,0|8,0:0|0:0,0:0:0:0:
256,344,125538,1,0,0:0:0:0:
132,280,125760,2,0,P|56:212|72:136,1,180
256,24,126427,1,8,0:0:0:0:
256,192,127982,6,0,P|208:268|176:284,2,90
292,112,128649,1,0,0:0:0:0:
372,56,128871,2,0,P|436:88|456:132,1,90,8|0,0:0|0:0,0:0:0:0:
456,252,129316,1,0,0:0:0:0:
340,208,129538,2,0,P|328:144|292:104,1,90
256,32,129982,1,0,0:0:0:0:
172,84,130204,6,0,B|172:124|172:124|184:152|184:152|184:268,1,180,0|8,0:0|0:0,0:0:0:0:
136,352,130871,1,0,0:0:0:0:
72,276,131093,2,0,P|72:228|88:180,1,90
168,88,131538,1,0,0:0:0:0:
256,192,131760,2,0,L|316:300,1,90
392,324,132204,1,0,0:0:0:0:
460,232,132427,6,0,P|476:148|408:68,1,180,8|0,0:0|0:0,0:0:0:0:
328,36,133093,1,0,0:0:0:0:
344,136,133316,2,0,P|392:188|396:240,1,90
316,332,133760,2,0,P|272:296|264:264,1,90
236,156,134204,1,8,0:0:0:0:
156,68,134427,1,0,0:0:0:0:
48,120,134649,6,0,B|48:180|48:180|68:212|68:212|68:328,1,180
136,348,135316,1,0,0:0:0:0:
256,192,135538,1,0,0:0:0:0:
156,356,135760,1,0,0:0:0:0:
288,200,135982,1,8,0:0:0:0:
348,112,136204,2,0,P|408:112|448:92,1,90
312,40,136649,2,0,P|268:40|220:56,1,90
140,116,137093,5,0,0:0:0:0:
228,180,137316,2,0,P|288:244|220:324,1,180,0|8,0:0|0:0,0:0:0:0:
196,256,137982,1,0,0:0:0:0:
112,208,138204,2,0,P|152:144|176:128,2,90
136,296,138871,1,0,0:0:0:0:
232,252,139093,6,0,P|320:200|400:228,1,180,0|8,0:0|0:0,0:0:0:0:
472,172,139760,1,0,0:0:0:0:
428,84,139982,2,0,P|352:52|244:100,1,180
252,192,140649,2,0,L|156:280,1,90
372,192,141093,2,0,L|464:132,1,90,0|8,0:0|0:0,0:0:0:0:
364,36,141538,1,0,0:0:0:0:
256,144,141760,1,0,0:0:0:0:
160,68,141982,1,0,0:0:0:0:
80,120,142204,6,0,P|96:200|172:264,1,180,4|0,0:0|0:0,0:0:0:0:
256,188,142871,1,0,0:0:0:0:
360,240,143093,2,0,P|324:296|280:316,1,90,8|0,0:0|0:0,0:0:0:0:
172,304,143538,2,0,P|196:252|244:208,2,90
100,368,144204,1,8,0:0:0:0:
44,292,144427,6,0,B|44:232|44:232|68:192|68:192|68:108,1,180,0|8,0:0|0:0,0:0:0:0:
132,36,145093,2,0,L|228:36,1,90
328,88,145538,1,8,0:0:0:0:
256,168,145760,2,0,L|152:168,1,90
92,240,146204,2,0,P|136:312|240:328,1,180,0|8,0:0|0:0,0:0:0:0:
316,280,146871,1,0,0:0:0:0:
436,84,147093,1,0,0:0:0:0:
336,288,147316,6,0,P|376:248|448:240,1,90
472,176,147760,2,0,P|456:120|416:92,1,90,8|0,0:0|0:0,0:0:0:0:
308,48,148204,1,0,0:0:0:0:
220,176,148427,1,8,0:0:0:0:
332,292,148649,1,0,0:0:0:0:
308,292,148760,1,0,0:0:0:0:
288,292,148871,2,0,P|240:292|176:308,1,90,0|8,0:0|0:0,0:0:0:0:
120,244,149316,2,0,P|120:192|104:144,2,90
192,304,149982,6,0,P|240:304|284:320,1,90,0|8,0:0|0:0,0:0:0:0:
360,268,150427,1,0,0:0:0:0:
424,200,150649,2,0,P|424:140|400:92,1,90
336,48,151093,2,0,P|264:48|216:64,1,90,0|8,0:0|0:0,0:0:0:0:
148,168,151538,2,0,P|208:168|268:204,1,90
304,256,151982,1,8,0:0:0:0:
408,276,152204,1,0,0:0:0:0:
400,168,152427,2,0,P|400:132|384:76,1,90,0|8,0:0|0:0,0:0:0:0:
180,60,152871,6,0,P|180:96|168:148,1,90
224,224,153316,2,0,P|276:224|332:248,1,90
400,320,153760,2,0,P|356:320|304:336,1,90,8|0,0:0|0:0,0:0:0:0:
192,344,154204,1,0,0:0:0:0:
80,244,154427,1,0,0:0:0:0:
256,192,184871,6,0,P|296:140|344:124,2,90
320,288,185538,1,0,0:0:0:0:
224,340,185760,2,0,P|168:340|120:308,1,90,8|0,0:0|0:0,0:0:0:0:
52,212,186204,2,0,P|96:212|144:232,1,90
208,168,186649,2,0,P|232:128|272:104,1,90
356,56,187093,5,0,0:0:0:0:
436,116,187316,1,0,0:0:0:0:
380,188,187538,2,0,B|380:228|380:228|396:256|396:256|396:304|396:304|324:352,1,180,8|0,0:0|0:0,0:0:0:0:
256,360,188204,1,0,0:0:0:0:
184,296,188427,2,0,P|212:256|220:208,1,90
224,116,188871,2,0,P|280:116|316:104,1,90
396,120,189316,2,0,P|420:160|468:196,1,90,8|0,0:0|0:0,0:0:0:0:
404,264,189760,2,0,P|336:264|216:304,1,180
136,316,190427,5,0,0:0:0:0:
80,120,190649,1,0,0:0:0:0:
100,320,190871,1,0,0:0:0:0:
116,116,191093,1,8,0:0:0:0:
132,316,191316,1,0,0:0:0:0:
132,316,191427,1,0,0:0:0:0:
132,316,191538,2,0,P|172:268|216:252,1,90
256,192,191982,2,0,P|256:144|272:92,2,90
312,268,192649,6,0,P|372:268|416:256,1,90,0|8,0:0|0:0,0:0:0:0:
480,172,193093,1,0,0:0:0:0:
392,96,193316,2,0,P|352:96|280:112,1,90
232,232,193760,2,0,P|120:196|96:112,1,180
164,40,194427,1,0,0:0:0:0:
256,100,194649,6,0,L|256:208,1,90,8|0,0:0|0:0,0:0:0:0:
392,356,195093,2,0,L|392:256,1,90
388,144,195538,1,0,0:0:0:0:
304,48,195760,1,0,0:0:0:0:
176,92,195982,2,0,P|100:148|104:244,1,180,0|8,0:0|0:0,0:0:0:0:
160,324,196649,1,0,0:0:0:0:
224,232,196871,2,0,P|288:132|352:136,1,180
428,192,197538,6,0,P|428:232|416:288,1,90
224,232,197982,2,0,P|252:184|292:152,1,90,0|8,0:0|0:0,0:0:0:0:
312,304,198427,1,0,0:0:0:0:
292,320,198538,1,0,0:0:0:0:
272,332,198649,2,0,P|220:336|168:324,1,90
104,244,199093,6,0,P|48:144|88:72,1,180,4|0,0:0|0:0,0:0:0:0:
148,32,199760,1,0,0:0:0:0:
200,128,199982,2,0,L|216:248,1,90,8|0,0:0|0:0,0:0:0:0:
328,328,200427,2,0,L|312:224,1,90
300,140,200871,1,0,0:0:0:0:
376,56,201093,1,8,0:0:0:0:
460,124,201316,2,0,P|440:248|380:300,1,180,0|8,0:0|0:0,0:0:0:0:
304,324,201982,2,0,L|200:324,1,90
92,244,202427,1,8,0:0:0:0:
192,172,202649,2,0,P|256:120|276:96,1,90
140,52,203093,6,0,P|92:108|92:220,1,180,0|8,0:0|0:0,0:0:0:0:
152,312,203760,1,0,0:0:0:0:
200,204,203982,2,0,P|240:152|272:132,1,90
360,56,204427,2,0,P|408:96|432:152,1,90,0|8,0:0|0:0,0:0:0:0:
380,300,204871,2,0,P|324:252|304:204,1,90
256,104,205316,1,8,0:0:0:0:
136,56,205538,5,0,0:0:0:0:
136,80,205649,1,0,0:0:0:0:
136,104,205760,2,0,L|136:216,1,90,0|8,0:0|0:0,0:0:0:0:
200,292,206204,2,0,P|248:316|304:304,1,90
408,240,206649,2,0,P|444:172|392:92,1,180,0|8,0:0|0:0,0:0:0:0:
304,48,207316,1,0,0:0:0:0:
256,192,207538,1,0,0:0:0:0:
164,104,207760,2,0,L|64:104,1,90
200,288,208204,2,0,L|300:288,1,90,8|0,0:0|0:0,0:0:0:0:
372,224,208649,5,0,0:0:0:0:
440,132,208871,2,0,P|376:80|312:144,1,180,8|0,0:0|0:0,0:0:0:0:
296,280,209538,1,8,0:0:0:0:
168,284,209760,2,0,P|104:228|172:176,1,180
256,124,210427,1,0,0:0:0:0:
256,24,210649,1,8,0:0:0:0:
168,76,210871,2,0,P|112:116|104:156,1,90
104,276,211316,1,0,0:0:0:0:
256,192,213316,5,4,0:0:0:0:
416,80,213538,1,0,0:0:0:0:
240,184,213760,1,0,0:0:0:0:
436,104,213982,1,0,0:0:0:0:
224,160,214204,1,8,0:0:0:0:
440,136,214427,1,0,0:0:0:0:
220,128,214649,2,0,P|160:80|52:116,1,180,0|4,0:0|0:0,0:0:0:0:
72,216,215316,5,0,0:0:0:0:
256,320,215538,1,0,0:0:0:0:
56,248,215760,1,0,0:0:0:0:
256,300,215982,1,8,0:0:0:0:
52,288,216204,1,0,0:0:0:0:
256,272,216427,2,0,P|336:248|448:256,1,180,0|4,0:0|0:0,0:0:0:0:
472,168,217093,5,0,0:0:0:0:
384,24,217316,1,0,0:0:0:0:
384,188,217538,1,0,0:0:0:0:
288,40,217760,1,8,0:0:0:0:
296,188,217982,1,0,0:0:0:0:
208,72,218204,2,0,P|120:88|52:160,1,180,0|4,0:0|0:0,0:0:0:0:
120,216,218871,5,0,0:0:0:0:
32,348,219093,1,0,0:0:0:0:
180,244,219316,1,0,0:0:0:0:
76,344,219538,1,8,0:0:0:0:
224,264,219760,1,0,0:0:0:0:
132,336,219982,2,0,P|216:348|328:296,1,180,0|4,0:0|0:0,0:0:0:0:
352,248,220649,5,0,0:0:0:0:
504,176,220871,1,0,0:0:0:0:
336,196,221093,1,0,0:0:0:0:
472,120,221316,1,8,0:0:0:0:
320,152,221538,1,0,0:0:0:0:
432,72,221760,2,0,P|352:36|240:80,1,180,0|4,0:0|0:0,0:0:0:0:
116,96,222427,5,0,0:0:0:0:
276,188,222649,1,0,0:0:0:0:
88,160,222871,1,0,0:0:0:0:
264,232,223093,1,8,0:0:0:0:
88,216,223316,1,0,0:0:0:0:
220,280,223538,2,0,P|300:348|380:320,1,180,0|4,0:0|0:0,0:0:0:0:
176,168,224204,5,0,0:0:0:0:
336,32,224427,1,0,0:0:0:0:
208,168,224649,1,0,0:0:0:0:
376,64,224871,1,8,0:0:0:0:
248,176,225093,1,0,0:0:0:0:
400,96,225316,1,0,0:0:0:0:
360,256,225538,1,0,0:0:0:0:
256,192,225760,5,4,0:0:0:0:
408,80,225982,1,0,0:0:0:0:
456,312,226204,1,0,0:0:0:0:
352,192,226427,1,0,0:0:0:0:
296,88,226649,2,0,L|204:88,1,90,8|0,0:0|0:0,0:0:0:0:
56,192,227093,2,0,L|168:192,1,90
208,280,227538,5,4,0:0:0:0:
384,152,227760,1,0,0:0:0:0:
188,264,227982,1,0,0:0:0:0:
400,184,228204,1,0,0:0:0:0:
176,240,228427,1,8,0:0:0:0:
400,220,228649,1,0,0:0:0:0:
172,204,228871,1,0,0:0:0:0:
396,256,229093,1,0,0:0:0:0:
180,172,229316,2,0,P|220:148|248:104,1,90
308,48,229760,6,0,P|364:48|416:28,1,90
472,96,230204,2,0,P|472:156|452:212,2,90,8|0|0,0:0|0:0|0:0,0:0:0:0:
388,32,230871,1,0,0:0:0:0:
320,112,231093,2,0,B|272:112|272:112|232:132|232:132|144:132,1,180
56,84,231760,1,0,0:0:0:0:
152,44,231982,2,0,P|200:84|244:224,1,180,8|0,0:0|0:0,0:0:0:0:
312,272,232649,2,0,P|372:272|404:264,1,90
456,192,233093,6,0,P|456:140|440:100,1,90
352,64,233538,2,0,P|296:64|256:80,1,90,0|8,0:0|0:0,0:0:0:0:
176,192,233982,1,0,0:0:0:0:
176,192,234204,1,0,0:0:0:0:
256,316,234427,1,0,0:0:0:0:
360,272,234649,2,0,B|360:228|360:228|340:196|252:112,1,180
192,56,235316,6,0,L|104:112,1,90,0|8,0:0|0:0,0:0:0:0:
300,320,235760,2,0,L|392:276,1,90
184,120,236204,2,0,L|100:164,1,90
300,248,236649,2,0,L|392:196,1,90
444,136,237093,5,0,0:0:0:0:
280,36,237316,1,8,0:0:0:0:
468,112,237538,1,0,0:0:0:0:
268,64,237760,1,0,0:0:0:0:
476,80,237982,1,0,0:0:0:0:
264,100,238204,6,0,P|224:132|112:76,1,180
192,64,238871,2,0,P|240:32|284:32,1,90,0|8,0:0|0:0,0:0:0:0:
380,92,239316,1,0,0:0:0:0:
256,192,239538,1,0,0:0:0:0:
104,312,239760,1,0,0:0:0:0:
276,196,239982,5,0,0:0:0:0:
84,292,240204,1,0,0:0:0:0:
292,224,240427,1,0,0:0:0:0:
72,268,240649,2,0,P|36:212|32:172,1,90,0|8,0:0|0:0,0:0:0:0:
80,84,241093,1,0,0:0:0:0:
184,40,241316,1,0,0:0:0:0:
308,40,241538,1,0,0:0:0:0:
420,104,241732,6,0,P|416:212|360:284,1,180
256,336,242399,1,0,0:0:0:0:
264,240,242621,2,0,P|304:188|328:136,1,90,8|0,0:0|0:0,0:0:0:0:
108,164,243065,2,0,P|76:224|76:280,1,90
136,336,243510,1,0,0:0:0:0:
260,336,243732,1,8,0:0:0:0:
348,268,243954,1,0,0:0:0:0:
412,176,244176,1,0,0:0:0:0:
352,88,244399,6,0,P|256:84|176:128,1,180,8|0,0:0|0:0,0:0:0:0:
172,268,245065,1,8,0:0:0:0:
256,192,245288,2,0,P|336:192|404:304,1,180
336,332,245954,2,0,P|292:320|256:288,1,90,0|8,0:0|0:0,0:0:0:0:
176,220,246399,2,0,P|96:228|64:252,1,90
52,148,246843,1,0,0:0:0:0:
116,80,247065,2,0,P|180:80|240:64,1,90,0|8,0:0|0:0,0:0:0:0:
284,84,247510,2,0,P|304:144|416:240,1,180,0|8,0:0|0:0,0:0:0:0:
472,288,248177,5,0,0:0:0:0:
472,264,248288,1,0,0:0:0:0:
472,240,248399,2,0,P|472:180|448:112,1,90,0|8,0:0|0:0,0:0:0:0:
372,76,248843,2,0,P|280:72|220:160,1,180
288,200,249510,2,0,P|324:268|312:308,1,90,0|8,0:0|0:0,0:0:0:0:
256,368,249954,1,0,0:0:0:0:
188,308,250176,2,0,P|188:256|156:188,1,90
192,132,250621,5,0,0:0:0:0:
256,24,250843,1,8,0:0:0:0:
332,124,251065,1,0,0:0:0:0:
424,192,251288,2,0,L|424:312,1,90,0|8,0:0|0:0,0:0:0:0:
300,352,251732,2,0,L|200:352,1,90
96,300,252176,1,8,0:0:0:0:
32,192,252399,2,0,P|104:112|180:144,1,180
256,192,253065,6,0,P|288:148|300:104,1,90,0|8,0:0|0:0,0:0:0:0:
372,44,253510,2,0,P|432:44|476:64,1,90
456,152,253954,2,0,P|432:192|432:244,1,90
308,344,254399,1,8,0:0:0:0:
304,344,255065,2,0,P|304:292|260:216,1,135
248,196,255510,2,0,L|220:88,1,90,0|8,0:0|0:0,0:0:0:0:
220,92,255843,1,0,0:0:0:0:
212,68,255954,1,0,0:0:0:0:
320,56,256176,6,0,L|424:56,1,90
256,192,256621,2,0,L|156:192,1,90,0|8,0:0|0:0,0:0:0:0:
68,256,257065,1,0,0:0:0:0:
164,332,257288,2,0,P|224:332|260:308,1,90
328,240,257732,2,0,P|392:240|428:224,1,90,0|8,0:0|0:0,0:0:0:0:
472,120,258176,1,0,0:0:0:0:
376,56,258399,1,0,0:0:0:0:
304,128,258621,2,0,P|196:120|136:64,1,180,8|0,0:0|0:0,0:0:0:0:
60,128,259288,2,0,P|60:196|48:244,1,90,8|0,0:0|0:0,0:0:0:0:
120,296,259732,5,0,0:0:0:0:
204,360,259954,1,0,0:0:0:0:
256,288,260176,2,0,P|332:248|368:248,1,90,0|8,0:0|0:0,0:0:0:0:
432,232,260621,1,0,0:0:0:0:
476,132,260843,2,0,P|436:92|384:96,1,90
320,192,261288,1,0,0:0:0:0:
148,308,261510,1,8,0:0:0:0:
180,208,261732,2,0,P|216:128|304:116,1,180,0|8,0:0|0:0,0:0:0:0:
404,116,262399,5,0,0:0:0:0:
404,116,262510,1,0,0:0:0:0:
404,116,262621,2,0,P|404:76|376:28,1,90,0|8,0:0|0:0,0:0:0:0:
256,132,263065,2,0,P|256:192|276:248,1,90
344,304,263510,1,0,0:0:0:0:
224,364,263732,1,0,0:0:0:0:
112,312,263954,1,8,0:0:0:0:
48,220,264176,6,0,P|96:164|132:156,1,90
164,48,264621,1,0,0:0:0:0:
288,64,264843,2,0,L|384:64,1,90,0|8,0:0|0:0,0:0:0:0:
320,256,265288,2,0,L|192:256,1,90
344,112,265732,2,0,L|472:112,1,90,8|0,0:0|0:0,0:0:0:0:
248,208,266176,2,0,L|140:208,1,90,0|8,0:0|0:0,0:0:0:0:
88,152,266621,2,0,P|120:76|212:80,1,180
288,144,267288,1,0,0:0:0:0:
368,232,267510,1,8,0:0:0:0:
320,324,267732,5,0,0:0:0:0:
232,252,267954,2,0,L|128:252,1,90
76,192,268399,2,0,P|76:144|64:84,1,90,0|8,0:0|0:0,0:0:0:0:
140,44,268843,2,0,P|208:44|256:64,1,90
300,104,269288,2,0,P|312:152|288:232,1,135,8|0,0:0|0:0,0:0:0:0:
292,260,269732,2,0,L|384:328,1,90,0|8,0:0|0:0,0:0:0:0:
384,328,270065,1,0,0:0:0:0:
408,344,270176,1,0,0:0:0:0:
