osu file format v14

[General]
AudioFilename: audio.mp3
AudioLeadIn: 0
PreviewTime: 84427
Countdown: 0
SampleSet: None
StackLeniency: 0.7
Mode: 0
LetterboxInBreaks: 0
WidescreenStoryboard: 0

[Editor]
DistanceSpacing: 1.2
BeatDivisor: 4
GridSize: 4
TimelineZoom: 1.450001

[Metadata]
Title:Hotline Bling
TitleUnicode:Hotline Bling
Artist:Drake
ArtistUnicode:Drake
Creator:aonidn1
Version:Hotline Hard
Source:
Tags:
BeatmapID:1049111
BeatmapSetID:492457

[Difficulty]
HPDrainRate:5
CircleSize:4
OverallDifficulty:7
ApproachRate:8
SliderMultiplier:1.4
SliderTickRate:1

[Events]
//Background and Video events
0,0,"BG.png",0,0
//Break Periods
2,71113,83558
2,128002,140447
2,183113,197336
//Storyboard Layer 0 (Background)
//Storyboard Layer 1 (Fail)
//Storyboard Layer 2 (Pass)
//Storyboard Layer 3 (Foreground)
//Storyboard Sound Samples

[TimingPoints]
0,444.444444444444,4,2,0,100,1,0
14205,444.444444444444,4,2,0,100,1,0
14205,-133.333333333333,4,2,0,100,0,0
85316,-133.333333333333,4,2,4,100,0,1
85447,-133.333333333333,4,2,0,100,0,1
97538,-133.333333333333,4,2,0,100,0,0
99538,-133.333333333333,4,2,0,100,0,1
99669,-133.333333333333,4,2,0,100,0,1
111760,-133.333333333333,4,2,0,100,0,0
113760,-133.333333333333,4,2,0,100,0,1
113918,-133.333333333333,4,2,0,100,0,1
126427,-133.333333333333,4,2,0,100,0,0
142204,-133.333333333333,4,2,4,100,0,1
142336,-133.333333333333,4,2,0,100,0,1
154427,-133.333333333333,4,2,3,100,0,0
158113,-133.333333333333,4,2,2,100,0,0
161891,-133.333333333333,4,2,3,100,0,0
165224,-133.333333333333,4,2,2,100,0,0
169002,-133.333333333333,4,2,3,100,0,0
172336,-133.333333333333,4,2,2,100,0,0
176113,-133.333333333333,4,2,3,100,0,0
179447,-133.333333333333,4,2,2,100,0,0
179669,-133.333333333333,4,2,0,100,0,0
199093,-133.333333333333,4,2,4,100,0,1
199224,-133.333333333333,4,2,0,100,0,1
211336,-133.333333333333,4,2,0,100,0,0
213316,-133.333333333333,4,2,2,25,0,1
227538,-133.333333333333,4,2,2,30,0,0

[Colours]
Combo1 : 138,255,255
Combo2 : 255,166,166
Combo3 : 200,200,147
Combo4 : 145,255,145
Combo5 : 255,255,140

[HitObjects]
132,72,14205,6,0,P|100:128|96:176,1,105.000004005432
168,296,15093,1,8,0:0:0:0:
256,192,15538,2,0,L|256:140,1,52.5000020027161
344,84,15982,2,0,L|416:84,1,52.5000020027161,0|8,0:0|0:0,0:0:0:0:
472,152,16427,1,0,0:0:0:0:
340,232,16871,6,0,L|340:292,1,52.5000020027161,8|0,0:0|0:0,0:0:0:0:
172,344,17316,2,0,L|172:288,1,52.5000020027161,0|8,0:0|0:0,0:0:0:0:
80,216,17760,2,0,P|28:168|32:132,1,105.000004005432
76,44,18427,1,0,0:0:0:0:
168,80,18649,2,0,P|216:132|208:168,1,105.000004005432,8|0,0:0|0:0,0:0:0:0:
220,288,19316,1,0,0:0:0:0:
316,216,19538,2,0,L|368:172,1,52.5000020027161,0|8,0:0|0:0,0:0:0:0:
424,72,19982,1,0,0:0:0:0:
192,48,20427,6,0,L|192:112,1,52.5000020027161,8|0,0:0|0:0,0:0:0:0:
184,128,20760,1,0,0:0:0:0:
176,160,20871,2,0,L|176:236,1,52.5000020027161,0|8,0:0|0:0,0:0:0:0:
256,308,21316,2,0,B|292:308|292:308|312:320|312:320|364:320,1,105.000004005432
460,204,22204,1,8,0:0:0:0:
368,80,22649,6,0,L|296:80,1,52.5000020027161
164,76,23093,2,0,L|164:16,1,52.5000020027161,0|8,0:0|0:0,0:0:0:0:
160,192,23538,2,0,P|172:256|208:296,1,105.000004005432,0|8,0:0|0:0,0:0:0:0:
292,348,24204,1,0,0:0:0:0:
380,264,24427,2,0,L|380:200,1,52.5000020027161,0|8,0:0|0:0,0:0:0:0:
312,92,24871,6,0,P|256:64|220:88,1,105.000004005432
148,176,25538,1,0,0:0:0:0:
200,300,25760,2,0,P|248:324|292:288,1,105.000004005432,8|0,0:0|0:0,0:0:0:0:
352,208,26427,2,0,L|408:208,1,52.5000020027161
312,84,26871,1,8,0:0:0:0:
312,84,27093,2,0,L|244:84,1,52.5000020027161
196,136,27538,6,0,L|136:136,1,52.5000020027161,8|0,0:0|0:0,0:0:0:0:
120,136,27871,1,0,0:0:0:0:
92,136,27982,2,0,L|40:192,1,52.5000020027161,0|8,0:0|0:0,0:0:0:0:
80,292,28427,2,0,P|136:336|184:336,1,105.000004005432
256,192,29316,5,8,0:0:0:0:
420,280,29760,1,0,0:0:0:0:
376,152,29982,2,0,L|376:84,1,52.5000020027161
296,32,30427,2,0,L|296:96,1,52.5000020027161,8|0,0:0|0:0,0:0:0:0:
256,188,30871,1,0,0:0:0:0:
196,280,31093,2,0,P|156:280|112:232,1,105.000004005432,8|0,0:0|0:0,0:0:0:0:
32,152,31760,1,8,0:0:0:0:
128,72,31982,2,0,B|176:72|192:88|192:88|252:88,1,105.000004005432
376,24,32871,1,8,0:0:0:0:
376,108,33316,6,0,L|376:176,1,52.5000020027161
296,304,33761,2,0,L|296:228,1,52.5000020027161,0|8,0:0|0:0,0:0:0:0:
256,136,34204,2,0,P|216:88|164:76,1,105.000004005432,0|8,0:0|0:0,0:0:0:0:
52,140,34871,1,0,0:0:0:0:
52,140,34982,1,0,0:0:0:0:
52,140,35093,2,0,L|52:212,1,52.5000020027161,0|8,0:0|0:0,0:0:0:0:
112,328,35538,6,0,P|112:268|132:224,1,105.000004005432
216,144,36204,1,0,0:0:0:0:
336,140,36427,2,0,P|396:108|424:68,1,105.000004005432,8|0,0:0|0:0,0:0:0:0:
256,40,37093,2,0,L|192:40,1,52.5000020027161
96,152,37538,2,0,L|160:152,1,52.5000020027161,8|0,0:0|0:0,0:0:0:0:
316,252,37982,1,0,0:0:0:0:
456,136,38204,2,0,P|472:76|440:76,1,105.000004005432,8|0,0:0|0:0,0:0:0:0:
324,48,38871,1,8,0:0:0:0:
188,104,39093,6,0,P|212:152|272:176,1,105.000004005432
368,244,39760,1,0,0:0:0:0:
280,316,39982,2,0,B|240:316|240:316|224:304|224:304|168:304,1,105.000004005432,8|0,0:0|0:0,0:0:0:0:
8,192,40649,1,0,0:0:0:0:
152,60,42649,5,0,0:0:0:0:
256,124,43093,2,0,P|312:124|364:92,1,105.000004005432,0|8,0:0|0:0,0:0:0:0:
452,40,43982,2,0,L|488:104,1,52.5000020027161
444,216,44427,2,0,L|408:156,1,52.5000020027161,0|8,0:0|0:0,0:0:0:0:
324,96,44871,1,0,0:0:0:0:
136,152,45316,2,0,P|72:128|64:80,1,105.000004005432,8|0,0:0|0:0,0:0:0:0:
148,44,45982,1,8,0:0:0:0:
228,92,46204,2,0,P|268:140|268:188,1,105.000004005432
300,280,47093,5,8,0:0:0:0:
420,280,47538,2,0,L|448:216,1,52.5000020027161
424,96,47982,2,0,L|392:144,1,52.5000020027161,0|8,0:0|0:0,0:0:0:0:
300,212,48427,2,0,P|244:184|232:144,1,105.000004005432,0|8,0:0|0:0,0:0:0:0:
144,72,49093,1,0,0:0:0:0:
144,72,49204,1,0,0:0:0:0:
144,72,49316,2,0,P|108:80|80:104,1,52.5000020027161,0|8,0:0|0:0,0:0:0:0:
116,284,49760,6,0,P|172:280|224:240,1,105.000004005432
256,144,50427,1,0,0:0:0:0:
356,64,50649,1,8,0:0:0:0:
456,120,50871,1,0,0:0:0:0:
388,220,51093,2,0,P|392:292|424:328,1,105.000004005432
484,160,51760,5,8,0:0:0:0:
384,80,51982,2,0,P|308:80|268:112,1,105.000004005432,0|8,0:0|0:0,0:0:0:0:
212,176,52649,2,0,L|212:240,1,52.5000020027161
344,336,53093,2,0,L|344:276,1,52.5000020027161,8|0,0:0|0:0,0:0:0:0:
344,168,53538,1,0,0:0:0:0:
256,32,53760,1,0,0:0:0:0:
180,192,53982,1,0,0:0:0:0:
336,80,54204,1,8,0:0:0:0:
288,228,54427,2,0,L|288:292,1,52.5000020027161
160,340,54871,1,0,0:0:0:0:
8,192,56871,5,0,0:0:0:0:
160,88,57316,2,0,P|212:72|268:72,1,105.000004005432,0|8,0:0|0:0,0:0:0:0:
420,132,58204,2,0,L|420:188,1,52.5000020027161
280,332,58649,2,0,L|280:272,1,52.5000020027161,0|8,0:0|0:0,0:0:0:0:
256,104,59093,1,0,0:0:0:0:
172,248,59316,1,0,0:0:0:0:
96,120,59538,2,0,P|44:148|36:200,1,105.000004005432,8|0,0:0|0:0,0:0:0:0:
48,308,60204,1,8,0:0:0:0:
148,316,60427,6,0,P|192:272|252:264,1,105.000004005432
408,240,61316,2,0,L|408:176,1,52.5000020027161,8|0,0:0|0:0,0:0:0:0:
256,28,61760,2,0,L|184:28,1,52.5000020027161
76,84,62204,1,0,0:0:0:0:
208,312,62427,1,8,0:0:0:0:
56,236,62649,1,0,0:0:0:0:
224,136,62871,6,0,L|280:108,1,52.5000020027161,0|8,0:0|0:0,0:0:0:0:
432,48,63316,2,0,L|432:88,1,26.2500010013581
428,104,63538,2,0,L|404:160,1,52.5000020027161,0|8,0:0|0:0,0:0:0:0:
336,308,63982,2,0,P|280:308|232:276,1,105.000004005432
96,272,64649,1,0,0:0:0:0:
128,136,64871,2,0,P|176:88|224:68,1,105.000004005432,8|0,0:0|0:0,0:0:0:0:
336,36,65538,5,0,0:0:0:0:
296,228,65760,2,0,L|252:264,1,52.5000020027161,0|8,0:0|0:0,0:0:0:0:
28,288,66204,2,0,P|56:220|88:196,1,105.000004005432,0|8,0:0|0:0,0:0:0:0:
152,120,66871,1,0,0:0:0:0:
200,40,67093,1,0,0:0:0:0:
300,56,67316,1,8,0:0:0:0:
388,120,67538,2,0,P|440:120|484:156,1,105.000004005432
452,312,68204,1,0,0:0:0:0:
452,312,68427,6,0,P|400:268|344:256,1,105.000004005432,8|0,0:0|0:0,0:0:0:0:
280,336,69093,2,0,L|208:336,1,52.5000020027161
8,192,69538,1,8,0:0:0:0:
156,112,85316,6,0,P|216:80|264:72,1,105.000004005432,4|0,0:0|0:0,0:0:0:0:
384,56,85982,1,0,0:0:0:0:
328,156,86204,2,0,P|288:200|272:252,1,105.000004005432,8|0,0:0|0:0,0:0:0:0:
360,316,86871,2,0,L|424:316,1,52.5000020027161
328,156,87316,1,8,0:0:0:0:
204,64,87538,2,0,P|152:104|108:104,1,105.000004005432,0|8,0:0|0:0,0:0:0:0:
48,148,88204,2,0,L|80:208,1,52.5000020027161
128,268,88649,5,8,0:0:0:0:
208,336,88871,1,0,0:0:0:0:
316,308,89093,1,0,0:0:0:0:
392,240,89316,2,0,P|416:188|392:124,1,105.000004005432,0|8,0:0|0:0,0:0:0:0:
340,60,89982,1,0,0:0:0:0:
224,104,90204,2,0,B|196:104|168:92|168:92|112:92,1,105.000004005432
20,152,90871,1,8,0:0:0:0:
64,252,91093,6,0,L|116:352,1,105.000004005432,0|8,0:0|0:0,0:0:0:0:
216,292,91760,1,0,0:0:0:0:
216,292,91871,1,0,0:0:0:0:
216,292,91982,2,0,L|216:224,1,52.5000020027161,0|8,0:0|0:0,0:0:0:0:
256,132,92427,2,0,P|300:112|376:112,1,105.000004005432
456,144,93316,1,8,0:0:0:0:
364,236,93760,2,0,L|336:172,1,52.5000020027161
200,116,94204,2,0,L|156:60,1,52.5000020027161,0|8,0:0|0:0,0:0:0:0:
64,232,94649,2,0,P|120:288|160:292,1,105.000004005432,0|8,0:0|0:0,0:0:0:0:
256,344,95316,5,0,0:0:0:0:
356,296,95538,1,0,0:0:0:0:
340,180,95760,1,8,0:0:0:0:
288,92,95982,2,0,B|244:92|216:104|216:104|160:104,1,105.000004005432
76,164,96649,1,0,0:0:0:0:
152,232,96871,2,0,P|152:284|120:328,1,105.000004005432,8|0,0:0|0:0,0:0:0:0:
52,224,97538,1,0,0:0:0:0:
184,44,99538,5,0,0:0:0:0:
336,92,99982,2,0,P|380:124|380:184,1,105.000004005432,0|8,0:0|0:0,0:0:0:0:
352,328,100649,1,0,0:0:0:0:
256,248,100871,2,0,P|256:184|220:148,1,105.000004005432
152,92,101538,1,8,0:0:0:0:
152,92,101760,2,0,L|152:28,1,52.5000020027161
72,176,102204,2,0,L|72:240,1,52.5000020027161,8|0,0:0|0:0,0:0:0:0:
248,144,102649,1,0,0:0:0:0:
336,68,102871,1,8,0:0:0:0:
440,88,103093,2,0,B|440:124|448:148|448:148|448:208,1,105.000004005432
408,332,103982,6,0,L|340:332,1,52.5000020027161,8|0,0:0|0:0,0:0:0:0:
140,204,104427,2,0,P|208:204|256:184,1,105.000004005432
356,124,105093,1,8,0:0:0:0:
216,48,105316,2,0,P|188:104|188:156,1,105.000004005432,0|8,0:0|0:0,0:0:0:0:
232,268,105982,2,0,L|276:268,1,26.2500010013581
284,264,106204,2,0,L|340:232,1,52.5000020027161,0|8,0:0|0:0,0:0:0:0:
256,84,106649,2,0,P|196:84|160:108,1,105.000004005432
16,192,107538,5,8,0:0:0:0:
72,332,107760,1,0,0:0:0:0:
148,248,107982,2,0,P|220:248|260:232,1,105.000004005432
436,220,108649,1,8,0:0:0:0:
310,169,108871,2,0,P|254:201|254:249,1,105.000004005432,0|8,0:0|0:0,0:0:0:0:
320,336,109538,1,0,0:0:0:0:
440,276,109760,1,0,0:0:0:0:
412,152,109982,5,8,0:0:0:0:
328,80,110204,2,0,P|276:80|224:100,1,105.000004005432
188,304,110871,1,0,0:0:0:0:
32,192,111093,1,8,0:0:0:0:
120,92,111316,2,0,L|196:84,1,52.5000020027161
384,88,111760,1,0,0:0:0:0:
256,192,113760,5,0,0:0:0:0:
356,348,114204,2,0,P|412:320|440:272,1,105.000004005432,0|8,0:0|0:0,0:0:0:0:
476,180,114871,1,0,0:0:0:0:
400,72,115093,2,0,P|364:116|364:184,1,105.000004005432
288,236,115760,1,8,0:0:0:0:
200,192,115982,2,0,P|200:156|188:128,1,52.5000020027161
224,44,116427,2,0,P|264:36|288:16,1,52.5000020027161,8|0,0:0|0:0,0:0:0:0:
356,96,116871,5,0,0:0:0:0:
256,188,117093,1,8,0:0:0:0:
316,320,117316,1,0,0:0:0:0:
160,312,117760,2,0,P|88:260|76:224,1,105.000004005432,0|8,0:0|0:0,0:0:0:0:
44,112,118427,1,0,0:0:0:0:
176,120,118649,2,0,P|216:184|252:200,1,105.000004005432
320,272,119316,2,0,L|320:344,1,52.5000020027161,8|0,0:0|0:0,0:0:0:0:
472,144,119760,2,0,L|472:76,1,52.5000020027161,0|8,0:0|0:0,0:0:0:0:
256,192,120204,6,0,L|208:192,1,26.2500010013581
200,204,120427,2,0,L|152:252,1,52.5000020027161,0|8,0:0|0:0,0:0:0:0:
300,332,120871,2,0,P|348:296|348:252,1,105.000004005432
344,116,121538,1,0,0:0:0:0:
256,48,121760,2,0,P|196:88|180:140,1,105.000004005432,8|0,0:0|0:0,0:0:0:0:
140,204,122427,2,0,P|104:204|80:212,1,52.5000020027161
52,124,122871,2,0,P|52:96|40:64,1,52.5000020027161,8|0,0:0|0:0,0:0:0:0:
148,44,123316,5,0,0:0:0:0:
256,156,123538,2,0,P|296:200|260:248,1,105.000004005432,8|0,0:0|0:0,0:0:0:0:
184,304,124204,2,0,L|184:364,1,52.5000020027161,8|0,0:0|0:0,0:0:0:0:
388,240,124649,2,0,L|388:172,1,52.5000020027161
300,36,125093,1,0,0:0:0:0:
200,104,125316,2,0,L|144:104,1,52.5000020027161,8|0,0:0|0:0,0:0:0:0:
40,192,125760,1,0,0:0:0:0:
128,312,125982,1,0,0:0:0:0:
128,312,126204,2,0,L|164:380,1,52.5000020027161,0|8,0:0|0:0,0:0:0:0:
256,192,142204,6,0,P|300:156|368:148,1,105.000004005432,4|0,0:0|0:0,0:0:0:0:
464,96,142871,1,0,0:0:0:0:
300,40,143093,2,0,P|236:56|200:88,1,105.000004005432,8|0,0:0|0:0,0:0:0:0:
188,244,143982,2,0,L|188:312,1,52.5000020027161,0|8,0:0|0:0,0:0:0:0:
376,136,144427,2,0,L|376:76,1,52.5000020027161
256,16,144871,1,8,0:0:0:0:
96,112,145316,6,0,L|36:112,1,52.5000020027161,0|8,0:0|0:0,0:0:0:0:
144,212,145760,2,0,P|196:212|252:192,1,105.000004005432
360,116,146427,1,0,0:0:0:0:
328,264,146649,1,8,0:0:0:0:
196,328,146871,2,0,L|152:296,1,52.5000020027161
168,128,147316,2,0,L|212:180,1,52.5000020027161
300,272,147760,1,8,0:0:0:0:
436,188,148204,5,0,0:0:0:0:
356,92,148427,2,0,L|304:92,1,52.5000020027161,8|0,0:0|0:0,0:0:0:0:
280,92,148760,1,0,0:0:0:0:
252,96,148871,2,0,L|216:136,1,52.5000020027161,0|8,0:0|0:0,0:0:0:0:
88,172,149316,2,0,P|32:140|16:96,1,105.000004005432
136,80,149982,1,0,0:0:0:0:
188,172,150204,2,0,L|188:240,1,52.5000020027161,8|0,0:0|0:0,0:0:0:0:
256,360,150649,2,0,L|256:296,1,52.5000020027161
364,192,151093,1,0,0:0:0:0:
472,100,151316,5,8,0:0:0:0:
360,64,151538,2,0,P|304:116|320:136,1,105.000004005432,0|8,0:0|0:0,0:0:0:0:
384,196,152204,1,0,0:0:0:0:
456,288,152427,1,0,0:0:0:0:
360,348,152649,2,0,P|324:348|296:340,1,52.5000020027161,8|0,0:0|0:0,0:0:0:0:
264,256,153093,2,0,P|264:224|256:192,1,52.5000020027161
328,124,153538,1,0,0:0:0:0:
328,124,153760,2,0,P|356:120|384:104,1,52.5000020027161,8|0,0:0|0:0,0:0:0:0:
452,160,154204,2,0,P|456:196|468:228,1,52.5000020027161
256,368,156454,5,4,0:0:0:0:
28,192,158231,1,4,0:0:0:0:
504,192,161787,1,4,0:0:0:0:
256,16,163565,1,4,0:0:0:0:
256,192,165343,1,4,0:0:0:0:
44,352,168898,5,4,0:0:0:0:
256,44,170676,1,4,0:0:0:0:
460,192,172454,1,4,0:0:0:0:
44,192,176009,1,4,0:0:0:0:
412,48,177787,1,4,0:0:0:0:
256,360,179565,1,4,0:0:0:0:
256,192,199093,5,4,0:0:0:0:
440,128,199538,2,0,P|408:64|368:40,1,105.000004005432,0|8,0:0|0:0,0:0:0:0:
256,20,200204,1,0,0:0:0:0:
152,160,200427,2,0,P|84:160|44:128,1,105.000004005432
72,28,201093,1,8,0:0:0:0:
200,68,201316,2,0,L|264:68,1,52.5000020027161
436,176,201760,6,0,L|380:176,1,52.5000020027161,8|0,0:0|0:0,0:0:0:0:
352,300,202204,1,0,0:0:0:0:
220,332,202427,2,0,L|156:296,1,52.5000020027161,8|0,0:0|0:0,0:0:0:0:
124,188,202871,1,0,0:0:0:0:
216,72,203093,2,0,P|292:116|296:144,1,105.000004005432,0|8,0:0|0:0,0:0:0:0:
368,184,203760,2,0,P|408:184|428:192,1,52.5000020027161
328,280,204204,2,0,P|292:280|272:272,1,52.5000020027161
184,148,204649,1,8,0:0:0:0:
88,60,204871,6,0,P|48:116|68:160,1,105.000004005432,0|8,0:0|0:0,0:0:0:0:
180,284,205538,1,0,0:0:0:0:
180,284,205649,1,0,0:0:0:0:
180,284,205760,2,0,L|156:356,1,52.5000020027161,0|8,0:0|0:0,0:0:0:0:
92,184,206204,2,0,L|116:128,1,52.5000020027161
268,64,206649,2,0,B|308:100|308:100|332:96|368:96,1,105.000004005432,0|8,0:0|0:0,0:0:0:0:
452,124,207316,1,0,0:0:0:0:
452,124,207538,6,0,L|452:188,1,52.5000020027161
328,312,207982,2,0,L|328:260,1,52.5000020027161,0|8,0:0|0:0,0:0:0:0:
284,144,208427,2,0,P|256:96|204:80,1,105.000004005432,0|8,0:0|0:0,0:0:0:0:
84,96,209093,1,0,0:0:0:0:
32,192,209316,1,0,0:0:0:0:
92,280,209538,1,8,0:0:0:0:
184,328,209760,2,0,P|212:268|256:256,1,105.000004005432
332,224,210427,6,0,P|332:188|320:160,1,52.5000020027161,0|8,0:0|0:0,0:0:0:0:
256,68,210871,2,0,P|256:100|264:140,1,52.5000020027161
408,172,211316,1,0,0:0:0:0:
256,48,213316,6,0,L|200:48,1,52.5000020027161,4|0,0:0|0:0,0:0:0:0:
96,144,213760,1,0,0:0:0:0:
148,252,213982,1,0,0:0:0:0:
256,192,214204,2,0,P|316:144|356:144,1,105.000004005432,8|0,0:0|0:0,0:0:0:0:
456,88,214871,2,0,L|456:24,1,52.5000020027161,0|4,0:0|0:0,0:0:0:0:
340,136,215316,2,0,L|340:200,1,52.5000020027161
292,324,215760,5,0,0:0:0:0:
200,348,215982,1,8,0:0:0:0:
120,288,216204,1,0,0:0:0:0:
44,232,216427,2,0,P|64:176|104:148,1,105.000004005432,0|4,0:0|0:0,0:0:0:0:
204,96,217093,2,0,L|204:32,1,52.5000020027161
320,260,217538,2,0,L|320:324,1,52.5000020027161,0|8,0:0|0:0,0:0:0:0:
400,120,217982,5,0,0:0:0:0:
320,52,218204,2,0,B|284:52|264:64|264:64|208:64,1,105.000004005432,0|4,0:0|0:0,0:0:0:0:
112,128,218871,2,0,L|112:188,1,52.5000020027161
180,304,219316,2,0,L|180:236,1,52.5000020027161,0|8,0:0|0:0,0:0:0:0:
240,136,219760,2,0,L|240:204,1,52.5000020027161
304,296,220204,1,0,0:0:0:0:
396,352,220427,6,0,P|460:316|464:276,1,105.000004005432,4|0,0:0|0:0,0:0:0:0:
456,136,221093,1,0,0:0:0:0:
324,64,221316,2,0,L|256:64,1,52.5000020027161,8|0,0:0|0:0,0:0:0:0:
148,192,221760,2,0,L|148:268,1,52.5000020027161
248,356,222204,2,0,B|292:332|292:332|296:312|340:288,1,105.000004005432,4|0,0:0|0:0,0:0:0:0:
336,108,222871,6,0,L|336:40,1,52.5000020027161,0|8,0:0|0:0,0:0:0:0:
200,192,223316,2,0,L|200:260,1,52.5000020027161
356,352,223760,1,0,0:0:0:0:
316,128,223982,1,4,0:0:0:0:
176,68,224204,1,0,0:0:0:0:
64,112,224427,2,0,P|56:188|76:220,1,105.000004005432,0|8,0:0|0:0,0:0:0:0:
164,280,225093,6,0,L|116:328,1,52.5000020027161
304,176,225538,2,0,L|348:136,1,52.5000020027161,0|4,0:0|0:0,0:0:0:0:
260,304,225982,2,0,L|216:352,1,52.5000020027161
432,216,226427,1,0,0:0:0:0:
432,216,226649,2,0,P|460:160|460:112,1,105.000004005432,8|0,0:0|0:0,0:0:0:0:
328,64,227316,1,0,0:0:0:0:
176,256,227538,1,4,0:0:0:0:
