osu file format v6

[General]
AudioFilename: Dragonforce - Fury Of The Storm.mp3
AudioLeadIn: 0
PreviewTime: 82710
Countdown: 1
SampleSet: Normal
StackLeniency: 0.2
Mode: 0
LetterboxInBreaks: 1

[Editor]
Bookmarks: 1100,11900,41900,51500,53900,73100,82700,92300,111500,137450,147500,157100,166700,185000,203900
DistanceSpacing: 1.5
BeatDivisor: 4
GridSize: 8

[Metadata]
Title:Fury Of The Storm
Artist:Dragonforce
Creator:lesjuh
Version:Expert
Source:
Tags:kingcobra52 agent spin here

[Difficulty]
HPDrainRate:6
CircleSize:4
OverallDifficulty:8
SliderMultiplier:1.6
SliderTickRate:2

[Events]
//Background and Video events
0,0,"storm.jpg"
//Break Periods
2,32552,41202
2,63752,72402
2,129752,136752
//Storyboard Layer 0 (Background)
//Storyboard Layer 1 (Fail)
//Storyboard Layer 2 (Pass)
//Storyboard Layer 3 (Foreground)
//Storyboard Sound Samples
//Background Colour Transformations
3,100,0,0,0

[TimingPoints]
2352,300,4,1,0,80,1,0
82475,-100,4,1,0,0,0,0
82625,-100,4,1,0,80,0,0
156875,-100,4,1,0,0,0,0
157025,-100,4,1,0,80,0,0

[Colours]
Combo1 : 230,115,0
Combo2 : 0,206,0
Combo3 : 217,0,0
Combo4 : 255,255,17
Combo5 : 0,0,206

[HitObjects]
256,320,2352,1,4
144,136,2652,1,0
176,208,2802,1,0
120,264,2952,1,0
48,224,3102,1,0
64,144,3252,1,4
456,224,3552,5,4
288,168,3852,1,0
256,96,4002,1,0
312,40,4152,1,0
384,80,4302,1,0
368,160,4452,1,0
256,336,4752,5,4
144,216,5052,2,0,B|136:128,1,80
192,56,5352,2,0,B|288:48,1,80,0|0
352,96,5652,1,0
352,192,5802,1,0
272,248,5952,6,0,B|216:240,2,40,0|0|0
184,304,6252,2,0,B|128:312,2,40,0|0|0
88,256,6552,2,0,B|40:264,2,40,0|0|0
8,200,6852,1,0
48,48,7152,5,4
352,208,7452,1,0
400,128,7602,1,0
336,56,7752,1,0
248,96,7902,1,0
256,192,8052,1,0
464,344,8352,5,4
168,216,8652,1,0
160,312,8802,1,0
248,344,8952,1,0
312,272,9102,1,0
256,192,9252,1,0
416,56,9552,5,4
104,120,9852,1,0
416,192,10152,1,0
104,256,10452,1,0
416,328,10752,5,4
256,56,11052,1,0
104,328,11352,1,0
256,192,11502,5,0
256,184,11577,1,0
256,176,11652,1,4
72,72,11952,5,6
72,168,12102,1,0
160,208,12252,1,2
160,112,12402,1,0
248,72,12552,2,0,B|336:64,1,80,0|2
408,112,12852,2,0,B|416:200,1,80,0|0
424,288,13152,5,6
328,256,13302,1,0
232,224,13452,2,0,B|136:240,1,80,2|0
200,320,13752,1,0
120,376,13902,1,2
64,296,14052,2,2,B|48:208|0:128,1,160,4|6
64,64,14502,5,0
160,72,14652,2,2,B|248:72,1,80,2|0
328,112,14952,5,2
304,208,15102,1,0
216,168,15252,2,2,B|128:168,1,80,2|0
80,264,15552,6,0,B|88:320,3,40,4|0|0|0
152,328,15852,6,0,B|144:272,3,40,0|0|0|0
216,320,16152,6,0,B|224:368,3,40
288,344,16452,5,6
456,216,16752,6,0,L|448:128,1,80,4|2
400,56,17052,1,0
320,112,17202,1,0
368,192,17352,2,2,B|320:264|240:296,1,160,2|2
152,280,17802,5,0
152,280,17877,1,0
152,280,17952,2,0,B|56:288,1,80,6|0
208,216,18252,2,0,B|200:120,1,80,2|0
112,200,18552,1,2
96,184,18627,1,0
80,168,18702,1,0
64,152,18777,1,0
48,136,18852,1,2
320,56,19152,5,4
416,64,19302,1,2
432,160,19452,2,0,B|424:264,1,80
432,336,19752,1,2
408,344,19827,1,0
384,352,19902,1,0
312,288,20052,1,2
216,304,20202,1,0
192,312,20277,1,0
168,320,20352,6,2,B|80:312,1,80,2|0
240,192,20652,2,2,B|328:184,1,80,2|0
192,72,20952,2,2,B|96:64,1,80,2|0
24,24,21252,1,6
40,304,21552,5,4
120,256,21702,2,0,B|208:248,1,80,2|0
280,192,22002,1,0
288,216,22077,1,0
296,240,22152,1,2
304,264,22227,1,0
312,288,22302,1,0
392,224,22452,2,0,B|480:216,1,80,2|0
488,120,22752,6,0,B|472:80,2,40,6|0|0
368,64,23052,1,4
368,64,23202,1,0
256,88,23352,2,0,B|200:64,3,40,2|0|0|0
256,88,23652,2,2,B|248:176,1,80,6|0
232,264,23952,5,4
320,232,24102,1,2
304,328,24252,1,0
392,296,24402,2,2,B|440:224|456:136,1,160,2|0
416,64,24852,5,2
392,72,24927,1,0
368,80,25002,1,0
344,88,25077,1,0
320,96,25152,6,0,B|232:88,1,80,2|0
104,208,25452,2,0,B|192:200,1,80,2|0
320,328,25752,2,0,B|232:320,1,80,2|0
144,336,26052,1,6
56,72,26352,5,4
152,48,26502,2,0,B|144:136,1,80,2|0
184,216,26802,1,0
208,224,26877,1,0
232,232,26952,1,2
280,152,27102,1,2
272,56,27252,2,2,B|368:56,1,80
448,40,27552,5,4
472,136,27702,1,2
432,224,27852,1,0
456,320,28002,1,0
440,328,28077,1,0
424,336,28152,1,2
328,312,28302,1,2
232,336,28452,2,2,B|136:328,1,80
256,192,28752,5,4
256,192,28827,1,0
256,192,28902,1,0
256,192,28977,1,0
256,192,29052,1,0
256,192,29127,1,0
256,192,29202,1,0
256,192,29277,1,0
256,192,29352,1,0
256,192,29427,1,0
256,192,29502,1,0
256,192,29577,1,0
256,192,29652,1,0
256,192,29727,1,0
256,192,29802,1,0
256,192,29877,1,0
256,192,29952,1,4
256,208,30027,12,0,30552
256,208,30627,12,0,31152
256,208,31227,12,4,32352
56,72,41952,6,0,B|48:160,1,80,4|2
112,224,42252,2,0,B|216:232,1,80,0|0
272,176,42552,2,2,B|264:344,1,160,6|2
456,56,43152,5,4
368,96,43302,2,0,B|280:80,1,80,2|0
200,120,43602,1,0
112,160,43752,2,2,B|136:240|144:336,1,160,6|0
232,336,44202,5,0
256,320,44277,1,0
280,304,44352,1,6
360,256,44502,2,0,B|368:168,1,80,2|0
216,104,44802,2,2,B|312:96,1,80
152,255,45102,2,0,B|144:160,1,80,0|2
400,80,45552,5,6
472,208,45777,1,0
416,336,46002,1,4
328,304,46152,1,2
328,304,46227,1,0
328,304,46302,1,0
96,288,46452,5,2
184,256,46602,1,0
288,168,46752,6,0,B|272:80,1,80,4|2
160,40,47052,2,0,B|56:80,1,80
112,184,47352,2,0,B|208:232,1,80,2|0
288,280,47652,5,2
392,224,47802,1,0
392,104,47952,6,4,B|480:96,1,80,4|2
304,64,48252,2,0,B|208:72,1,80,0|0
224,168,48552,6,4,B|312:160,1,80,2|0
136,128,48852,2,0,B|40:136,1,80,2|0
64,296,49152,6,0,B|104:312,3,40,4|0|0|0
120,304,49452,2,0,B|160:320,3,40,0|0|0|0
176,312,49752,2,0,B|216:328,3,40
232,320,50052,2,0,B|272:336,3,40,0|0|0|0
288,328,50352,5,4
472,192,51552,6,2,B|472:8|256:8|256:376|40:376|40:184,1,640,2|4
40,192,53052,1,4
208,48,53352,5,2
304,344,53652,1,2
480,264,53952,6,0,B|384:256,1,80,6|4
304,248,54252,1,0
208,264,54402,1,0
112,256,54552,2,0,B|8:248,2,80,6|0|2
168,176,55002,1,0
224,96,55152,6,0,B|152:64|64:56,1,160,6|0
288,128,55602,2,0,B|360:160|448:168,1,160,6|0
384,80,56052,1,4
216,344,56352,6,0,B|208:256,1,80,4|2
240,176,56652,1,4
304,248,56802,1,0
336,160,56952,2,0,B|328:72,1,80,2|0
416,40,57252,2,0,B|424:128,1,80,2|0
440,216,57552,6,0,B|416:296|344:352,1,160,6|0
72,168,58002,2,0,B|96:88|168:32,1,160,6|0
192,152,58452,1,0
208,160,58527,1,0
224,168,58602,1,0
240,176,58677,1,0
256,184,58752,6,0,B|264:232|248:280,2,80,6|0|2
352,160,59202,1,4
448,136,59352,2,0,B|456:88|440:40,2,80,6|0|2
416,224,59802,1,0
360,304,59952,6,0,B|272:312|192:352,1,160,6|0
40,192,60402,2,0,B|128:184|208:144,1,160,6|2
96,104,60852,1,4
304,280,61152,5,2
224,232,61302,1,0
272,152,61452,1,4
352,200,61602,1,0
312,336,61752,5,2
168,240,61902,1,0
256,96,62052,1,4
408,192,62202,1,0
288,216,62352,5,6
256,208,62502,12,4,63552
136,48,73152,5,6
128,144,73302,1,0
216,104,73452,2,0,B|304:96,1,80,2|0
368,160,73752,5,6
360,256,73902,1,2
280,200,74052,2,0,B|192:208,1,80,4|0
128,272,74352,6,2,B|88:200|80:104,1,160,6|0
392,272,74802,2,2,B|432:200|440:104,1,160,6|0
376,48,75252,1,0
376,48,75327,1,0
376,48,75402,1,0
168,120,75552,5,6
152,216,75702,1,0
72,160,75852,1,2
56,256,76002,1,0
136,312,76152,2,0,B|224:320,1,80,0|2
296,272,76452,1,0
320,360,76602,1,0
408,320,76752,6,2,B|432:240|488:168,1,160,6|0
296,64,77202,2,2,B|320:144|376:216,1,160,6|0
296,272,77652,1,0
272,272,77727,1,0
248,272,77802,1,0
224,272,77877,1,0
200,272,77952,6,0,B|104:264,1,80,6|0
32,128,78252,2,0,B|120:120,1,80,2|0
256,176,78552,6,0,B|160:168,1,80,4|2
88,32,78852,2,0,B|176:24,1,80,0|2
248,80,79152,6,2,B|320:40|416:40,1,160,6|0
248,304,79602,2,0,B|176:344|80:344,1,160,6|0
40,264,80052,1,0
40,264,80127,1,0
40,264,80202,1,0
208,208,80352,5,2
296,176,80502,1,0
384,208,80652,1,0
472,176,80802,1,0
376,64,80952,5,2
264,96,81102,1,0
152,64,81252,1,0
40,96,81402,1,0
256,208,81627,12,6,82002
256,208,82077,12,0,82602
56,112,82752,5,6
152,88,82902,1,0
152,88,83052,1,0
232,224,83202,5,6
136,200,83352,1,0
136,200,83502,1,0
272,120,83652,5,6
424,80,83802,1,0
472,248,83952,5,6
376,224,84102,1,0
376,224,84252,1,0
296,360,84402,5,6
392,336,84552,1,0
392,336,84702,1,0
240,280,84852,5,6
88,240,85002,1,0
40,88,85152,6,0,B|120:64,1,80,6|0
116,65,85452,1,0
272,88,85602,6,0,B|352:64,1,80,6|0
348,65,85902,1,0
440,192,86052,2,4,B|360:216,1,80,6|0
256,320,86352,5,4
224,312,86427,1,0
192,304,86502,1,0
160,296,86577,1,0
128,288,86652,1,2
256,192,86802,5,4
288,184,86877,1,0
320,176,86952,1,2
352,168,87027,1,0
384,160,87102,1,0
256,64,87252,5,6
64,40,87552,6,0,B|56:128,1,80,4|0
48,216,87852,1,2
136,176,88002,1,4
120,272,88152,2,2,B|192:232|280:224,1,160,6|0
264,320,88602,2,0,B|352:296,1,80,0|6
384,208,88902,1,0
448,272,89052,1,0
488,184,89202,2,2,B|472:104|416:40,1,160,6|0
336,88,89652,6,2,B|168:80,1,160,4|6
40,216,90252,5,0
128,184,90402,1,6
256,328,90702,5,0
168,296,90852,1,6
400,248,91152,5,4
456,144,91302,1,2
376,48,91452,1,0
264,104,91602,1,4
280,224,91752,1,2
400,248,91902,1,0
456,144,92052,1,6
56,144,92352,5,4
144,104,92502,1,2
152,200,92652,1,0
64,240,92802,2,2,B|104:312|176:360,1,160,6|0
288,328,93252,6,0,B|288:256,2,40,4|0|2
400,296,93552,2,0,B|400:224,2,40,0|0|2
400,128,93852,5,4
400,152,93927,1,0
400,176,94002,1,2
288,160,94152,1,0
288,184,94227,1,0
288,208,94302,1,2
176,264,94452,1,0
56,232,94602,1,0
48,112,94752,6,2,B|104:40|208:24,1,160,6|0
168,144,95202,2,2,B|240:112|328:120,1,160,6|0
432,168,95652,1,0
432,168,95727,1,0
432,168,95802,1,0
464,280,95952,6,2,B|408:352|304:368,1,160,6|0
344,240,96402,2,2,B|272:272|184:264,1,160,6|0
72,224,96852,1,0
72,104,97002,1,0
184,144,97152,6,0,B|272:144,1,80,6|0
416,112,97452,1,0
392,112,97527,1,0
368,112,97602,1,0
184,240,97752,6,0,B|272:240,1,80,6|0
416,208,98052,1,0
392,208,98127,1,0
368,208,98202,1,0
344,328,98352,5,6
224,352,98502,1,0
104,328,98652,1,2
72,208,98802,1,0
96,88,98952,2,6,B|168:48|256:40,1,160,6|0
464,232,99552,6,2,B|440:160|448:64,1,160,6|0
368,160,100002,2,2,B|344:240|352:336,1,160,6|0
248,256,100452,2,0,B|160:256,1,80,2|0
48,192,100752,5,4
72,192,100827,1,0
96,192,100902,1,0
256,48,101202,5,4
256,72,101277,1,0
256,96,101352,1,0
464,192,101652,5,4
440,192,101727,1,0
416,192,101802,1,0
344,256,101952,6,0,B|256:256,1,80,4|0
192,192,102252,1,2
200,96,102402,1,0
112,56,102552,2,0,B|104:144,1,80,2|0
96,232,102852,1,2
168,288,103002,1,0
192,192,103152,6,2,B|264:152|344:128,1,160,6|0
256,80,103602,2,2,B|184:40|104:16,1,160,6|0
32,80,104052,1,4
40,104,104127,1,0
48,128,104202,1,0
56,152,104277,1,0
64,176,104352,6,2,B|88:256|80:336,1,160,6|0
192,224,104802,2,2,B|216:144|208:64,1,160,6|0
288,8,105252,1,2
376,48,105402,1,0
296,104,105552,1,6
448,224,105852,6,0,B|496:224,2,40,4|0|0
320,224,106152,1,0
192,224,106302,1,0
64,224,106452,2,0,B|16:224,2,40,4|0|0
128,328,106752,6,2,B|216:360|312:320,1,160,6|0
384,264,107202,2,2,B|296:232|200:272,1,160,6|0
226,262,107652,1,0
128,56,107952,6,2,B|216:24|312:64,1,160,6|0
384,120,108402,2,2,B|296:152|200:112,1,160,6|0
226,122,108852,1,0
144,256,109152,6,0,B|184:272,3,40,4|0|0|0
200,264,109452,2,0,B|240:280,3,40,0|0|0|0
256,272,109752,2,0,B|296:288,3,40
312,280,110052,2,0,B|352:296,3,40,0|0|0|0
368,288,110352,5,4
48,320,110652,5,4
472,192,110952,1,4
48,64,111252,1,4
256,48,111552,6,2,B|304:184|208:296,2,240,6|2|2
120,184,112752,6,0,B|120:272,1,80,6|0
400,184,113052,2,0,B|400:96,1,80
96,160,113352,6,0,B|96:248,1,80,6|0
424,208,113652,2,0,B|424:120,1,80,2|0
256,48,113952,6,2,B|208:184|304:296,2,240,6|2|2
464,160,115152,5,6
456,176,115227,1,0
448,192,115302,1,0
328,256,115452,1,0
320,240,115527,1,0
312,224,115602,1,0
184,176,115752,5,6
176,192,115827,1,0
168,208,115902,1,0
48,160,116052,1,2
40,176,116127,1,0
32,192,116202,1,0
48,312,116352,5,6
160,344,116502,1,0
288,328,116652,1,0
408,344,116802,2,2,B|432:256|424:176,1,160,6|0
304,168,117252,1,2
304,168,117402,1,0
368,64,117552,5,6
232,56,117702,1,0
168,176,117852,1,0
256,280,118002,2,2,B|192:328|88:344,1,160,6|0
24,296,118452,1,2
48,104,118752,6,0,B|208:80|216:136|376:112,1,320,6|2
376,136,119427,1,0
384,160,119502,1,0
392,184,119577,1,0
400,208,119652,1,0
392,232,119727,1,0
384,256,119802,1,0
376,280,119877,1,0
368,304,119952,6,6,B|288:320,1,80,6|6
200,272,120252,2,0,B|184:184,1,80,4|0
112,256,120552,6,2,B|80:96,1,160
160,48,121002,1,0
256,40,121152,6,2,B|288:112|272:216,1,160,6|0
440,104,121602,2,2,B|424:184|360:248,1,160,6|0
272,280,122052,1,6
184,240,122202,1,0
192,336,122352,1,6
192,336,122502,1,0
104,296,122652,6,0,B|56:296,2,40,4|0|0
96,200,122952,1,2
88,104,123102,1,0
176,64,123252,2,0,B|192:104,2,40,6|0|0
264,32,123552,6,2,B|320:96|392:136,1,160,6|0
256,136,124002,2,2,B|272:224|320:288,1,160,6|0
384,216,124452,1,2
472,184,124602,1,0
488,280,124752,1,2
400,312,124902,1,4
224,312,125052,5,4
216,296,125127,1,0
208,280,125202,1,0
200,264,125277,1,0
192,248,125352,1,0
184,232,125427,1,0
176,216,125502,1,0
168,200,125577,1,0
160,184,125652,1,0
152,168,125727,1,0
144,152,125802,1,0
136,136,125877,1,0
128,120,125952,5,6
304,48,126252,1,0
272,136,126402,1,6
456,184,126702,5,0
424,272,126852,1,6
88,312,127152,1,6
256,32,127752,6,2,B|288:184|224:200|256:360,1,320,6|6
256,208,128427,12,4,129552
208,80,137502,5,2
104,80,137652,1,0
48,160,137802,1,0
104,240,137952,2,2,B|232:248,2,120,6|0|2
360,336,138702,5,2
448,296,138852,1,0
448,200,139002,1,0
448,104,139152,1,6
424,112,139227,1,0
400,120,139302,1,0
376,128,139377,1,0
352,136,139452,1,2
328,144,139527,1,0
304,152,139602,6,0,B|136:144,1,160,4|2
152,48,140052,1,0
64,88,140202,1,0
64,184,140352,1,6
72,208,140427,1,0
80,232,140502,1,0
88,256,140577,1,0
112,264,140652,1,0
136,272,140727,1,0
160,280,140802,6,2,B|328:272,1,160,6|2
408,320,141252,1,0
448,232,141402,1,2
368,184,141552,1,4
352,168,141627,1,0
344,144,141702,1,0
328,128,141777,1,0
336,104,141852,1,0
328,80,141927,1,0
312,64,142002,6,2,B|144:72,1,160,6|2
64,104,142452,1,0
80,200,142602,1,2
168,168,142752,2,2,B|160:296,2,120,6|0|2
440,320,143502,1,4
496,248,143652,1,2
472,152,143802,1,0
408,224,143952,5,6
384,232,144027,1,0
360,240,144102,1,0
336,248,144177,1,0
312,240,144252,1,0
288,232,144327,1,0
264,224,144402,2,0,B|256:176,5,40,6|0|0|0|0|0
240,168,144852,6,0,B|224:208|200:240,1,80,6|0
104,160,145152,5,2
48,264,145302,1,0
144,336,145452,1,2
256,296,145602,1,0
368,336,145752,1,4
464,264,145902,1,0
400,160,146052,1,2
432,40,146202,1,0
320,80,146352,5,6
320,80,146652,1,6
232,264,147552,5,6
160,328,147702,1,0
64,304,147852,2,0,B|48:264|56:216,1,80,2|0
128,160,148152,2,0,B|144:200|136:248,1,80,2|0
40,136,148452,1,2
104,64,148602,1,0
192,96,148752,6,2,B|280:80|352:24,1,160,6|0
304,152,149202,2,2,B|392:168|464:224,1,160,6|2
344,248,149652,1,4
344,248,149727,1,0
344,248,149802,1,0
168,288,149952,5,6
72,320,150102,1,0
16,240,150252,1,2
72,160,150402,1,0
168,184,150552,2,2,B|200:104|192:24,1,160,6|2
312,136,151002,1,0
312,136,151152,6,2,B|280:216|288:296,1,160,6|2
424,216,151602,2,2,B|456:136|448:56,1,160,6|2
360,24,152052,1,4
328,32,152127,1,0
296,40,152202,1,0
264,48,152277,1,0
232,56,152352,6,0,B|144:48,1,80,2|0
264,184,152652,2,0,B|352:176,1,80,6|0
232,320,152952,2,0,B|144:312,2,80,2|0|2
328,328,153402,1,0
416,288,153552,6,0,B|456:208|456:120,1,160,6|0
96,288,154002,2,0,B|56:208|56:120,1,160,6|0
144,192,154452,1,0
144,192,154527,1,0
144,192,154602,1,0
256,216,154752,5,6
368,296,154902,1,0
416,168,155052,1,0
304,88,155202,1,0
256,216,155352,5,6
120,320,155502,1,0
56,160,155652,1,0
200,56,155802,1,0
256,216,155952,5,6
256,208,156027,12,6,156402
256,208,156552,12,0,157002
456,112,157152,5,6
360,88,157302,1,0
360,88,157452,1,0
280,224,157602,5,6
376,200,157752,1,0
376,200,157902,1,0
240,120,158052,5,6
88,80,158202,1,0
40,248,158352,5,6
136,224,158502,1,0
136,224,158652,1,0
216,360,158802,5,6
120,336,158952,1,0
120,336,159102,1,0
272,280,159252,5,6
424,240,159402,1,0
472,88,159552,6,0,B|392:64,1,80,6|0
396,65,159852,1,0
240,88,160002,6,0,B|160:64,1,80,6|0
164,65,160302,1,0
72,192,160452,2,4,B|152:216,1,80,6|0
256,320,160752,5,4
288,312,160827,1,0
320,304,160902,1,0
352,296,160977,1,0
384,288,161052,1,2
256,192,161202,5,4
224,184,161277,1,0
192,176,161352,1,2
160,168,161427,1,0
128,160,161502,1,0
256,64,161652,5,6
448,40,161952,6,0,B|456:128,1,80,4|0
464,216,162252,1,2
376,176,162402,1,4
392,272,162552,2,2,B|320:232|232:224,1,160,6|0
248,320,163002,2,0,B|160:296,1,80,0|6
128,208,163302,1,0
64,272,163452,1,0
24,184,163602,2,2,B|40:104|96:40,1,160,6|0
176,88,164052,6,2,B|344:80,1,160,4|6
472,216,164652,5,0
384,184,164802,1,6
256,328,165102,5,0
344,296,165252,1,6
112,248,165552,5,4
56,144,165702,1,2
136,48,165852,1,0
248,104,166002,1,4
232,224,166152,1,2
112,248,166302,1,0
56,144,166452,1,6
456,136,166752,5,4
360,96,166902,1,2
360,200,167052,1,0
456,240,167202,2,2,B|416:312|344:360,1,160,6|0
232,328,167652,6,0,B|232:256,2,40,4|0|2
112,296,167952,2,0,B|112:224,2,40,0|0|2
112,176,168252,5,4
112,152,168327,1,0
112,128,168402,1,2
232,208,168552,1,0
232,184,168627,1,0
232,160,168702,1,2
352,200,168852,1,0
456,240,169002,1,0
456,120,169152,6,2,B|400:48|296:32,1,160,6|0
344,144,169602,2,2,B|272:112|184:120,1,160,6|0
72,168,170052,1,0
72,168,170127,1,0
72,168,170202,1,0
48,280,170352,6,2,B|104:352|208:368,1,160,6|0
168,240,170802,2,2,B|240:272|328:264,1,160,6|0
440,224,171252,1,0
440,104,171402,1,0
328,144,171552,6,0,B|240:120,1,80,6|0
104,80,171852,1,0
136,88,171927,1,0
168,96,172002,1,0
328,256,172152,6,0,B|240:232,1,80,6|0
104,200,172452,1,0
136,208,172527,1,0
168,216,172602,1,0
176,344,172752,5,6
296,328,172902,1,0
416,344,173052,1,2
400,224,173202,1,0
424,104,173352,2,6,B|352:64|264:56,1,160,6|0
48,200,173952,6,2,B|72:128|64:32,1,160,6|0
144,192,174402,2,2,B|168:272|160:368,1,160,6|0
264,256,174852,2,0,B|344:224,1,80,2|0
464,192,175152,5,4
456,216,175227,1,0
448,240,175302,1,0
264,48,175602,5,4
264,72,175677,1,0
264,96,175752,1,0
48,192,176052,5,4
56,216,176127,1,0
64,240,176202,1,0
200,328,176352,6,0,B|288:320,1,80,4|0
400,304,176652,1,2
432,192,176802,1,0
312,208,176952,2,0,B|224:216,1,80,2|0
112,224,177252,1,2
144,112,177402,1,0
264,104,177552,6,2,B|336:64|416:40,1,160,6|0
264,80,178002,2,2,B|192:40|112:16,1,160,6|0
40,88,178452,1,4
48,112,178527,1,0
56,136,178602,1,0
64,160,178677,1,0
72,184,178752,6,2,B|96:264|88:344,1,160,6|0
192,200,179202,2,2,B|216:120|208:40,1,160,6|0
304,16,179652,1,2
296,136,179802,1,0
392,64,179952,1,6
72,240,180252,6,0,B|24:240,2,40,4|0|0
200,240,180552,1,0
328,240,180702,1,0
456,240,180852,2,0,B|504:240,2,40,4|0|0
328,240,181152,6,2,B|360:152|320:56,1,160,6|0
200,16,181602,2,2,B|168:104|208:200,1,160,6|0
264,128,182052,1,0
384,336,182352,6,2,B|416:248|376:152,1,160,6|0
144,48,182802,2,2,B|112:136|152:232,1,160,6|0
264,192,183252,1,0
152,288,183552,6,0,B|192:304,3,40,4|0|0|0
208,296,183852,2,0,B|248:312,3,40,0|0|0|0
264,304,184152,2,0,B|304:320,3,40
320,312,184452,2,0,B|360:328,3,40,0|0|0|0
376,320,184752,5,4
64,320,185052,5,4
488,192,185352,1,4
64,64,185652,1,4
256,48,185952,6,2,B|208:184|304:296,2,240,6|2|2
392,184,187152,6,0,B|480:184,1,80,6|0
112,184,187452,2,0,B|24:184,1,80
416,160,187752,6,0,B|504:160,1,80,6|0
88,208,188052,2,0,B|0:208,1,80,2|0
256,48,188352,6,2,B|304:184|208:296,2,240,6|2|2
48,152,189552,5,6
64,144,189627,1,0
80,136,189702,1,0
200,232,189852,1,0
184,240,189927,1,0
168,248,190002,1,0
344,152,190152,5,6
328,144,190227,1,0
312,136,190302,1,0
448,224,190452,1,2
464,232,190527,1,0
480,240,190602,1,0
464,328,190752,5,6
336,344,190902,1,0
208,328,191052,1,0
80,336,191202,2,2,B|56:248|64:168,1,160,6|0
192,168,191652,1,2
192,168,191802,1,0
128,64,191952,5,6
248,64,192102,1,0
312,168,192252,1,0
248,272,192402,2,2,B|320:312|416:320,1,160,6|0
400,318,192852,1,2
464,104,193152,6,0,B|304:80|296:136|136:112,1,320,6|2
112,104,193827,1,0
120,136,193902,1,0
112,168,193977,1,0
88,184,194052,1,0
64,200,194127,1,0
56,232,194202,1,0
64,264,194277,1,0
80,288,194352,6,6,B|160:304,1,80,6|6
272,256,194652,2,0,B|288:168,1,80,4|0
424,232,194952,6,2,B|456:72,1,160
328,24,195402,1,0
200,40,195552,6,2,B|168:112|184:216,1,160,6|0
56,136,196002,2,2,B|72:216|136:280,1,160,6|0
248,344,196452,1,6
384,320,196602,1,0
296,216,196752,5,6
296,216,196902,1,0
432,184,197052,6,0,B|480:184,2,40,4|0|0
344,48,197352,1,2
184,80,197502,1,0
160,240,197652,2,0,B|112:240,2,40,4|0|0
248,344,197952,6,2,B|240:256|272:176,1,160,6|0
399,184,198402,2,2,B|427:115|419:27,1,160,6|0
256,32,198852,1,2
104,88,199002,1,0
160,240,199152,1,2
312,192,199302,1,4
256,32,199452,5,4
256,56,199527,1,0
256,80,199602,1,0
256,104,199677,1,0
256,128,199752,1,0
256,152,199827,1,0
256,176,199902,1,0
256,200,199977,1,0
256,224,200052,1,0
256,248,200127,1,0
256,272,200202,1,0
256,296,200277,1,0
256,320,200352,5,6
440,48,200652,1,0
472,136,200802,1,6
72,192,201102,5,0
40,280,201252,1,6
448,328,201552,1,6
256,32,202152,6,2,B|224:184|288:200|256:360,1,320,6|6
256,208,202827,12,4,203952
