osu file format v13

[General]
AudioFilename: DragonForce - Dawn Over A New World.mp3
AudioLeadIn: 0
PreviewTime: 155476
Countdown: 0
SampleSet: Soft
StackLeniency: 0.7
Mode: 3
LetterboxInBreaks: 0
SpecialStyle: 0
WidescreenStoryboard: 0

[Editor]
DistanceSpacing: 1.6
BeatDivisor: 4
GridSize: 8
TimelineZoom: 1.2

[Metadata]
Title:Dawn Over A New World
TitleUnicode:Dawn Over A New World
Artist:Dragonforce
ArtistUnicode:Dragonforce
Creator:Tidek
Version:New World
Source:
Tags:
BeatmapID:449999
BeatmapSetID:188848

[Difficulty]
HPDrainRate:8
CircleSize:4
OverallDifficulty:8.5
ApproachRate:5
SliderMultiplier:1.4
SliderTickRate:1

[Events]
//Background and Video events
0,0,"162235-3d-abstract-hdwallpaper-new-world.jpg",0,0
//Break Periods
//Storyboard Layer 0 (Background)
//Storyboard Layer 1 (Fail)
//Storyboard Layer 2 (Pass)
//Storyboard Layer 3 (Foreground)
//Storyboard Sound Samples
//Background Colour Transformations
3,100,163,162,255

[TimingPoints]
226,375,4,2,0,10,1,0
226,-133.333333333333,4,2,0,10,0,0
24226,-113.636363636364,4,2,0,10,0,0
48226,-100,4,2,0,10,0,0
246226,-133.333333333333,4,2,0,10,0,0
255038,-100,4,2,0,10,0,0
282226,-100,4,2,0,10,0,1
297226,-100,4,2,0,10,0,0
298726,419.58041958042,4,2,0,10,1,0
298726,-89.2857142857143,4,2,0,10,0,0
299984,576.920419580419,4,2,0,10,1,0
299984,-65.0026001040042,4,2,0,10,0,0
300560,697.674418604651,4,2,0,10,1,0
300560,-53.7518813158461,4,2,0,10,0,0
302653,375,4,2,0,10,1,0
302653,-100,4,2,0,10,0,0
302840,434.782608695652,4,2,0,10,1,0
302840,-86.2515094014145,4,2,0,10,0,0
303057,521.739130434783,4,2,0,10,1,0
303057,-71.8752246100769,4,2,0,10,0,0
303317,545.454545454546,4,2,0,10,1,0
303317,-68.7521485046408,4,2,0,10,0,0
303589,600,4,2,0,10,1,0
303589,-62.5,4,2,0,10,0,0
303889,869.565217391304,4,2,0,10,1,0
303889,-43.1257547007073,4,2,0,10,0,0
304323,869.565217391304,4,2,0,10,1,0
304323,-43.1034482758621,4,2,0,10,0,0

[HitObjects]
64,192,226,5,0,0:0:0:0:
448,192,226,1,0,0:0:0:0:
64,192,601,1,0,0:0:0:0:
192,192,788,1,0,0:0:0:0:
448,192,976,1,0,0:0:0:0:
320,192,1163,1,0,0:0:0:0:
192,192,1351,1,0,0:0:0:0:
320,192,1538,1,0,0:0:0:0:
64,192,1726,1,0,0:0:0:0:
448,192,1726,1,0,0:0:0:0:
192,192,1913,1,0,0:0:0:0:
320,192,2101,1,0,0:0:0:0:
448,192,2288,1,0,0:0:0:0:
64,192,2476,1,0,0:0:0:0:
320,192,2476,1,0,0:0:0:0:
192,192,2663,1,0,0:0:0:0:
320,192,2851,1,0,0:0:0:0:
448,192,3038,1,0,0:0:0:0:
64,192,3226,1,0,0:0:0:0:
192,192,3226,1,0,0:0:0:0:
448,192,3601,1,0,0:0:0:0:
192,192,3788,1,0,0:0:0:0:
64,192,3976,1,0,0:0:0:0:
192,192,4163,1,0,0:0:0:0:
320,192,4351,1,0,0:0:0:0:
448,192,4538,1,0,0:0:0:0:
192,192,4726,1,0,0:0:0:0:
320,192,4726,1,0,0:0:0:0:
320,192,4913,1,0,0:0:0:0:
64,192,5101,1,0,0:0:0:0:
192,192,5288,1,0,0:0:0:0:
448,192,5476,1,0,0:0:0:0:
320,192,5663,1,0,0:0:0:0:
192,192,5851,1,0,0:0:0:0:
64,192,6038,1,0,0:0:0:0:
192,192,6226,1,0,0:0:0:0:
448,192,6226,1,0,0:0:0:0:
192,192,6413,1,0,0:0:0:0:
448,192,6601,1,0,0:0:0:0:
320,192,6788,1,0,0:0:0:0:
64,192,6976,1,0,0:0:0:0:
192,192,7163,1,0,0:0:0:0:
320,192,7351,1,0,0:0:0:0:
448,192,7538,1,0,0:0:0:0:
64,192,7726,1,0,0:0:0:0:
320,192,7726,1,0,0:0:0:0:
320,192,7913,1,0,0:0:0:0:
64,192,8101,1,0,0:0:0:0:
192,192,8288,1,0,0:0:0:0:
448,192,8476,1,0,0:0:0:0:
320,192,8663,1,0,0:0:0:0:
192,192,8851,1,0,0:0:0:0:
64,192,9038,1,0,0:0:0:0:
192,192,9226,1,0,0:0:0:0:
448,192,9226,1,0,0:0:0:0:
320,192,9413,1,0,0:0:0:0:
64,192,9601,1,0,0:0:0:0:
192,192,9788,1,0,0:0:0:0:
320,192,9976,1,0,0:0:0:0:
192,192,10351,1,0,0:0:0:0:
448,192,10726,1,0,0:0:0:0:
320,192,10913,1,0,0:0:0:0:
64,192,11101,1,0,0:0:0:0:
192,192,11288,1,0,0:0:0:0:
320,192,11476,1,0,0:0:0:0:
64,192,11851,1,0,0:0:0:0:
64,192,12226,1,0,0:0:0:0:
448,192,12226,1,0,0:0:0:0:
320,192,12288,1,0,0:0:0:0:
448,192,12351,1,0,0:0:0:0:
320,192,12413,1,0,0:0:0:0:
448,192,12476,1,0,0:0:0:0:
320,192,12538,1,0,0:0:0:0:
192,192,12601,1,0,0:0:0:0:
320,192,12788,1,0,0:0:0:0:
64,192,12976,1,0,0:0:0:0:
320,192,13163,1,0,0:0:0:0:
192,192,13351,1,0,0:0:0:0:
448,192,13538,1,0,0:0:0:0:
64,192,13726,1,0,0:0:0:0:
192,192,13726,1,0,0:0:0:0:
448,192,13913,1,0,0:0:0:0:
320,192,14101,1,0,0:0:0:0:
192,192,14288,1,0,0:0:0:0:
64,192,14476,1,0,0:0:0:0:
320,192,14476,1,0,0:0:0:0:
448,192,14663,1,0,0:0:0:0:
320,192,14851,1,0,0:0:0:0:
192,192,15038,1,0,0:0:0:0:
64,192,15226,1,0,0:0:0:0:
448,192,15226,1,0,0:0:0:0:
320,192,15413,1,0,0:0:0:0:
320,192,15601,1,0,0:0:0:0:
64,192,15788,1,0,0:0:0:0:
448,192,15976,1,0,0:0:0:0:
192,192,16163,1,0,0:0:0:0:
320,192,16351,1,0,0:0:0:0:
64,192,16538,1,0,0:0:0:0:
320,192,16726,1,0,0:0:0:0:
448,192,16726,1,0,0:0:0:0:
320,192,16913,1,0,0:0:0:0:
64,192,17101,1,0,0:0:0:0:
192,192,17288,1,0,0:0:0:0:
448,192,17476,1,0,0:0:0:0:
320,192,17663,1,0,0:0:0:0:
192,192,17851,1,0,0:0:0:0:
64,192,18038,1,0,0:0:0:0:
192,192,18226,1,0,0:0:0:0:
320,192,18226,1,0,0:0:0:0:
192,192,18413,1,0,0:0:0:0:
448,192,18601,1,0,0:0:0:0:
320,192,18788,1,0,0:0:0:0:
64,192,18976,1,0,0:0:0:0:
192,192,19163,1,0,0:0:0:0:
320,192,19351,1,0,0:0:0:0:
448,192,19538,1,0,0:0:0:0:
192,192,19726,1,0,0:0:0:0:
320,192,19726,1,0,0:0:0:0:
192,192,19913,1,0,0:0:0:0:
448,192,20101,1,0,0:0:0:0:
320,192,20288,1,0,0:0:0:0:
64,192,20476,1,0,0:0:0:0:
192,192,20663,1,0,0:0:0:0:
320,192,20851,1,0,0:0:0:0:
448,192,21038,1,0,0:0:0:0:
64,192,21226,1,0,0:0:0:0:
320,192,21226,1,0,0:0:0:0:
192,192,21413,1,0,0:0:0:0:
448,192,21601,1,0,0:0:0:0:
320,192,21788,1,0,0:0:0:0:
192,192,21976,1,0,0:0:0:0:
320,192,22351,1,0,0:0:0:0:
64,192,22726,1,0,0:0:0:0:
192,192,22913,1,0,0:0:0:0:
448,192,23101,1,0,0:0:0:0:
320,192,23288,1,0,0:0:0:0:
192,192,23476,1,0,0:0:0:0:
448,192,23851,1,0,0:0:0:0:
64,192,24226,1,0,0:0:0:0:
448,192,24226,1,0,0:0:0:0:
320,192,24788,1,0,0:0:0:0:
64,192,24976,1,0,0:0:0:0:
448,192,24976,1,0,0:0:0:0:
64,192,25351,1,0,0:0:0:0:
320,192,25538,1,0,0:0:0:0:
192,192,25726,1,0,0:0:0:0:
448,192,25726,1,0,0:0:0:0:
320,192,26101,1,0,0:0:0:0:
192,192,26288,1,0,0:0:0:0:
64,192,26288,1,0,0:0:0:0:
320,192,26476,1,0,0:0:0:0:
192,192,26663,1,0,0:0:0:0:
320,192,26851,1,0,0:0:0:0:
64,192,27226,1,0,0:0:0:0:
448,192,27226,1,0,0:0:0:0:
192,192,27788,1,0,0:0:0:0:
64,192,27976,1,0,0:0:0:0:
448,192,27976,1,0,0:0:0:0:
192,192,28351,1,0,0:0:0:0:
320,192,28538,1,0,0:0:0:0:
64,192,28726,1,0,0:0:0:0:
448,192,28726,1,0,0:0:0:0:
192,192,28913,1,0,0:0:0:0:
320,192,29101,1,0,0:0:0:0:
448,192,29288,1,0,0:0:0:0:
192,192,29476,1,0,0:0:0:0:
320,192,29663,1,0,0:0:0:0:
448,192,29851,1,0,0:0:0:0:
64,192,30226,1,0,0:0:0:0:
448,192,30226,1,0,0:0:0:0:
192,192,30788,1,0,0:0:0:0:
64,192,30976,1,0,0:0:0:0:
448,192,30976,1,0,0:0:0:0:
320,192,31351,1,0,0:0:0:0:
192,192,31538,1,0,0:0:0:0:
320,192,31726,1,0,0:0:0:0:
448,192,31726,1,0,0:0:0:0:
192,192,31913,1,0,0:0:0:0:
448,192,32101,1,0,0:0:0:0:
320,192,32288,1,0,0:0:0:0:
64,192,32476,1,0,0:0:0:0:
192,192,32476,1,0,0:0:0:0:
320,192,32663,1,0,0:0:0:0:
192,192,32851,1,0,0:0:0:0:
320,192,33038,1,0,0:0:0:0:
64,192,33226,1,0,0:0:0:0:
448,192,33226,1,0,0:0:0:0:
192,192,33788,1,0,0:0:0:0:
64,192,33976,1,0,0:0:0:0:
448,192,33976,1,0,0:0:0:0:
320,192,34351,1,0,0:0:0:0:
192,192,34538,1,0,0:0:0:0:
64,192,34726,1,0,0:0:0:0:
448,192,34726,1,0,0:0:0:0:
192,192,34913,1,0,0:0:0:0:
320,192,35101,1,0,0:0:0:0:
64,192,35101,1,0,0:0:0:0:
448,192,35288,1,0,0:0:0:0:
320,192,35288,1,0,0:0:0:0:
64,192,35476,1,0,0:0:0:0:
192,192,35476,1,0,0:0:0:0:
320,192,35851,1,0,0:0:0:0:
192,192,36038,1,0,0:0:0:0:
64,192,36226,1,0,0:0:0:0:
448,192,36226,1,0,0:0:0:0:
192,192,36788,1,0,0:0:0:0:
64,192,36976,1,0,0:0:0:0:
448,192,36976,1,0,0:0:0:0:
192,192,37538,1,0,0:0:0:0:
448,192,37726,1,0,0:0:0:0:
320,192,37726,1,0,0:0:0:0:
64,192,38101,1,0,0:0:0:0:
448,192,38288,1,0,0:0:0:0:
320,192,38288,1,0,0:0:0:0:
192,192,38476,1,0,0:0:0:0:
320,192,38851,1,0,0:0:0:0:
64,192,39226,1,0,0:0:0:0:
448,192,39226,1,0,0:0:0:0:
192,192,39226,1,0,0:0:0:0:
192,192,39788,1,0,0:0:0:0:
64,192,39976,1,0,0:0:0:0:
448,192,39976,1,0,0:0:0:0:
320,192,40351,1,0,0:0:0:0:
192,192,40538,1,0,0:0:0:0:
64,192,40538,1,0,0:0:0:0:
320,192,40726,1,0,0:0:0:0:
448,192,40913,1,0,0:0:0:0:
192,192,40913,1,0,0:0:0:0:
320,192,41101,1,0,0:0:0:0:
64,192,41288,1,0,0:0:0:0:
448,192,41288,1,0,0:0:0:0:
320,192,41476,1,0,0:0:0:0:
192,192,41663,1,0,0:0:0:0:
64,192,41663,1,0,0:0:0:0:
448,192,41851,1,0,0:0:0:0:
64,192,42038,1,0,0:0:0:0:
192,192,42226,1,0,0:0:0:0:
320,192,42226,1,0,0:0:0:0:
448,192,42226,1,0,0:0:0:0:
448,192,42788,1,0,0:0:0:0:
192,192,42976,1,0,0:0:0:0:
320,192,42976,1,0,0:0:0:0:
64,192,43351,1,0,0:0:0:0:
192,192,43538,1,0,0:0:0:0:
64,192,43726,1,0,0:0:0:0:
448,192,43726,1,0,0:0:0:0:
320,192,43726,1,0,0:0:0:0:
320,192,44288,1,0,0:0:0:0:
64,192,44476,1,0,0:0:0:0:
448,192,44476,1,0,0:0:0:0:
448,192,44851,1,0,0:0:0:0:
192,192,45226,1,0,0:0:0:0:
320,192,45226,1,0,0:0:0:0:
64,192,45226,1,0,0:0:0:0:
64,192,45788,1,0,0:0:0:0:
192,192,45976,1,0,0:0:0:0:
320,192,45976,1,0,0:0:0:0:
448,192,46351,1,0,0:0:0:0:
320,192,46538,1,0,0:0:0:0:
448,192,46726,1,0,0:0:0:0:
64,192,46726,128,0,48226:0:0:0:0:
192,192,46726,1,0,0:0:0:0:
448,192,47288,1,0,0:0:0:0:
320,192,47476,1,0,0:0:0:0:
320,192,47851,1,0,0:0:0:0:
192,192,48226,1,0,0:0:0:0:
320,192,48226,128,0,51038:0:0:0:0:
448,192,48226,128,0,51038:0:0:0:0:
192,192,48601,1,0,0:0:0:0:
64,192,48788,1,0,0:0:0:0:
64,192,48976,1,0,0:0:0:0:
192,192,48976,1,0,0:0:0:0:
192,192,49351,128,0,50101:0:0:0:0:
64,192,49726,1,0,0:0:0:0:
64,192,50101,1,0,0:0:0:0:
192,192,50288,1,0,0:0:0:0:
64,192,50476,1,0,0:0:0:0:
192,192,50476,1,0,0:0:0:0:
64,192,50663,1,0,0:0:0:0:
192,192,50851,1,0,0:0:0:0:
64,192,51038,1,0,0:0:0:0:
64,192,51226,1,0,0:0:0:0:
448,192,51226,128,0,51976:0:0:0:0:
320,192,51601,1,0,0:0:0:0:
192,192,51788,1,0,0:0:0:0:
64,192,51976,1,0,0:0:0:0:
320,192,51976,1,0,0:0:0:0:
192,192,52351,128,0,53101:0:0:0:0:
448,192,52351,1,0,0:0:0:0:
320,192,52726,1,0,0:0:0:0:
64,192,53101,1,0,0:0:0:0:
192,192,53288,1,0,0:0:0:0:
320,192,53476,1,0,0:0:0:0:
448,192,53476,1,0,0:0:0:0:
192,192,53663,1,0,0:0:0:0:
320,192,53851,1,0,0:0:0:0:
192,192,54038,1,0,0:0:0:0:
64,192,54226,128,0,54976:0:0:0:0:
448,192,54226,1,0,0:0:0:0:
192,192,54601,1,0,0:0:0:0:
320,192,54788,1,0,0:0:0:0:
448,192,54851,1,0,0:0:0:0:
192,192,54913,1,0,0:0:0:0:
320,192,54976,1,0,0:0:0:0:
192,192,55351,128,0,56476:0:0:0:0:
320,192,55351,1,0,0:0:0:0:
448,192,55726,1,0,0:0:0:0:
320,192,56101,1,0,0:0:0:0:
448,192,56288,1,0,0:0:0:0:
64,192,56476,1,0,0:0:0:0:
320,192,56476,1,0,0:0:0:0:
64,192,56663,1,0,0:0:0:0:
320,192,56663,1,0,0:0:0:0:
192,192,56851,1,0,0:0:0:0:
448,192,56851,1,0,0:0:0:0:
192,192,57038,1,0,0:0:0:0:
448,192,57038,1,0,0:0:0:0:
448,192,57226,1,0,0:0:0:0:
64,192,57226,128,0,57976:0:0:0:0:
192,192,57601,1,0,0:0:0:0:
320,192,57788,1,0,0:0:0:0:
192,192,57976,1,0,0:0:0:0:
448,192,57976,1,0,0:0:0:0:
64,192,58351,1,0,0:0:0:0:
320,192,58351,128,0,59101:0:0:0:0:
192,192,58726,1,0,0:0:0:0:
64,192,58913,1,0,0:0:0:0:
448,192,58913,1,0,0:0:0:0:
192,192,59101,1,0,0:0:0:0:
448,192,59101,1,0,0:0:0:0:
448,192,59288,1,0,0:0:0:0:
320,192,59351,1,0,0:0:0:0:
192,192,59413,1,0,0:0:0:0:
320,192,59476,1,0,0:0:0:0:
448,192,59476,1,0,0:0:0:0:
64,192,59663,1,0,0:0:0:0:
192,192,59663,1,0,0:0:0:0:
192,192,59851,1,0,0:0:0:0:
320,192,59851,1,0,0:0:0:0:
64,192,60038,1,0,0:0:0:0:
448,192,60038,1,0,0:0:0:0:
320,192,60226,1,0,0:0:0:0:
64,192,60226,1,0,0:0:0:0:
448,192,60226,128,0,60976:0:0:0:0:
192,192,60601,1,0,0:0:0:0:
320,192,60788,1,0,0:0:0:0:
64,192,60976,1,0,0:0:0:0:
192,192,60976,1,0,0:0:0:0:
320,192,61351,128,0,62101:0:0:0:0:
448,192,61351,1,0,0:0:0:0:
192,192,61726,1,0,0:0:0:0:
64,192,61913,1,0,0:0:0:0:
448,192,61913,1,0,0:0:0:0:
192,192,62101,1,0,0:0:0:0:
448,192,62288,1,0,0:0:0:0:
320,192,62351,1,0,0:0:0:0:
192,192,62413,1,0,0:0:0:0:
64,192,62476,1,0,0:0:0:0:
192,192,62663,1,0,0:0:0:0:
448,192,62663,1,0,0:0:0:0:
320,192,62851,1,0,0:0:0:0:
192,192,62851,1,0,0:0:0:0:
320,192,63038,1,0,0:0:0:0:
64,192,63038,1,0,0:0:0:0:
320,192,63226,1,0,0:0:0:0:
64,192,63226,1,0,0:0:0:0:
448,192,63226,128,0,63976:0:0:0:0:
64,192,63601,1,0,0:0:0:0:
192,192,63788,1,0,0:0:0:0:
320,192,63976,1,0,0:0:0:0:
64,192,63976,1,0,0:0:0:0:
192,192,64351,128,0,65101:0:0:0:0:
64,192,64351,1,0,0:0:0:0:
448,192,64726,1,0,0:0:0:0:
320,192,65101,1,0,0:0:0:0:
448,192,65288,1,0,0:0:0:0:
192,192,65476,1,0,0:0:0:0:
320,192,65476,1,0,0:0:0:0:
64,192,65663,1,0,0:0:0:0:
320,192,65851,1,0,0:0:0:0:
448,192,66038,1,0,0:0:0:0:
192,192,66226,1,0,0:0:0:0:
64,192,66226,1,0,0:0:0:0:
320,192,66413,1,0,0:0:0:0:
320,192,66601,128,0,68476:0:0:0:0:
192,192,66788,1,0,0:0:0:0:
64,192,66976,1,0,0:0:0:0:
448,192,66976,1,0,0:0:0:0:
192,192,67351,1,0,0:0:0:0:
64,192,67726,1,0,0:0:0:0:
448,192,68101,1,0,0:0:0:0:
192,192,68288,1,0,0:0:0:0:
64,192,68476,1,0,0:0:0:0:
448,192,68476,1,0,0:0:0:0:
64,192,68663,1,0,0:0:0:0:
448,192,68663,1,0,0:0:0:0:
192,192,68851,1,0,0:0:0:0:
320,192,68851,1,0,0:0:0:0:
192,192,69038,1,0,0:0:0:0:
320,192,69038,1,0,0:0:0:0:
64,192,69226,128,0,69976:0:0:0:0:
448,192,69226,1,0,0:0:0:0:
320,192,69601,1,0,0:0:0:0:
192,192,69694,1,0,0:0:0:0:
320,192,69788,1,0,0:0:0:0:
448,192,69882,1,0,0:0:0:0:
192,192,69976,1,0,0:0:0:0:
320,192,69976,1,0,0:0:0:0:
64,192,70351,1,0,0:0:0:0:
448,192,70351,128,0,71851:0:0:0:0:
192,192,70726,1,0,0:0:0:0:
64,192,70913,1,0,0:0:0:0:
320,192,70913,1,0,0:0:0:0:
192,192,71101,1,0,0:0:0:0:
64,192,71288,1,0,0:0:0:0:
192,192,71351,1,0,0:0:0:0:
320,192,71413,1,0,0:0:0:0:
192,192,71476,1,0,0:0:0:0:
192,192,71663,1,0,0:0:0:0:
64,192,71851,1,0,0:0:0:0:
320,192,71851,1,0,0:0:0:0:
64,192,72038,1,0,0:0:0:0:
320,192,72038,1,0,0:0:0:0:
192,192,72226,1,0,0:0:0:0:
64,192,72226,1,0,0:0:0:0:
448,192,72226,1,0,0:0:0:0:
448,192,72601,1,0,0:0:0:0:
192,192,72976,1,0,0:0:0:0:
320,192,72976,1,0,0:0:0:0:
448,192,73351,1,0,0:0:0:0:
64,192,73538,1,0,0:0:0:0:
448,192,73726,1,0,0:0:0:0:
64,192,74101,1,0,0:0:0:0:
320,192,74288,1,0,0:0:0:0:
64,192,74476,1,0,0:0:0:0:
192,192,74476,1,0,0:0:0:0:
448,192,74851,1,0,0:0:0:0:
320,192,75038,1,0,0:0:0:0:
64,192,75226,1,0,0:0:0:0:
448,192,75226,1,0,0:0:0:0:
192,192,75601,1,0,0:0:0:0:
64,192,75976,1,0,0:0:0:0:
320,192,75976,1,0,0:0:0:0:
448,192,76351,1,0,0:0:0:0:
320,192,76538,1,0,0:0:0:0:
448,192,76726,1,0,0:0:0:0:
64,192,77101,1,0,0:0:0:0:
448,192,77476,1,0,0:0:0:0:
192,192,77476,1,0,0:0:0:0:
320,192,77851,1,0,0:0:0:0:
64,192,78226,1,0,0:0:0:0:
320,192,78226,1,0,0:0:0:0:
192,192,78601,1,0,0:0:0:0:
64,192,78976,1,0,0:0:0:0:
448,192,78976,1,0,0:0:0:0:
320,192,79351,1,0,0:0:0:0:
192,192,79538,1,0,0:0:0:0:
320,192,79726,1,0,0:0:0:0:
64,192,80101,1,0,0:0:0:0:
320,192,80476,1,0,0:0:0:0:
448,192,80476,1,0,0:0:0:0:
192,192,80851,1,0,0:0:0:0:
320,192,81038,1,0,0:0:0:0:
448,192,81226,1,0,0:0:0:0:
64,192,81601,1,0,0:0:0:0:
192,192,81976,1,0,0:0:0:0:
320,192,81976,1,0,0:0:0:0:
448,192,82351,1,0,0:0:0:0:
320,192,82538,1,0,0:0:0:0:
192,192,82726,1,0,0:0:0:0:
448,192,83101,1,0,0:0:0:0:
64,192,83288,1,0,0:0:0:0:
320,192,83351,1,0,0:0:0:0:
192,192,83413,1,0,0:0:0:0:
64,192,83476,1,0,0:0:0:0:
448,192,83476,1,0,0:0:0:0:
320,192,83663,1,0,0:0:0:0:
448,192,83851,1,0,0:0:0:0:
192,192,84226,1,0,0:0:0:0:
320,192,84226,1,0,0:0:0:0:
448,192,84601,1,0,0:0:0:0:
64,192,84976,1,0,0:0:0:0:
320,192,84976,1,0,0:0:0:0:
192,192,85351,1,0,0:0:0:0:
320,192,85538,1,0,0:0:0:0:
448,192,85538,1,0,0:0:0:0:
64,192,85726,1,0,0:0:0:0:
448,192,86101,1,0,0:0:0:0:
320,192,86288,1,0,0:0:0:0:
64,192,86476,1,0,0:0:0:0:
192,192,86476,1,0,0:0:0:0:
320,192,86851,1,0,0:0:0:0:
192,192,87038,1,0,0:0:0:0:
64,192,87226,1,0,0:0:0:0:
448,192,87226,1,0,0:0:0:0:
320,192,87601,1,0,0:0:0:0:
448,192,87788,1,0,0:0:0:0:
192,192,87976,1,0,0:0:0:0:
320,192,87976,1,0,0:0:0:0:
192,192,88351,1,0,0:0:0:0:
64,192,88538,1,0,0:0:0:0:
320,192,88538,1,0,0:0:0:0:
192,192,88726,1,0,0:0:0:0:
320,192,88913,1,0,0:0:0:0:
448,192,88913,1,0,0:0:0:0:
192,192,89101,1,0,0:0:0:0:
64,192,89288,1,0,0:0:0:0:
448,192,89288,1,0,0:0:0:0:
192,192,89476,1,0,0:0:0:0:
320,192,89476,1,0,0:0:0:0:
64,192,89663,1,0,0:0:0:0:
448,192,89851,1,0,0:0:0:0:
192,192,90038,1,0,0:0:0:0:
320,192,90226,1,0,0:0:0:0:
64,192,90226,1,0,0:0:0:0:
192,192,90601,1,0,0:0:0:0:
192,192,90788,1,0,0:0:0:0:
64,192,90976,1,0,0:0:0:0:
448,192,90976,1,0,0:0:0:0:
320,192,91351,1,0,0:0:0:0:
64,192,91538,1,0,0:0:0:0:
192,192,91538,1,0,0:0:0:0:
320,192,91726,1,0,0:0:0:0:
448,192,91726,1,0,0:0:0:0:
192,192,92101,1,0,0:0:0:0:
192,192,92288,1,0,0:0:0:0:
64,192,92476,1,0,0:0:0:0:
448,192,92476,1,0,0:0:0:0:
320,192,92851,1,0,0:0:0:0:
448,192,93038,1,0,0:0:0:0:
320,192,93132,1,0,0:0:0:0:
64,192,93226,1,0,0:0:0:0:
192,192,93226,1,0,0:0:0:0:
448,192,93601,1,0,0:0:0:0:
448,192,93788,1,0,0:0:0:0:
64,192,93976,1,0,0:0:0:0:
320,192,93976,1,0,0:0:0:0:
448,192,94351,1,0,0:0:0:0:
320,192,94444,1,0,0:0:0:0:
192,192,94538,1,0,0:0:0:0:
64,192,94632,1,0,0:0:0:0:
192,192,94726,1,0,0:0:0:0:
320,192,94726,1,0,0:0:0:0:
64,192,94913,1,0,0:0:0:0:
320,192,95101,1,0,0:0:0:0:
64,192,95288,1,0,0:0:0:0:
192,192,95476,1,0,0:0:0:0:
448,192,95476,1,0,0:0:0:0:
320,192,95663,1,0,0:0:0:0:
192,192,95851,1,0,0:0:0:0:
320,192,96038,1,0,0:0:0:0:
192,192,96226,1,0,0:0:0:0:
448,192,96226,1,0,0:0:0:0:
64,192,96226,128,0,97726:0:0:0:0:
320,192,96601,1,0,0:0:0:0:
192,192,96976,1,0,0:0:0:0:
448,192,96976,1,0,0:0:0:0:
320,192,97351,1,0,0:0:0:0:
448,192,97538,1,0,0:0:0:0:
192,192,97726,1,0,0:0:0:0:
320,192,97726,1,0,0:0:0:0:
192,192,97913,1,0,0:0:0:0:
320,192,97913,1,0,0:0:0:0:
448,192,98288,1,0,0:0:0:0:
320,192,98351,1,0,0:0:0:0:
448,192,98413,1,0,0:0:0:0:
192,192,98476,1,0,0:0:0:0:
64,192,98476,128,0,99226:0:0:0:0:
320,192,98851,1,0,0:0:0:0:
320,192,99038,1,0,0:0:0:0:
192,192,99226,128,0,100726:0:0:0:0:
448,192,99226,1,0,0:0:0:0:
448,192,99601,1,0,0:0:0:0:
320,192,99788,1,0,0:0:0:0:
64,192,99976,1,0,0:0:0:0:
448,192,99976,1,0,0:0:0:0:
320,192,100351,1,0,0:0:0:0:
448,192,100538,1,0,0:0:0:0:
320,192,100726,1,0,0:0:0:0:
64,192,100726,128,0,101476:0:0:0:0:
192,192,101101,1,0,0:0:0:0:
448,192,101288,1,0,0:0:0:0:
320,192,101382,1,0,0:0:0:0:
192,192,101476,1,0,0:0:0:0:
448,192,101476,1,0,0:0:0:0:
320,192,101663,1,0,0:0:0:0:
448,192,101851,1,0,0:0:0:0:
192,192,102226,1,0,0:0:0:0:
320,192,102226,1,0,0:0:0:0:
64,192,102226,128,0,103726:0:0:0:0:
448,192,102601,1,0,0:0:0:0:
192,192,102976,1,0,0:0:0:0:
320,192,102976,1,0,0:0:0:0:
448,192,103351,1,0,0:0:0:0:
320,192,103538,1,0,0:0:0:0:
192,192,103726,1,0,0:0:0:0:
448,192,103726,1,0,0:0:0:0:
192,192,103913,1,0,0:0:0:0:
448,192,103913,1,0,0:0:0:0:
64,192,104288,1,0,0:0:0:0:
320,192,104288,1,0,0:0:0:0:
320,192,104476,1,0,0:0:0:0:
64,192,104476,128,0,105226:0:0:0:0:
192,192,104851,1,0,0:0:0:0:
320,192,105038,1,0,0:0:0:0:
448,192,105226,128,0,106726:0:0:0:0:
192,192,105226,1,0,0:0:0:0:
320,192,105601,1,0,0:0:0:0:
64,192,105788,1,0,0:0:0:0:
192,192,105851,1,0,0:0:0:0:
64,192,105913,1,0,0:0:0:0:
192,192,105976,1,0,0:0:0:0:
320,192,105976,1,0,0:0:0:0:
64,192,106351,1,0,0:0:0:0:
320,192,106538,1,0,0:0:0:0:
192,192,106601,1,0,0:0:0:0:
320,192,106663,1,0,0:0:0:0:
64,192,106726,1,0,0:0:0:0:
192,192,106726,1,0,0:0:0:0:
320,192,106913,1,0,0:0:0:0:
448,192,106913,1,0,0:0:0:0:
192,192,107288,1,0,0:0:0:0:
320,192,107351,1,0,0:0:0:0:
192,192,107413,1,0,0:0:0:0:
320,192,107476,1,0,0:0:0:0:
448,192,107476,1,0,0:0:0:0:
64,192,107663,1,0,0:0:0:0:
192,192,107663,1,0,0:0:0:0:
64,192,108226,1,0,0:0:0:0:
448,192,108226,128,0,109726:0:0:0:0:
192,192,108601,1,0,0:0:0:0:
64,192,108976,1,0,0:0:0:0:
320,192,108976,1,0,0:0:0:0:
192,192,109351,1,0,0:0:0:0:
64,192,109538,1,0,0:0:0:0:
320,192,109726,1,0,0:0:0:0:
192,192,109726,1,0,0:0:0:0:
320,192,109913,1,0,0:0:0:0:
192,192,109913,1,0,0:0:0:0:
64,192,110288,1,0,0:0:0:0:
448,192,110288,1,0,0:0:0:0:
448,192,110476,1,0,0:0:0:0:
64,192,110476,128,0,111226:0:0:0:0:
320,192,110851,1,0,0:0:0:0:
192,192,111038,1,0,0:0:0:0:
448,192,111226,1,0,0:0:0:0:
320,192,111226,128,0,112726:0:0:0:0:
192,192,111601,1,0,0:0:0:0:
64,192,111788,1,0,0:0:0:0:
192,192,111976,1,0,0:0:0:0:
448,192,111976,1,0,0:0:0:0:
192,192,112351,1,0,0:0:0:0:
64,192,112538,1,0,0:0:0:0:
448,192,112538,1,0,0:0:0:0:
192,192,112726,1,0,0:0:0:0:
64,192,113101,1,0,0:0:0:0:
320,192,113288,1,0,0:0:0:0:
448,192,113288,1,0,0:0:0:0:
64,192,113476,1,0,0:0:0:0:
192,192,113663,1,0,0:0:0:0:
320,192,113851,1,0,0:0:0:0:
448,192,114038,1,0,0:0:0:0:
192,192,114226,1,0,0:0:0:0:
320,192,114226,1,0,0:0:0:0:
64,192,114226,128,0,115726:0:0:0:0:
448,192,114601,1,0,0:0:0:0:
192,192,114976,1,0,0:0:0:0:
320,192,114976,1,0,0:0:0:0:
448,192,115351,1,0,0:0:0:0:
192,192,115538,1,0,0:0:0:0:
320,192,115726,1,0,0:0:0:0:
448,192,115726,1,0,0:0:0:0:
320,192,115913,1,0,0:0:0:0:
448,192,115913,1,0,0:0:0:0:
64,192,116288,1,0,0:0:0:0:
192,192,116288,1,0,0:0:0:0:
64,192,116476,1,0,0:0:0:0:
192,192,116476,128,0,117226:0:0:0:0:
448,192,116851,1,0,0:0:0:0:
320,192,117038,1,0,0:0:0:0:
64,192,117226,1,0,0:0:0:0:
448,192,117226,128,0,118726:0:0:0:0:
64,192,117601,1,0,0:0:0:0:
192,192,117788,1,0,0:0:0:0:
64,192,117976,1,0,0:0:0:0:
320,192,117976,1,0,0:0:0:0:
64,192,118351,1,0,0:0:0:0:
320,192,118538,1,0,0:0:0:0:
192,192,118632,1,0,0:0:0:0:
64,192,118726,1,0,0:0:0:0:
320,192,118726,1,0,0:0:0:0:
192,192,118851,1,0,0:0:0:0:
64,192,118976,1,0,0:0:0:0:
448,192,119101,1,0,0:0:0:0:
64,192,119226,1,0,0:0:0:0:
192,192,119351,1,0,0:0:0:0:
64,192,119476,1,0,0:0:0:0:
448,192,119476,1,0,0:0:0:0:
320,192,119601,1,0,0:0:0:0:
448,192,119726,1,0,0:0:0:0:
64,192,119851,1,0,0:0:0:0:
448,192,119976,1,0,0:0:0:0:
320,192,120101,1,0,0:0:0:0:
192,192,120226,1,0,0:0:0:0:
448,192,120226,1,0,0:0:0:0:
64,192,120226,128,0,121726:0:0:0:0:
448,192,120601,1,0,0:0:0:0:
320,192,120976,1,0,0:0:0:0:
192,192,120976,1,0,0:0:0:0:
448,192,121351,1,0,0:0:0:0:
320,192,121538,1,0,0:0:0:0:
192,192,121726,128,0,123226:0:0:0:0:
448,192,121726,1,0,0:0:0:0:
64,192,122101,1,0,0:0:0:0:
448,192,122476,1,0,0:0:0:0:
320,192,122476,1,0,0:0:0:0:
64,192,122851,1,0,0:0:0:0:
448,192,123038,1,0,0:0:0:0:
64,192,123226,1,0,0:0:0:0:
320,192,123226,128,0,124726:0:0:0:0:
448,192,123601,1,0,0:0:0:0:
192,192,123788,1,0,0:0:0:0:
64,192,123976,1,0,0:0:0:0:
448,192,123976,1,0,0:0:0:0:
64,192,124351,1,0,0:0:0:0:
192,192,124538,1,0,0:0:0:0:
64,192,124726,1,0,0:0:0:0:
448,192,124726,128,0,126226:0:0:0:0:
320,192,125101,1,0,0:0:0:0:
64,192,125288,1,0,0:0:0:0:
317,192,125382,1,0,0:0:0:0:
192,192,125429,1,0,0:0:0:0:
64,192,125476,1,0,0:0:0:0:
192,192,125851,1,0,0:0:0:0:
64,192,126226,1,0,0:0:0:0:
320,192,126226,1,0,0:0:0:0:
320,192,126601,1,0,0:0:0:0:
192,192,126788,1,0,0:0:0:0:
320,192,126976,1,0,0:0:0:0:
448,192,126976,1,0,0:0:0:0:
64,192,127163,1,0,0:0:0:0:
320,192,127351,1,0,0:0:0:0:
192,192,127538,1,0,0:0:0:0:
448,192,127726,1,0,0:0:0:0:
320,192,127726,1,0,0:0:0:0:
64,192,128101,1,0,0:0:0:0:
192,192,128288,1,0,0:0:0:0:
64,192,128476,1,0,0:0:0:0:
320,192,128476,1,0,0:0:0:0:
448,192,128851,1,0,0:0:0:0:
448,192,129038,1,0,0:0:0:0:
64,192,129226,1,0,0:0:0:0:
192,192,129226,1,0,0:0:0:0:
320,192,129601,1,0,0:0:0:0:
192,192,129788,1,0,0:0:0:0:
64,192,129976,1,0,0:0:0:0:
448,192,129976,1,0,0:0:0:0:
192,192,130351,1,0,0:0:0:0:
320,192,130351,1,0,0:0:0:0:
64,192,130726,1,0,0:0:0:0:
320,192,130851,1,0,0:0:0:0:
192,192,130976,1,0,0:0:0:0:
448,192,131101,1,0,0:0:0:0:
192,192,131226,1,0,0:0:0:0:
320,192,131351,1,0,0:0:0:0:
64,192,131476,1,0,0:0:0:0:
448,192,131601,1,0,0:0:0:0:
192,192,131726,1,0,0:0:0:0:
448,192,131851,1,0,0:0:0:0:
64,192,131976,1,0,0:0:0:0:
320,192,132101,1,0,0:0:0:0:
192,192,132226,1,0,0:0:0:0:
448,192,132226,1,0,0:0:0:0:
64,192,132226,128,0,132976:0:0:0:0:
448,192,132601,1,0,0:0:0:0:
192,192,132976,1,0,0:0:0:0:
320,192,132976,1,0,0:0:0:0:
192,192,133351,128,0,134851:0:0:0:0:
448,192,133351,1,0,0:0:0:0:
448,192,133726,1,0,0:0:0:0:
448,192,134101,1,0,0:0:0:0:
320,192,134226,1,0,0:0:0:0:
448,192,134288,1,0,0:0:0:0:
64,192,134351,1,0,0:0:0:0:
320,192,134476,1,0,0:0:0:0:
448,192,134476,1,0,0:0:0:0:
64,192,134851,1,0,0:0:0:0:
320,192,134851,1,0,0:0:0:0:
64,192,135038,1,0,0:0:0:0:
320,192,135038,1,0,0:0:0:0:
64,192,135226,1,0,0:0:0:0:
448,192,135226,1,0,0:0:0:0:
320,192,135226,128,0,135976:0:0:0:0:
192,192,135601,1,0,0:0:0:0:
64,192,135976,1,0,0:0:0:0:
448,192,135976,1,0,0:0:0:0:
64,192,136351,128,0,137476:0:0:0:0:
192,192,136351,1,0,0:0:0:0:
320,192,136726,1,0,0:0:0:0:
320,192,137101,1,0,0:0:0:0:
448,192,137288,1,0,0:0:0:0:
320,192,137351,1,0,0:0:0:0:
192,192,137413,1,0,0:0:0:0:
320,192,137476,1,0,0:0:0:0:
448,192,137476,1,0,0:0:0:0:
192,192,137663,1,0,0:0:0:0:
320,192,137851,1,0,0:0:0:0:
64,192,138226,1,0,0:0:0:0:
448,192,138226,128,0,139726:0:0:0:0:
320,192,138601,1,0,0:0:0:0:
64,192,138976,1,0,0:0:0:0:
192,192,138976,1,0,0:0:0:0:
320,192,139351,1,0,0:0:0:0:
192,192,139538,1,0,0:0:0:0:
64,192,139726,1,0,0:0:0:0:
320,192,139726,128,0,141226:0:0:0:0:
192,192,140101,1,0,0:0:0:0:
448,192,140288,1,0,0:0:0:0:
64,192,140476,1,0,0:0:0:0:
192,192,140476,1,0,0:0:0:0:
448,192,140851,1,0,0:0:0:0:
64,192,141226,1,0,0:0:0:0:
448,192,141226,1,0,0:0:0:0:
192,192,141226,128,0,142726:0:0:0:0:
448,192,141601,1,0,0:0:0:0:
320,192,141788,1,0,0:0:0:0:
64,192,141976,1,0,0:0:0:0:
448,192,141976,1,0,0:0:0:0:
320,192,142351,1,0,0:0:0:0:
448,192,142538,1,0,0:0:0:0:
320,192,142601,1,0,0:0:0:0:
64,192,142663,1,0,0:0:0:0:
320,192,142726,1,0,0:0:0:0:
448,192,142726,1,0,0:0:0:0:
192,192,142913,1,0,0:0:0:0:
448,192,142913,1,0,0:0:0:0:
64,192,143288,1,0,0:0:0:0:
192,192,143476,1,0,0:0:0:0:
448,192,143476,1,0,0:0:0:0:
64,192,143663,1,0,0:0:0:0:
320,192,143663,1,0,0:0:0:0:
64,192,144226,128,0,144976:0:0:0:0:
448,192,144226,1,0,0:0:0:0:
320,192,144601,1,0,0:0:0:0:
192,192,144976,1,0,0:0:0:0:
448,192,144976,1,0,0:0:0:0:
320,192,145351,1,0,0:0:0:0:
192,192,145351,128,0,146851:0:0:0:0:
448,192,145726,1,0,0:0:0:0:
320,192,146101,1,0,0:0:0:0:
448,192,146288,1,0,0:0:0:0:
64,192,146476,1,0,0:0:0:0:
320,192,146476,1,0,0:0:0:0:
320,192,146851,1,0,0:0:0:0:
448,192,146851,1,0,0:0:0:0:
320,192,147038,1,0,0:0:0:0:
448,192,147038,1,0,0:0:0:0:
64,192,147226,1,0,0:0:0:0:
320,192,147226,1,0,0:0:0:0:
448,192,147226,128,0,147976:0:0:0:0:
64,192,147601,1,0,0:0:0:0:
192,192,147788,1,0,0:0:0:0:
64,192,147976,1,0,0:0:0:0:
320,192,147976,1,0,0:0:0:0:
192,192,148351,1,0,0:0:0:0:
320,192,148351,128,0,149476:0:0:0:0:
448,192,148726,1,0,0:0:0:0:
64,192,149101,1,0,0:0:0:0:
192,192,149288,1,0,0:0:0:0:
64,192,149476,1,0,0:0:0:0:
448,192,149476,1,0,0:0:0:0:
192,192,149663,1,0,0:0:0:0:
448,192,149851,1,0,0:0:0:0:
320,192,150226,1,0,0:0:0:0:
64,192,150226,128,0,151726:0:0:0:0:
448,192,150601,1,0,0:0:0:0:
320,192,150788,1,0,0:0:0:0:
192,192,150976,1,0,0:0:0:0:
448,192,150976,1,0,0:0:0:0:
320,192,151351,1,0,0:0:0:0:
448,192,151538,1,0,0:0:0:0:
320,192,151726,1,0,0:0:0:0:
192,192,151726,128,0,153226:0:0:0:0:
448,192,152101,1,0,0:0:0:0:
320,192,152288,1,0,0:0:0:0:
64,192,152476,1,0,0:0:0:0:
448,192,152476,1,0,0:0:0:0:
320,192,152851,1,0,0:0:0:0:
448,192,153226,1,0,0:0:0:0:
320,192,153226,128,0,154726:0:0:0:0:
64,192,153601,1,0,0:0:0:0:
448,192,153788,1,0,0:0:0:0:
64,192,153976,1,0,0:0:0:0:
192,192,153976,1,0,0:0:0:0:
192,192,154351,1,0,0:0:0:0:
448,192,154351,1,0,0:0:0:0:
64,192,154726,1,0,0:0:0:0:
448,192,154726,1,0,0:0:0:0:
192,192,154851,1,0,0:0:0:0:
320,192,154976,1,0,0:0:0:0:
64,192,155101,1,0,0:0:0:0:
448,192,155226,1,0,0:0:0:0:
192,192,155351,1,0,0:0:0:0:
320,192,155476,1,0,0:0:0:0:
448,192,155476,1,0,0:0:0:0:
64,192,155476,1,0,0:0:0:0:
64,192,155851,1,0,0:0:0:0:
192,192,155851,1,0,0:0:0:0:
448,192,155851,1,0,0:0:0:0:
64,192,156226,1,0,0:0:0:0:
192,192,156226,1,0,0:0:0:0:
320,192,156226,1,0,0:0:0:0:
448,192,156226,128,0,157726:0:0:0:0:
320,192,156601,1,0,0:0:0:0:
320,192,156788,1,0,0:0:0:0:
64,192,156976,1,0,0:0:0:0:
192,192,156976,1,0,0:0:0:0:
320,192,157351,1,0,0:0:0:0:
192,192,157538,1,0,0:0:0:0:
64,192,157726,1,0,0:0:0:0:
320,192,157726,128,0,159226:0:0:0:0:
192,192,158101,1,0,0:0:0:0:
64,192,158288,1,0,0:0:0:0:
192,192,158351,1,0,0:0:0:0:
448,192,158413,1,0,0:0:0:0:
64,192,158476,1,0,0:0:0:0:
192,192,158476,1,0,0:0:0:0:
448,192,158663,1,0,0:0:0:0:
448,192,158851,1,0,0:0:0:0:
192,192,159226,1,0,0:0:0:0:
448,192,159226,1,0,0:0:0:0:
64,192,159226,128,0,160726:0:0:0:0:
320,192,159601,1,0,0:0:0:0:
192,192,159976,1,0,0:0:0:0:
448,192,159976,1,0,0:0:0:0:
320,192,160351,1,0,0:0:0:0:
448,192,160538,1,0,0:0:0:0:
192,192,160726,128,0,162226:0:0:0:0:
320,192,160726,1,0,0:0:0:0:
448,192,160913,1,0,0:0:0:0:
64,192,160913,1,0,0:0:0:0:
64,192,161101,1,0,0:0:0:0:
320,192,161288,1,0,0:0:0:0:
448,192,161351,1,0,0:0:0:0:
64,192,161413,1,0,0:0:0:0:
320,192,161476,1,0,0:0:0:0:
448,192,161476,1,0,0:0:0:0:
64,192,161663,1,0,0:0:0:0:
64,192,161851,1,0,0:0:0:0:
64,192,162226,1,0,0:0:0:0:
320,192,162226,1,0,0:0:0:0:
448,192,162226,128,0,163726:0:0:0:0:
192,192,162601,1,0,0:0:0:0:
64,192,162976,1,0,0:0:0:0:
320,192,162976,1,0,0:0:0:0:
192,192,163351,1,0,0:0:0:0:
320,192,163538,1,0,0:0:0:0:
192,192,163726,1,0,0:0:0:0:
64,192,163726,128,0,165226:0:0:0:0:
320,192,164101,1,0,0:0:0:0:
448,192,164288,1,0,0:0:0:0:
192,192,164476,1,0,0:0:0:0:
320,192,164476,1,0,0:0:0:0:
448,192,164851,1,0,0:0:0:0:
192,192,165226,1,0,0:0:0:0:
320,192,165226,1,0,0:0:0:0:
448,192,165226,1,0,0:0:0:0:
64,192,165601,1,0,0:0:0:0:
192,192,165788,1,0,0:0:0:0:
320,192,165976,1,0,0:0:0:0:
64,192,165976,1,0,0:0:0:0:
448,192,166351,1,0,0:0:0:0:
64,192,166726,1,0,0:0:0:0:
192,192,166726,1,0,0:0:0:0:
320,192,166726,1,0,0:0:0:0:
448,192,167101,1,0,0:0:0:0:
320,192,167288,1,0,0:0:0:0:
192,192,167476,1,0,0:0:0:0:
448,192,167476,1,0,0:0:0:0:
64,192,167851,1,0,0:0:0:0:
448,192,167851,1,0,0:0:0:0:
64,192,168226,1,0,0:0:0:0:
192,192,168226,1,0,0:0:0:0:
320,192,168226,1,0,0:0:0:0:
448,192,168226,128,0,170476:0:0:0:0:
320,192,168601,1,0,0:0:0:0:
192,192,168788,1,0,0:0:0:0:
64,192,168976,1,0,0:0:0:0:
320,192,168976,1,0,0:0:0:0:
192,192,169163,1,0,0:0:0:0:
320,192,169351,1,0,0:0:0:0:
64,192,169726,1,0,0:0:0:0:
192,192,169913,1,0,0:0:0:0:
320,192,169913,1,0,0:0:0:0:
64,192,170101,1,0,0:0:0:0:
320,192,170288,1,0,0:0:0:0:
192,192,170382,1,0,0:0:0:0:
64,192,170476,1,0,0:0:0:0:
320,192,170476,1,0,0:0:0:0:
192,192,170851,1,0,0:0:0:0:
64,192,171226,1,0,0:0:0:0:
448,192,171226,128,0,171976:0:0:0:0:
192,192,171601,1,0,0:0:0:0:
64,192,171976,1,0,0:0:0:0:
320,192,171976,1,0,0:0:0:0:
448,192,172351,128,0,174226:0:0:0:0:
192,192,172351,1,0,0:0:0:0:
320,192,172726,1,0,0:0:0:0:
64,192,173101,1,0,0:0:0:0:
192,192,173288,1,0,0:0:0:0:
64,192,173476,1,0,0:0:0:0:
320,192,173476,1,0,0:0:0:0:
192,192,173851,1,0,0:0:0:0:
320,192,174038,1,0,0:0:0:0:
192,192,174226,1,0,0:0:0:0:
64,192,174226,128,0,174976:0:0:0:0:
320,192,174601,1,0,0:0:0:0:
192,192,174788,1,0,0:0:0:0:
320,192,174976,1,0,0:0:0:0:
448,192,174976,1,0,0:0:0:0:
64,192,175351,128,0,177226:0:0:0:0:
192,192,175351,1,0,0:0:0:0:
448,192,175726,1,0,0:0:0:0:
192,192,175913,1,0,0:0:0:0:
320,192,175913,1,0,0:0:0:0:
448,192,176101,1,0,0:0:0:0:
192,192,176288,1,0,0:0:0:0:
320,192,176351,1,0,0:0:0:0:
448,192,176413,1,0,0:0:0:0:
192,192,176476,1,0,0:0:0:0:
448,192,176851,1,0,0:0:0:0:
320,192,177226,1,0,0:0:0:0:
448,192,177226,1,0,0:0:0:0:
192,192,177226,128,0,177976:0:0:0:0:
320,192,177601,1,0,0:0:0:0:
64,192,177976,1,0,0:0:0:0:
448,192,177976,1,0,0:0:0:0:
192,192,178351,128,0,180226:0:0:0:0:
320,192,178351,1,0,0:0:0:0:
448,192,178726,1,0,0:0:0:0:
320,192,179101,1,0,0:0:0:0:
448,192,179288,1,0,0:0:0:0:
64,192,179476,1,0,0:0:0:0:
320,192,179476,1,0,0:0:0:0:
448,192,179663,1,0,0:0:0:0:
64,192,179851,1,0,0:0:0:0:
320,192,179851,1,0,0:0:0:0:
448,192,180038,1,0,0:0:0:0:
448,192,180226,1,0,0:0:0:0:
64,192,180226,1,0,0:0:0:0:
320,192,180226,128,0,181726:0:0:0:0:
192,192,180601,1,0,0:0:0:0:
64,192,180788,1,0,0:0:0:0:
192,192,180976,1,0,0:0:0:0:
448,192,180976,1,0,0:0:0:0:
192,192,181351,1,0,0:0:0:0:
64,192,181538,1,0,0:0:0:0:
448,192,181538,1,0,0:0:0:0:
192,192,181726,1,0,0:0:0:0:
448,192,181913,1,0,0:0:0:0:
320,192,182007,1,0,0:0:0:0:
192,192,182101,1,0,0:0:0:0:
192,192,182288,1,0,0:0:0:0:
320,192,182476,1,0,0:0:0:0:
320,192,182663,1,0,0:0:0:0:
64,192,182851,1,0,0:0:0:0:
448,192,182851,1,0,0:0:0:0:
64,192,183038,1,0,0:0:0:0:
448,192,183038,1,0,0:0:0:0:
64,192,183226,1,0,0:0:0:0:
448,192,183226,1,0,0:0:0:0:
192,192,183226,128,0,183788:0:0:0:0:
320,192,183788,1,0,0:0:0:0:
448,192,183976,1,0,0:0:0:0:
320,192,184101,1,0,0:0:0:0:
64,192,184288,1,0,0:0:0:0:
192,192,184413,1,0,0:0:0:0:
320,192,184538,1,0,0:0:0:0:
192,192,184726,128,0,185663:0:0:0:0:
448,192,185663,1,0,0:0:0:0:
320,192,185851,1,0,0:0:0:0:
192,192,186038,1,0,0:0:0:0:
64,192,186226,128,0,186913:0:0:0:0:
448,192,186913,1,0,0:0:0:0:
192,192,187163,1,0,0:0:0:0:
320,192,187351,1,0,0:0:0:0:
192,192,187538,128,0,187913:0:0:0:0:
448,192,187913,128,0,188288:0:0:0:0:
64,192,188288,1,0,0:0:0:0:
448,192,188476,128,0,189226:0:0:0:0:
64,192,189226,1,0,0:0:0:0:
192,192,189288,1,0,0:0:0:0:
64,192,189351,1,0,0:0:0:0:
192,192,189413,1,0,0:0:0:0:
320,192,189476,1,0,0:0:0:0:
448,192,189538,1,0,0:0:0:0:
320,192,189601,1,0,0:0:0:0:
64,192,189663,1,0,0:0:0:0:
192,192,189726,1,0,0:0:0:0:
64,192,189788,1,0,0:0:0:0:
192,192,189851,1,0,0:0:0:0:
320,192,189913,1,0,0:0:0:0:
448,192,189976,1,0,0:0:0:0:
320,192,190038,1,0,0:0:0:0:
192,192,190101,1,0,0:0:0:0:
448,192,190163,1,0,0:0:0:0:
320,192,190226,1,0,0:0:0:0:
448,192,190288,1,0,0:0:0:0:
320,192,190351,1,0,0:0:0:0:
192,192,190413,1,0,0:0:0:0:
64,192,190476,1,0,0:0:0:0:
192,192,190538,1,0,0:0:0:0:
448,192,190601,1,0,0:0:0:0:
320,192,190663,1,0,0:0:0:0:
192,192,190726,1,0,0:0:0:0:
64,192,190788,1,0,0:0:0:0:
448,192,190851,1,0,0:0:0:0:
320,192,190913,1,0,0:0:0:0:
64,192,190976,1,0,0:0:0:0:
192,192,191038,1,0,0:0:0:0:
320,192,191101,1,0,0:0:0:0:
448,192,191163,1,0,0:0:0:0:
64,192,191226,1,0,0:0:0:0:
192,192,191288,1,0,0:0:0:0:
448,192,191351,1,0,0:0:0:0:
320,192,191413,1,0,0:0:0:0:
192,192,191476,1,0,0:0:0:0:
64,192,191538,1,0,0:0:0:0:
320,192,191601,1,0,0:0:0:0:
448,192,191663,1,0,0:0:0:0:
192,192,191726,1,0,0:0:0:0:
64,192,191788,1,0,0:0:0:0:
320,192,191851,1,0,0:0:0:0:
448,192,191913,1,0,0:0:0:0:
192,192,191976,1,0,0:0:0:0:
64,192,192038,1,0,0:0:0:0:
320,192,192101,1,0,0:0:0:0:
448,192,192163,1,0,0:0:0:0:
64,192,192226,1,0,0:0:0:0:
192,192,192288,1,0,0:0:0:0:
320,192,192351,1,0,0:0:0:0:
448,192,192413,1,0,0:0:0:0:
64,192,192476,1,0,0:0:0:0:
192,192,192538,1,0,0:0:0:0:
320,192,192601,1,0,0:0:0:0:
448,192,192663,1,0,0:0:0:0:
192,192,192726,1,0,0:0:0:0:
64,192,192788,1,0,0:0:0:0:
448,192,192851,1,0,0:0:0:0:
320,192,192913,1,0,0:0:0:0:
192,192,192976,1,0,0:0:0:0:
64,192,193038,1,0,0:0:0:0:
448,192,193101,1,0,0:0:0:0:
320,192,193163,1,0,0:0:0:0:
192,192,193226,1,0,0:0:0:0:
64,192,193288,1,0,0:0:0:0:
320,192,193351,1,0,0:0:0:0:
448,192,193413,1,0,0:0:0:0:
192,192,193476,1,0,0:0:0:0:
320,192,193538,1,0,0:0:0:0:
448,192,193601,1,0,0:0:0:0:
64,192,193663,1,0,0:0:0:0:
448,192,193726,1,0,0:0:0:0:
192,192,193913,1,0,0:0:0:0:
320,192,193913,1,0,0:0:0:0:
448,192,194101,1,0,0:0:0:0:
320,192,194288,1,0,0:0:0:0:
192,192,194351,1,0,0:0:0:0:
64,192,194413,1,0,0:0:0:0:
448,192,194476,128,0,195226:0:0:0:0:
320,192,194476,1,0,0:0:0:0:
192,192,194851,1,0,0:0:0:0:
64,192,195226,128,0,195413:0:0:0:0:
320,192,195413,1,0,0:0:0:0:
64,192,195601,128,0,195788:0:0:0:0:
448,192,195788,1,0,0:0:0:0:
64,192,195976,128,0,196163:0:0:0:0:
320,192,196163,1,0,0:0:0:0:
64,192,196351,128,0,196538:0:0:0:0:
448,192,196538,1,0,0:0:0:0:
64,192,196726,128,0,196913:0:0:0:0:
192,192,196913,1,0,0:0:0:0:
320,192,197101,1,0,0:0:0:0:
448,192,197288,128,0,197476:0:0:0:0:
192,192,197476,1,0,0:0:0:0:
320,192,197663,1,0,0:0:0:0:
64,192,197851,1,0,0:0:0:0:
448,192,198038,1,0,0:0:0:0:
64,192,198226,1,0,0:0:0:0:
64,192,198413,1,0,0:0:0:0:
192,192,198601,1,0,0:0:0:0:
448,192,198788,128,0,199351:0:0:0:0:
64,192,199351,1,0,0:0:0:0:
64,192,199538,1,0,0:0:0:0:
320,192,199726,1,0,0:0:0:0:
448,192,199913,1,0,0:0:0:0:
64,192,200101,1,0,0:0:0:0:
448,192,200288,128,0,201226:0:0:0:0:
64,192,201226,1,0,0:0:0:0:
192,192,201288,1,0,0:0:0:0:
320,192,201351,1,0,0:0:0:0:
448,192,201413,1,0,0:0:0:0:
192,192,201476,1,0,0:0:0:0:
320,192,201538,1,0,0:0:0:0:
448,192,201601,1,0,0:0:0:0:
320,192,201663,1,0,0:0:0:0:
192,192,201726,1,0,0:0:0:0:
64,192,201788,1,0,0:0:0:0:
320,192,201851,1,0,0:0:0:0:
192,192,201913,1,0,0:0:0:0:
64,192,201976,1,0,0:0:0:0:
448,192,202038,1,0,0:0:0:0:
320,192,202101,1,0,0:0:0:0:
192,192,202163,1,0,0:0:0:0:
64,192,202226,1,0,0:0:0:0:
320,192,202288,1,0,0:0:0:0:
192,192,202351,1,0,0:0:0:0:
64,192,202413,1,0,0:0:0:0:
448,192,202476,1,0,0:0:0:0:
320,192,202538,1,0,0:0:0:0:
192,192,202601,1,0,0:0:0:0:
64,192,202663,1,0,0:0:0:0:
448,192,202726,1,0,0:0:0:0:
192,192,202851,1,0,0:0:0:0:
320,192,202976,1,0,0:0:0:0:
64,192,203101,1,0,0:0:0:0:
320,192,203226,1,0,0:0:0:0:
192,192,203351,1,0,0:0:0:0:
448,192,203476,128,0,204226:0:0:0:0:
64,192,204226,1,0,0:0:0:0:
192,192,204288,1,0,0:0:0:0:
320,192,204351,1,0,0:0:0:0:
448,192,204413,1,0,0:0:0:0:
320,192,204476,1,0,0:0:0:0:
64,192,204538,1,0,0:0:0:0:
192,192,204601,1,0,0:0:0:0:
320,192,204663,1,0,0:0:0:0:
448,192,204726,1,0,0:0:0:0:
320,192,204788,1,0,0:0:0:0:
64,192,204851,1,0,0:0:0:0:
192,192,204913,1,0,0:0:0:0:
320,192,204976,1,0,0:0:0:0:
448,192,205038,1,0,0:0:0:0:
320,192,205101,1,0,0:0:0:0:
64,192,205163,1,0,0:0:0:0:
192,192,205226,1,0,0:0:0:0:
320,192,205288,1,0,0:0:0:0:
448,192,205351,128,0,205726:0:0:0:0:
64,192,205726,1,0,0:0:0:0:
192,192,205788,1,0,0:0:0:0:
64,192,205851,1,0,0:0:0:0:
192,192,205913,1,0,0:0:0:0:
64,192,205976,1,0,0:0:0:0:
192,192,206038,1,0,0:0:0:0:
320,192,206101,1,0,0:0:0:0:
448,192,206163,1,0,0:0:0:0:
320,192,206226,1,0,0:0:0:0:
448,192,206288,1,0,0:0:0:0:
320,192,206351,1,0,0:0:0:0:
188,192,206413,1,0,0:0:0:0:
64,192,206476,1,0,0:0:0:0:
192,192,206538,1,0,0:0:0:0:
320,192,206601,1,0,0:0:0:0:
448,192,206663,1,0,0:0:0:0:
320,192,206726,1,0,0:0:0:0:
64,192,206788,1,0,0:0:0:0:
448,192,206851,1,0,0:0:0:0:
320,192,206913,1,0,0:0:0:0:
192,192,206976,1,0,0:0:0:0:
64,192,207038,1,0,0:0:0:0:
192,192,207101,1,0,0:0:0:0:
448,192,207163,1,0,0:0:0:0:
192,192,207226,1,0,0:0:0:0:
64,192,207226,128,0,207976:0:0:0:0:
448,192,207413,1,0,0:0:0:0:
320,192,207601,1,0,0:0:0:0:
448,192,207788,1,0,0:0:0:0:
320,192,207976,128,0,208163:0:0:0:0:
448,192,208163,1,0,0:0:0:0:
64,192,208351,1,0,0:0:0:0:
448,192,208538,1,0,0:0:0:0:
448,192,208913,1,0,0:0:0:0:
448,192,209288,1,0,0:0:0:0:
64,192,209663,1,0,0:0:0:0:
320,192,209851,1,0,0:0:0:0:
192,192,210038,1,0,0:0:0:0:
448,192,210226,128,0,210413:0:0:0:0:
320,192,210413,1,0,0:0:0:0:
448,192,210601,1,0,0:0:0:0:
64,192,210788,1,0,0:0:0:0:
64,192,211163,1,0,0:0:0:0:
64,192,211538,1,0,0:0:0:0:
448,192,211913,1,0,0:0:0:0:
192,192,212101,1,0,0:0:0:0:
320,192,212288,1,0,0:0:0:0:
64,192,212476,1,0,0:0:0:0:
192,192,212569,1,0,0:0:0:0:
64,192,212663,128,0,213226:0:0:0:0:
192,192,213226,1,0,0:0:0:0:
448,192,213226,1,0,0:0:0:0:
320,192,213413,1,0,0:0:0:0:
448,192,213601,1,0,0:0:0:0:
320,192,213788,128,0,214163:0:0:0:0:
448,192,214163,1,0,0:0:0:0:
192,192,214351,1,0,0:0:0:0:
320,192,214538,1,0,0:0:0:0:
192,192,214726,1,0,0:0:0:0:
448,192,214913,128,0,215101:0:0:0:0:
64,192,215101,1,0,0:0:0:0:
448,192,215288,1,0,0:0:0:0:
192,192,215476,1,0,0:0:0:0:
320,192,215569,1,0,0:0:0:0:
192,192,215663,128,0,216226:0:0:0:0:
448,192,216226,1,0,0:0:0:0:
320,192,216413,1,0,0:0:0:0:
192,192,216601,1,0,0:0:0:0:
64,192,216788,128,0,217163:0:0:0:0:
448,192,217163,1,0,0:0:0:0:
320,192,217351,1,0,0:0:0:0:
192,192,217538,1,0,0:0:0:0:
320,192,217601,1,0,0:0:0:0:
64,192,217663,1,0,0:0:0:0:
192,192,217663,1,0,0:0:0:0:
64,192,217851,1,0,0:0:0:0:
192,192,217851,1,0,0:0:0:0:
64,192,218038,1,0,0:0:0:0:
192,192,218038,1,0,0:0:0:0:
320,192,218226,1,0,0:0:0:0:
192,192,218288,1,0,0:0:0:0:
64,192,218351,1,0,0:0:0:0:
448,192,218413,1,0,0:0:0:0:
448,192,218601,1,0,0:0:0:0:
448,192,218788,1,0,0:0:0:0:
64,192,219226,1,0,0:0:0:0:
448,192,219226,1,0,0:0:0:0:
320,192,219288,1,0,0:0:0:0:
448,192,219351,1,0,0:0:0:0:
320,192,219413,1,0,0:0:0:0:
448,192,219476,1,0,0:0:0:0:
320,192,219538,1,0,0:0:0:0:
64,192,219601,1,0,0:0:0:0:
192,192,219663,1,0,0:0:0:0:
320,192,219726,1,0,0:0:0:0:
448,192,219788,1,0,0:0:0:0:
320,192,219851,1,0,0:0:0:0:
448,192,219913,1,0,0:0:0:0:
320,192,219976,1,0,0:0:0:0:
448,192,220038,1,0,0:0:0:0:
192,192,220101,1,0,0:0:0:0:
64,192,220163,1,0,0:0:0:0:
192,192,220226,1,0,0:0:0:0:
320,192,220288,1,0,0:0:0:0:
448,192,220351,1,0,0:0:0:0:
320,192,220413,1,0,0:0:0:0:
64,192,220476,1,0,0:0:0:0:
192,192,220538,1,0,0:0:0:0:
448,192,220601,1,0,0:0:0:0:
320,192,220663,1,0,0:0:0:0:
192,192,220726,1,0,0:0:0:0:
448,192,220788,1,0,0:0:0:0:
192,192,220851,1,0,0:0:0:0:
448,192,220913,1,0,0:0:0:0:
192,192,220976,1,0,0:0:0:0:
448,192,221038,1,0,0:0:0:0:
320,192,221101,1,0,0:0:0:0:
192,192,221163,1,0,0:0:0:0:
64,192,221226,1,0,0:0:0:0:
448,192,221288,1,0,0:0:0:0:
192,192,221351,1,0,0:0:0:0:
448,192,221413,1,0,0:0:0:0:
192,192,221476,1,0,0:0:0:0:
448,192,221538,1,0,0:0:0:0:
192,192,221601,1,0,0:0:0:0:
64,192,221663,1,0,0:0:0:0:
320,192,221726,1,0,0:0:0:0:
192,192,221788,1,0,0:0:0:0:
64,192,221851,1,0,0:0:0:0:
321,192,221913,1,0,0:0:0:0:
448,192,221976,1,0,0:0:0:0:
320,192,222038,1,0,0:0:0:0:
192,192,222101,1,0,0:0:0:0:
64,192,222163,1,0,0:0:0:0:
320,192,222226,1,0,0:0:0:0:
448,192,222226,1,0,0:0:0:0:
192,192,222413,1,0,0:0:0:0:
320,192,222601,1,0,0:0:0:0:
64,192,222788,128,0,223163:0:0:0:0:
448,192,223163,1,0,0:0:0:0:
320,192,223351,1,0,0:0:0:0:
192,192,223538,1,0,0:0:0:0:
64,192,223726,1,0,0:0:0:0:
320,192,223851,1,0,0:0:0:0:
192,192,223976,1,0,0:0:0:0:
448,192,224101,1,0,0:0:0:0:
192,192,224226,1,0,0:0:0:0:
320,192,224351,1,0,0:0:0:0:
64,192,224476,1,0,0:0:0:0:
448,192,224601,1,0,0:0:0:0:
192,192,224726,1,0,0:0:0:0:
448,192,224851,1,0,0:0:0:0:
64,192,224976,1,0,0:0:0:0:
320,192,225101,1,0,0:0:0:0:
64,192,225226,1,0,0:0:0:0:
448,192,225226,1,0,0:0:0:0:
320,192,225288,1,0,0:0:0:0:
192,192,225351,1,0,0:0:0:0:
64,192,225413,1,0,0:0:0:0:
192,192,225476,1,0,0:0:0:0:
448,192,225538,1,0,0:0:0:0:
320,192,225601,1,0,0:0:0:0:
64,192,225663,1,0,0:0:0:0:
192,192,225726,1,0,0:0:0:0:
320,192,225788,1,0,0:0:0:0:
448,192,225851,1,0,0:0:0:0:
320,192,225913,1,0,0:0:0:0:
64,192,225976,1,0,0:0:0:0:
192,192,226038,1,0,0:0:0:0:
448,192,226101,1,0,0:0:0:0:
320,192,226163,1,0,0:0:0:0:
192,192,226226,1,0,0:0:0:0:
64,192,226288,1,0,0:0:0:0:
192,192,226351,1,0,0:0:0:0:
448,192,226413,1,0,0:0:0:0:
320,192,226476,1,0,0:0:0:0:
64,192,226538,1,0,0:0:0:0:
192,192,226601,1,0,0:0:0:0:
320,192,226663,1,0,0:0:0:0:
448,192,226726,1,0,0:0:0:0:
320,192,226788,1,0,0:0:0:0:
64,192,226851,1,0,0:0:0:0:
192,192,226913,1,0,0:0:0:0:
448,192,226976,1,0,0:0:0:0:
320,192,227038,1,0,0:0:0:0:
192,192,227101,1,0,0:0:0:0:
64,192,227163,1,0,0:0:0:0:
192,192,227226,1,0,0:0:0:0:
448,192,227288,1,0,0:0:0:0:
320,192,227351,1,0,0:0:0:0:
64,192,227413,1,0,0:0:0:0:
192,192,227476,1,0,0:0:0:0:
320,192,227538,1,0,0:0:0:0:
448,192,227601,1,0,0:0:0:0:
320,192,227663,1,0,0:0:0:0:
64,192,227726,1,0,0:0:0:0:
192,192,227788,1,0,0:0:0:0:
448,192,227851,1,0,0:0:0:0:
320,192,227913,1,0,0:0:0:0:
192,192,227976,1,0,0:0:0:0:
64,192,228038,1,0,0:0:0:0:
192,192,228101,1,0,0:0:0:0:
320,192,228163,1,0,0:0:0:0:
64,192,228226,1,0,0:0:0:0:
448,192,228226,1,0,0:0:0:0:
64,192,228413,1,0,0:0:0:0:
448,192,228413,1,0,0:0:0:0:
64,192,228601,1,0,0:0:0:0:
448,192,228601,1,0,0:0:0:0:
192,192,228788,1,0,0:0:0:0:
320,192,228788,1,0,0:0:0:0:
64,192,228976,1,0,0:0:0:0:
448,192,228976,1,0,0:0:0:0:
192,192,229476,1,0,0:0:0:0:
320,192,229538,1,0,0:0:0:0:
192,192,229601,1,0,0:0:0:0:
64,192,229663,1,0,0:0:0:0:
448,192,229663,1,0,0:0:0:0:
64,192,229851,1,0,0:0:0:0:
448,192,229851,1,0,0:0:0:0:
64,192,230038,1,0,0:0:0:0:
448,192,230038,1,0,0:0:0:0:
192,192,230226,1,0,0:0:0:0:
320,192,230226,1,0,0:0:0:0:
64,192,230413,1,0,0:0:0:0:
448,192,230413,1,0,0:0:0:0:
320,192,230976,1,0,0:0:0:0:
192,192,231038,1,0,0:0:0:0:
320,192,231101,1,0,0:0:0:0:
64,192,231163,1,0,0:0:0:0:
448,192,231163,1,0,0:0:0:0:
64,192,231351,1,0,0:0:0:0:
448,192,231351,1,0,0:0:0:0:
64,192,231538,1,0,0:0:0:0:
448,192,231538,1,0,0:0:0:0:
192,192,231726,1,0,0:0:0:0:
320,192,231726,1,0,0:0:0:0:
64,192,231913,1,0,0:0:0:0:
448,192,231913,1,0,0:0:0:0:
448,192,232226,1,0,0:0:0:0:
320,192,232226,1,0,0:0:0:0:
192,192,232226,1,0,0:0:0:0:
64,192,232476,1,0,0:0:0:0:
192,192,232476,1,0,0:0:0:0:
320,192,232476,1,0,0:0:0:0:
64,192,232726,128,0,234038:0:0:0:0:
192,192,232726,128,0,234038:0:0:0:0:
320,192,232726,128,0,234038:0:0:0:0:
448,192,232726,128,0,234038:0:0:0:0:
64,192,234226,1,0,0:0:0:0:
192,192,234226,1,0,0:0:0:0:
320,192,234226,1,0,0:0:0:0:
448,192,234226,128,0,235726:0:0:0:0:
192,192,234976,1,0,0:0:0:0:
320,192,234976,1,0,0:0:0:0:
64,192,235351,1,0,0:0:0:0:
192,192,235538,1,0,0:0:0:0:
64,192,235726,1,0,0:0:0:0:
320,192,235726,128,0,237226:0:0:0:0:
192,192,236101,1,0,0:0:0:0:
64,192,236476,1,0,0:0:0:0:
448,192,236476,1,0,0:0:0:0:
192,192,236851,1,0,0:0:0:0:
448,192,237038,1,0,0:0:0:0:
64,192,237226,1,0,0:0:0:0:
192,192,237226,128,0,238726:0:0:0:0:
320,192,237601,1,0,0:0:0:0:
64,192,237976,1,0,0:0:0:0:
448,192,237976,1,0,0:0:0:0:
320,192,238351,1,0,0:0:0:0:
448,192,238538,1,0,0:0:0:0:
320,192,238726,1,0,0:0:0:0:
64,192,238726,128,0,240226:0:0:0:0:
448,192,239101,1,0,0:0:0:0:
320,192,239288,1,0,0:0:0:0:
448,192,239351,1,0,0:0:0:0:
192,192,239413,1,0,0:0:0:0:
320,192,239476,1,0,0:0:0:0:
448,192,239476,1,0,0:0:0:0:
192,192,239663,1,0,0:0:0:0:
320,192,239851,1,0,0:0:0:0:
192,192,240226,1,0,0:0:0:0:
448,192,240226,128,0,241726:0:0:0:0:
320,192,240601,1,0,0:0:0:0:
192,192,240788,1,0,0:0:0:0:
320,192,240976,1,0,0:0:0:0:
64,192,240976,1,0,0:0:0:0:
192,192,241163,1,0,0:0:0:0:
64,192,241351,1,0,0:0:0:0:
320,192,241538,1,0,0:0:0:0:
64,192,241726,1,0,0:0:0:0:
192,192,241726,128,0,243226:0:0:0:0:
320,192,242101,1,0,0:0:0:0:
448,192,242288,1,0,0:0:0:0:
64,192,242476,1,0,0:0:0:0:
320,192,242476,1,0,0:0:0:0:
320,192,242851,1,0,0:0:0:0:
64,192,243038,1,0,0:0:0:0:
448,192,243226,1,0,0:0:0:0:
320,192,243226,128,0,244726:0:0:0:0:
192,192,243601,1,0,0:0:0:0:
64,192,243788,1,0,0:0:0:0:
192,192,243976,1,0,0:0:0:0:
448,192,243976,1,0,0:0:0:0:
64,192,244351,1,0,0:0:0:0:
192,192,244538,1,0,0:0:0:0:
448,192,244726,1,0,0:0:0:0:
64,192,244726,128,0,246226:0:0:0:0:
192,192,245101,1,0,0:0:0:0:
448,192,245288,1,0,0:0:0:0:
320,192,245351,1,0,0:0:0:0:
192,192,245413,1,0,0:0:0:0:
320,192,245476,1,0,0:0:0:0:
448,192,245476,1,0,0:0:0:0:
192,192,245663,1,0,0:0:0:0:
320,192,245851,1,0,0:0:0:0:
192,192,246226,1,0,0:0:0:0:
320,192,246226,1,0,0:0:0:0:
448,192,246226,1,0,0:0:0:0:
64,192,246788,1,0,0:0:0:0:
192,192,246976,1,0,0:0:0:0:
448,192,246976,1,0,0:0:0:0:
64,192,247351,1,0,0:0:0:0:
320,192,247538,1,0,0:0:0:0:
192,192,247726,1,0,0:0:0:0:
64,192,248101,1,0,0:0:0:0:
320,192,248288,1,0,0:0:0:0:
192,192,248476,1,0,0:0:0:0:
448,192,248476,1,0,0:0:0:0:
320,192,248851,1,0,0:0:0:0:
192,192,249038,1,0,0:0:0:0:
64,192,249226,1,0,0:0:0:0:
448,192,249226,1,0,0:0:0:0:
448,192,249788,1,0,0:0:0:0:
64,192,249976,1,0,0:0:0:0:
320,192,249976,1,0,0:0:0:0:
192,192,250351,1,0,0:0:0:0:
64,192,250538,1,0,0:0:0:0:
448,192,250538,1,0,0:0:0:0:
192,192,250726,1,0,0:0:0:0:
64,192,250913,1,0,0:0:0:0:
320,192,250913,1,0,0:0:0:0:
192,192,251101,1,0,0:0:0:0:
64,192,251288,1,0,0:0:0:0:
448,192,251288,1,0,0:0:0:0:
192,192,251476,1,0,0:0:0:0:
64,192,251663,1,0,0:0:0:0:
320,192,251663,1,0,0:0:0:0:
192,192,251851,1,0,0:0:0:0:
64,192,252226,1,0,0:0:0:0:
448,192,252226,1,0,0:0:0:0:
64,192,252601,1,0,0:0:0:0:
320,192,252788,1,0,0:0:0:0:
192,192,252976,1,0,0:0:0:0:
448,192,252976,1,0,0:0:0:0:
64,192,253538,1,0,0:0:0:0:
192,192,253726,1,0,0:0:0:0:
448,192,253726,1,0,0:0:0:0:
320,192,254288,1,0,0:0:0:0:
64,192,254476,1,0,0:0:0:0:
448,192,254476,1,0,0:0:0:0:
320,192,254851,1,0,0:0:0:0:
64,192,255038,1,0,0:0:0:0:
192,192,255101,1,0,0:0:0:0:
64,192,255163,1,0,0:0:0:0:
192,192,255226,1,0,0:0:0:0:
320,192,255226,1,0,0:0:0:0:
448,192,255226,1,0,0:0:0:0:
64,192,255538,1,0,0:0:0:0:
192,192,255601,1,0,0:0:0:0:
64,192,255663,1,0,0:0:0:0:
192,192,255788,1,0,0:0:0:0:
320,192,255788,1,0,0:0:0:0:
448,192,255788,1,0,0:0:0:0:
64,192,256101,1,0,0:0:0:0:
192,192,256163,1,0,0:0:0:0:
320,192,256226,1,0,0:0:0:0:
64,192,256351,1,0,0:0:0:0:
192,192,256351,1,0,0:0:0:0:
448,192,256351,1,0,0:0:0:0:
320,192,256538,1,0,0:0:0:0:
192,192,256601,1,0,0:0:0:0:
320,192,256663,1,0,0:0:0:0:
64,192,256726,1,0,0:0:0:0:
192,192,256726,1,0,0:0:0:0:
448,192,256726,1,0,0:0:0:0:
320,192,257038,1,0,0:0:0:0:
192,192,257101,1,0,0:0:0:0:
320,192,257163,1,0,0:0:0:0:
64,192,257288,1,0,0:0:0:0:
192,192,257288,1,0,0:0:0:0:
448,192,257288,1,0,0:0:0:0:
320,192,257601,1,0,0:0:0:0:
192,192,257663,1,0,0:0:0:0:
64,192,257726,1,0,0:0:0:0:
192,192,257851,1,0,0:0:0:0:
320,192,257851,1,0,0:0:0:0:
448,192,257851,1,0,0:0:0:0:
64,192,258226,1,0,0:0:0:0:
192,192,258226,1,0,0:0:0:0:
320,192,258226,1,0,0:0:0:0:
448,192,258226,128,0,258976:0:0:0:0:
64,192,258601,1,0,0:0:0:0:
192,192,258788,1,0,0:0:0:0:
64,192,258976,1,0,0:0:0:0:
320,192,258976,1,0,0:0:0:0:
320,192,259351,1,0,0:0:0:0:
448,192,259351,128,0,260851:0:0:0:0:
64,192,259538,1,0,0:0:0:0:
192,192,259726,1,0,0:0:0:0:
320,192,260101,1,0,0:0:0:0:
192,192,260288,1,0,0:0:0:0:
64,192,260476,1,0,0:0:0:0:
320,192,260476,1,0,0:0:0:0:
64,192,260851,1,0,0:0:0:0:
192,192,260851,1,0,0:0:0:0:
64,192,261038,1,0,0:0:0:0:
192,192,261038,1,0,0:0:0:0:
192,192,261226,1,0,0:0:0:0:
64,192,261226,128,0,261976:0:0:0:0:
448,192,261226,1,0,0:0:0:0:
320,192,261601,1,0,0:0:0:0:
192,192,261788,1,0,0:0:0:0:
320,192,261976,1,0,0:0:0:0:
448,192,261976,1,0,0:0:0:0:
320,192,262351,1,0,0:0:0:0:
64,192,262351,128,0,264226:0:0:0:0:
192,192,262538,1,0,0:0:0:0:
448,192,262726,1,0,0:0:0:0:
192,192,263101,1,0,0:0:0:0:
320,192,263288,1,0,0:0:0:0:
192,192,263382,1,0,0:0:0:0:
448,192,263476,1,0,0:0:0:0:
320,192,263476,1,0,0:0:0:0:
320,192,263851,1,0,0:0:0:0:
192,192,264226,1,0,0:0:0:0:
320,192,264226,1,0,0:0:0:0:
448,192,264226,128,0,265726:0:0:0:0:
64,192,264601,1,0,0:0:0:0:
192,192,264788,1,0,0:0:0:0:
64,192,264976,1,0,0:0:0:0:
320,192,264976,1,0,0:0:0:0:
192,192,265351,1,0,0:0:0:0:
320,192,265538,1,0,0:0:0:0:
64,192,265726,1,0,0:0:0:0:
192,192,265726,128,0,267226:0:0:0:0:
320,192,266101,1,0,0:0:0:0:
448,192,266288,1,0,0:0:0:0:
320,192,266476,1,0,0:0:0:0:
64,192,266476,1,0,0:0:0:0:
448,192,266851,1,0,0:0:0:0:
64,192,267226,1,0,0:0:0:0:
320,192,267226,128,0,268726:0:0:0:0:
192,192,267601,1,0,0:0:0:0:
64,192,267788,1,0,0:0:0:0:
192,192,267976,1,0,0:0:0:0:
448,192,267976,1,0,0:0:0:0:
448,192,268351,1,0,0:0:0:0:
64,192,268538,1,0,0:0:0:0:
192,192,268601,1,0,0:0:0:0:
448,192,268663,1,0,0:0:0:0:
192,192,268726,1,0,0:0:0:0:
64,192,268726,128,0,270226:0:0:0:0:
448,192,269101,1,0,0:0:0:0:
320,192,269288,1,0,0:0:0:0:
448,192,269351,1,0,0:0:0:0:
192,192,269413,1,0,0:0:0:0:
320,192,269476,1,0,0:0:0:0:
448,192,269476,1,0,0:0:0:0:
192,192,269663,1,0,0:0:0:0:
448,192,269851,1,0,0:0:0:0:
192,192,270226,1,0,0:0:0:0:
320,192,270226,1,0,0:0:0:0:
448,192,270226,128,0,270976:0:0:0:0:
64,192,270601,1,0,0:0:0:0:
192,192,270976,1,0,0:0:0:0:
320,192,270976,1,0,0:0:0:0:
64,192,271351,1,0,0:0:0:0:
448,192,271351,128,0,272851:0:0:0:0:
192,192,271538,1,0,0:0:0:0:
320,192,271726,1,0,0:0:0:0:
64,192,272101,1,0,0:0:0:0:
192,192,272288,1,0,0:0:0:0:
64,192,272351,1,0,0:0:0:0:
320,192,272413,1,0,0:0:0:0:
64,192,272476,1,0,0:0:0:0:
192,192,272476,1,0,0:0:0:0:
320,192,272663,1,0,0:0:0:0:
64,192,272851,1,0,0:0:0:0:
192,192,272851,1,0,0:0:0:0:
192,192,273038,1,0,0:0:0:0:
320,192,273038,1,0,0:0:0:0:
448,192,273226,1,0,0:0:0:0:
320,192,273226,1,0,0:0:0:0:
64,192,273226,128,0,273976:0:0:0:0:
192,192,273601,1,0,0:0:0:0:
192,192,273976,1,0,0:0:0:0:
320,192,273976,1,0,0:0:0:0:
448,192,274351,1,0,0:0:0:0:
64,192,274351,128,0,276226:0:0:0:0:
192,192,274538,1,0,0:0:0:0:
320,192,274726,1,0,0:0:0:0:
448,192,275101,1,0,0:0:0:0:
320,192,275288,1,0,0:0:0:0:
192,192,275476,1,0,0:0:0:0:
448,192,275476,1,0,0:0:0:0:
320,192,275851,1,0,0:0:0:0:
192,192,276038,1,0,0:0:0:0:
192,192,276226,1,0,0:0:0:0:
320,192,276226,1,0,0:0:0:0:
448,192,276226,128,0,277726:0:0:0:0:
64,192,276601,1,0,0:0:0:0:
320,192,276788,1,0,0:0:0:0:
64,192,276976,1,0,0:0:0:0:
192,192,276976,1,0,0:0:0:0:
320,192,277351,1,0,0:0:0:0:
192,192,277538,1,0,0:0:0:0:
64,192,277726,1,0,0:0:0:0:
320,192,277726,128,0,279226:0:0:0:0:
192,192,278101,1,0,0:0:0:0:
64,192,278288,1,0,0:0:0:0:
192,192,278351,1,0,0:0:0:0:
448,192,278413,1,0,0:0:0:0:
64,192,278476,1,0,0:0:0:0:
192,192,278476,1,0,0:0:0:0:
64,192,278851,1,0,0:0:0:0:
448,192,278851,1,0,0:0:0:0:
64,192,279226,1,0,0:0:0:0:
448,192,279226,1,0,0:0:0:0:
192,192,279226,128,0,280726:0:0:0:0:
320,192,279601,1,0,0:0:0:0:
64,192,279788,1,0,0:0:0:0:
320,192,279976,1,0,0:0:0:0:
448,192,279976,1,0,0:0:0:0:
64,192,280351,1,0,0:0:0:0:
320,192,280726,1,0,0:0:0:0:
448,192,280726,1,0,0:0:0:0:
64,192,280851,1,0,0:0:0:0:
192,192,280976,1,0,0:0:0:0:
448,192,280976,1,0,0:0:0:0:
320,192,281101,1,0,0:0:0:0:
64,192,281226,1,0,0:0:0:0:
192,192,281226,1,0,0:0:0:0:
448,192,281351,1,0,0:0:0:0:
64,192,281476,1,0,0:0:0:0:
320,192,281476,1,0,0:0:0:0:
448,192,281476,1,0,0:0:0:0:
192,192,281601,1,0,0:0:0:0:
320,192,281726,1,0,0:0:0:0:
448,192,281726,1,0,0:0:0:0:
64,192,281851,1,0,0:0:0:0:
320,192,281851,1,0,0:0:0:0:
192,192,281976,1,0,0:0:0:0:
448,192,281976,1,0,0:0:0:0:
320,192,282101,1,0,0:0:0:0:
192,192,282226,1,0,0:0:0:0:
320,192,282226,1,0,0:0:0:0:
448,192,282226,1,0,0:0:0:0:
64,192,282226,128,0,283726:0:0:0:0:
448,192,282601,1,0,0:0:0:0:
192,192,282976,1,0,0:0:0:0:
320,192,282976,1,0,0:0:0:0:
448,192,283351,1,0,0:0:0:0:
192,192,283538,1,0,0:0:0:0:
320,192,283538,1,0,0:0:0:0:
448,192,283726,1,0,0:0:0:0:
192,192,283726,128,0,285226:0:0:0:0:
320,192,283726,1,0,0:0:0:0:
320,192,284101,1,0,0:0:0:0:
448,192,284226,1,0,0:0:0:0:
320,192,284288,1,0,0:0:0:0:
64,192,284351,1,0,0:0:0:0:
320,192,284476,1,0,0:0:0:0:
448,192,284476,1,0,0:0:0:0:
64,192,284663,1,0,0:0:0:0:
64,192,285038,1,0,0:0:0:0:
64,192,285226,1,0,0:0:0:0:
448,192,285226,1,0,0:0:0:0:
320,192,285226,128,0,286726:0:0:0:0:
192,192,285601,1,0,0:0:0:0:
64,192,285788,1,0,0:0:0:0:
448,192,285788,1,0,0:0:0:0:
64,192,285976,1,0,0:0:0:0:
192,192,285976,1,0,0:0:0:0:
448,192,286351,1,0,0:0:0:0:
64,192,286538,1,0,0:0:0:0:
192,192,286538,1,0,0:0:0:0:
64,192,286726,1,0,0:0:0:0:
192,192,286726,1,0,0:0:0:0:
448,192,286726,128,0,288226:0:0:0:0:
320,192,287101,1,0,0:0:0:0:
64,192,287288,1,0,0:0:0:0:
192,192,287351,1,0,0:0:0:0:
320,192,287413,1,0,0:0:0:0:
64,192,287476,1,0,0:0:0:0:
192,192,287476,1,0,0:0:0:0:
320,192,287663,1,0,0:0:0:0:
64,192,287851,1,0,0:0:0:0:
192,192,288038,1,0,0:0:0:0:
64,192,288226,1,0,0:0:0:0:
192,192,288226,1,0,0:0:0:0:
320,192,288226,128,0,289726:0:0:0:0:
448,192,288601,1,0,0:0:0:0:
64,192,288788,1,0,0:0:0:0:
192,192,288788,1,0,0:0:0:0:
64,192,288976,1,0,0:0:0:0:
448,192,288976,1,0,0:0:0:0:
64,192,289351,1,0,0:0:0:0:
192,192,289538,1,0,0:0:0:0:
448,192,289538,1,0,0:0:0:0:
64,192,289726,1,0,0:0:0:0:
448,192,289726,1,0,0:0:0:0:
192,192,289726,128,0,291226:0:0:0:0:
320,192,290101,1,0,0:0:0:0:
64,192,290288,1,0,0:0:0:0:
448,192,290288,1,0,0:0:0:0:
320,192,290476,1,0,0:0:0:0:
448,192,290476,1,0,0:0:0:0:
64,192,290851,1,0,0:0:0:0:
64,192,291226,1,0,0:0:0:0:
320,192,291226,1,0,0:0:0:0:
448,192,291226,1,0,0:0:0:0:
192,192,291601,1,0,0:0:0:0:
320,192,291788,1,0,0:0:0:0:
448,192,291788,1,0,0:0:0:0:
64,192,291976,1,0,0:0:0:0:
192,192,291976,1,0,0:0:0:0:
320,192,292351,1,0,0:0:0:0:
192,192,292538,1,0,0:0:0:0:
448,192,292538,1,0,0:0:0:0:
64,192,292726,1,0,0:0:0:0:
448,192,292726,1,0,0:0:0:0:
320,192,292726,1,0,0:0:0:0:
192,192,293101,1,0,0:0:0:0:
448,192,293288,1,0,0:0:0:0:
64,192,293351,1,0,0:0:0:0:
320,192,293413,1,0,0:0:0:0:
64,192,293476,1,0,0:0:0:0:
192,192,293476,1,0,0:0:0:0:
320,192,293663,1,0,0:0:0:0:
448,192,293663,1,0,0:0:0:0:
64,192,293851,1,0,0:0:0:0:
448,192,293851,1,0,0:0:0:0:
448,192,294226,1,0,0:0:0:0:
192,192,294226,1,0,0:0:0:0:
320,192,294226,1,0,0:0:0:0:
64,192,294226,128,0,296476:0:0:0:0:
320,192,294601,1,0,0:0:0:0:
192,192,294788,1,0,0:0:0:0:
320,192,294976,1,0,0:0:0:0:
448,192,294976,1,0,0:0:0:0:
192,192,295351,1,0,0:0:0:0:
320,192,295538,1,0,0:0:0:0:
448,192,295726,1,0,0:0:0:0:
192,192,296101,1,0,0:0:0:0:
320,192,296288,1,0,0:0:0:0:
192,192,296476,1,0,0:0:0:0:
448,192,296476,1,0,0:0:0:0:
64,192,296851,1,0,0:0:0:0:
320,192,296851,1,0,0:0:0:0:
64,192,297226,1,0,0:0:0:0:
192,192,297226,1,0,0:0:0:0:
320,192,297226,128,0,298351:0:0:0:0:
448,192,297226,128,0,298351:0:0:0:0:
192,192,297726,1,0,0:0:0:0:
64,192,297788,1,0,0:0:0:0:
192,192,297851,1,0,0:0:0:0:
64,192,297976,1,0,0:0:0:0:
192,192,298163,1,0,0:0:0:0:
64,192,298351,1,0,0:0:0:0:
64,199,298726,128,0,299984:0:0:0:0:
192,199,298726,128,0,299984:0:0:0:0:
320,192,298726,1,0,0:0:0:0:
448,192,298726,1,0,0:0:0:0:
320,192,299407,1,0,0:0:0:0:
448,192,299460,1,0,0:0:0:0:
320,192,299512,1,0,0:0:0:0:
448,192,299565,1,0,0:0:0:0:
320,192,299774,1,0,0:0:0:0:
448,192,299984,1,0,0:0:0:0:
448,192,300560,128,0,309540:0:0:0:0:
192,192,300560,1,0,0:0:0:0:
320,192,300560,1,0,0:0:0:0:
64,192,300560,1,0,0:0:0:0:
64,192,302653,1,0,0:0:0:0:
192,192,302840,1,0,0:0:0:0:
320,192,303057,1,0,0:0:0:0:
64,192,303317,1,0,0:0:0:0:
192,192,303589,1,0,0:0:0:0:
320,192,303889,1,0,0:0:0:0:
64,192,304323,1,0,0:0:0:0:
320,192,305192,128,0,309540:0:0:0:0:
