osu file format v5

[General]
AudioFilename: Dragon Ball Z Theme.mp3
AudioLeadIn: 0
PreviewTime: -1
Countdown: 1
SampleSet: Normal
StackLeniency: 0.7
Mode: 0

[Metadata]
Title:Rock The Dragon
Artist:Dragonball Z
Creator:Lee
Version:

[Difficulty]
HPDrainRate:3
CircleSize:3
OverallDifficulty:4
SliderMultiplier:1.4
SliderTickRate:4

[Events]
//Background and Video events
0,0,"1166189787509.jpg"
//Break Periods
//Storyboard Layer 0 (Background)
//Storyboard Layer 1 (Failing)
//Storyboard Layer 2 (Passing)
//Storyboard Layer 3 (Foreground)
//Storyboard Sound Samples
//Background Colour Transformations
3,100,163,162,255

[TimingPoints]
5017,563.03236673,4,1,0,100

[Colours]
Combo1 : 217,108,0
Combo2 : 243,89,34
Combo3 : 228,199,27

[HitObjects]
229,160,1779,5,0
294,230,2061,1,0
295,228,3890,5,0
230,159,4172,1,0
72,235,5017,5,0
193,201,6143,1,0
312,199,6424,1,0
136,192,8395,5,0
254,193,8958,1,0
382,191,9521,1,0
172,212,10506,5,0
303,210,11069,1,0
419,156,11914,1,0
419,50,12336,1,0
257,212,12805,2,2,B|256:46|256:39,1,163.333333333333
254,47,13884,1,4
72,44,15010,5,0
71,157,15573,1,0
189,230,16277,1,0
323,228,16699,1,0
272,299,17262,1,0
150,314,17825,1,0
70,241,18389,1,4
70,194,19233,6,2,B|254:80|339:108|338:107|338:107|337:107|336:109,5,280
333,100,26130,1,0
248,124,26693,1,0
162,151,27256,1,0
82,181,27819,1,0
85,268,28382,5,0
161,311,28945,1,0
336,310,29649,1,0
420,262,30071,1,0
422,164,30634,1,0
330,167,31198,1,0
233,168,31761,1,4
62,180,32746,5,0
158,183,33309,1,0
229,282,34013,1,0
326,282,34435,1,0
438,182,34998,1,0
435,284,35561,1,0
344,81,36124,1,4
259,194,37250,5,0
328,260,37813,1,0
199,139,38517,1,0
129,76,38939,1,0
403,304,39502,1,0
331,251,40065,1,0
261,192,40628,1,4
50,343,41754,5,0
185,342,42317,1,0
324,273,43021,1,0
325,136,43443,1,0
190,70,43960,2,0,B|330:145|327:138,2,140
212,277,46118,6,2,B|444:276|444:276|443:138|443:139|444:139|444:139|246:139,3,560
358,246,53437,1,2
255,191,54000,1,4
256,192,54845,12,4,56534
256,199,57238,1,4
