osu file format v13

[General]
AudioFilename: Dragonforce - Wings Of Liberty.mp3
AudioLeadIn: 0
PreviewTime: 114344
Countdown: 0
SampleSet: Normal
StackLeniency: 0.7
Mode: 0
LetterboxInBreaks: 1
WidescreenStoryboard: 0

[Editor]
DistanceSpacing: 0.5
BeatDivisor: 4
GridSize: 4
TimelineZoom: 1.4

[Metadata]
Title:Wings Of Liberty
TitleUnicode:Wings Of Liberty
Artist:DragonForce
ArtistUnicode:DragonForce
Creator:toybot
Version:Freedom
Source:
Tags:guitar hero the power within metal
BeatmapID:471203
BeatmapSetID:198614

[Difficulty]
HPDrainRate:7
CircleSize:4
OverallDifficulty:7
ApproachRate:9.5
SliderMultiplier:1.7
SliderTickRate:1

[Events]
//Background and Video events
0,0,"black-wide-and-hd-dark-abstract-blue-mobile-jpg-x-kb-306657.jpg",0,0
//Break Periods
2,53344,55019
2,86944,90344
//Storyboard Layer 0 (Background)
//Storyboard Layer 1 (Fail)
//Storyboard Layer 2 (Pass)
//Storyboard Layer 3 (Foreground)
//Storyboard Sound Samples
//Background Colour Transformations
3,100,163,162,255

[TimingPoints]
5144.95145631068,600,4,2,0,5,1,0
32744,-125,4,2,0,15,0,0
33944,-125,4,2,0,23,0,0
43544,-111.111111111111,4,1,0,55,0,0
43994,-111.111111111111,4,2,0,30,0,0
45644,-111.111111111111,4,1,0,40,0,0
45944,-111.111111111111,4,1,0,50,0,0
46244,-111.111111111111,4,2,0,30,0,0
48044,-111.111111111111,4,1,0,40,0,0
48344,-111.111111111111,4,1,0,50,0,0
48644,-111.111111111111,4,2,0,30,0,0
50444,-111.111111111111,4,1,0,40,0,0
51044,-111.111111111111,4,2,0,30,0,0
53144,-111.111111111111,4,2,0,59,0,0
55394,-100,4,2,0,5,0,0
55544,300,4,1,0,50,1,0
64394,-90.9090909090909,4,1,0,50,0,0
64694,-83.3333333333333,4,1,0,50,0,0
64994,-76.9230769230769,4,1,0,50,0,0
65294,-90.9090909090909,4,1,0,50,0,0
79544,-90.9090909090909,4,1,0,70,0,0
79694,-90.9090909090909,4,1,0,50,0,0
90944,-142.857142857143,4,2,0,30,0,0
91244,-142.857142857143,4,1,1,70,0,0
91544,-105.263157894737,4,1,1,50,0,0
107294,-105.263157894737,4,1,1,45,0,0
107744,-105.263157894737,4,1,1,40,0,0
108344,-105.263157894737,4,1,1,50,0,0
109694,-105.263157894737,4,1,1,45,0,0
110144,-105.263157894737,4,1,1,40,0,0
110744,-105.263157894737,4,1,1,50,0,0
113144,-105.263157894737,4,1,1,60,0,0
113294,-105.263157894737,4,1,1,50,0,0
114944,-90.9090909090909,4,1,1,50,0,0
115244,-76.9230769230769,4,1,1,50,0,0
115544,-90.9090909090909,4,1,1,50,0,1
123944,-71.4285714285714,4,1,1,50,0,1
124394,-62.5,4,1,1,50,0,1
125144,-83.3333333333333,4,1,1,50,0,1
132344,-83.3333333333333,4,1,1,50,0,0
133844,-83.3333333333333,4,1,1,45,0,0
134144,-83.3333333333333,4,1,1,40,0,0
134444,-83.3333333333333,4,1,1,30,0,0
134744,-83.3333333333333,4,1,1,50,0,1
144344,-111.111111111111,4,1,1,60,0,0
144494,-111.111111111111,4,2,2,40,0,0
151544,-111.111111111111,4,1,0,40,0,0
151769,-111.111111111111,4,2,0,40,0,0
152744,-111.111111111111,4,2,2,40,0,0
153344,-111.111111111111,4,2,5,40,0,0
153944,-90.9090909090908,4,1,1,55,0,1
157844,-90.9090909090908,4,2,5,55,0,1
158744,-90.9090909090908,4,1,1,55,0,1
171944,-71.4285714285714,4,1,1,55,0,1
172844,-71.4285714285714,4,3,1,60,0,1
173144,-90.9090909090908,4,1,1,55,0,0
177944,-90.9090909090908,4,1,1,50,0,0

[Colours]
Combo1 : 0,108,108
Combo2 : 32,143,255
Combo3 : 0,109,219

[HitObjects]
80,224,32744,6,0,P|60:268|76:312,1,68,2|0,0:0|0:0,0:0:0:0:
184,324,33344,2,0,P|204:280|188:236,1,68,2|0,0:0|0:0,0:0:0:0:
80,224,33944,5,2,0:0:0:0:
64,200,34094,1,0,0:0:0:0:
64,172,34244,1,0,0:0:0:0:
80,148,34394,1,0,0:0:0:0:
104,136,34544,2,0,L|136:140,4,22.6666666666667,0|0|0|0|0,0:0|0:0|0:0|0:0|0:0,0:0:0:0:
192,92,35144,5,0,0:0:0:0:
212,112,35294,1,0,0:0:0:0:
236,124,35444,1,0,0:0:0:0:
264,128,35594,1,0,0:0:0:0:
292,124,35744,2,0,L|320:100,4,22.6666666666667,0|0|0|0|0,0:0|0:0|0:0|0:0|0:0,0:0:0:0:
384,144,36344,6,0,P|428:168|444:296,1,187,2|0,0:0|0:0,0:0:0:0:
256,340,37544,1,2,0:0:0:0:
256,340,38144,2,0,P|264:296|256:264,1,68,2|0,0:0|0:0,0:0:0:0:
312,176,38744,5,0,0:0:0:0:
317,144,38894,1,0,0:0:0:0:
306,114,39044,1,0,0:0:0:0:
281,93,39194,1,0,0:0:0:0:
251,91,39344,2,0,L|219:110,4,22.6666666666667,0|0|0|0|0,0:0|0:0|0:0|0:0|0:0,0:0:0:0:
352,196,39944,5,0,0:0:0:0:
380,204,40094,1,0,0:0:0:0:
412,200,40244,1,0,0:0:0:0:
436,180,40394,1,0,0:0:0:0:
444,152,40544,2,0,L|432:120,4,22.6666666666667,0|0|0|0|0,0:0|0:0|0:0|0:0|0:0,0:0:0:0:
464,296,41144,6,0,P|404:300|340:236,1,136
256,284,42044,1,0,0:0:0:0:
48,296,42344,2,0,P|108:300|172:236,1,136,2|0,0:0|0:0,0:0:0:0:
172,80,43544,6,0,L|48:92,2,114.749996498108,4|0|0,1:0|0:0|0:0,0:0:0:0:
236,224,44744,2,0,P|284:268|460:240,1,229.499992996216,2|0,0:0|0:0,0:0:0:0:
480,180,45794,1,0,0:0:0:0:
436,104,45944,6,0,P|392:160|408:224,2,114.749996498108,4|0|0,0:0|0:0|0:0,0:0:0:0:
484,320,47144,2,0,L|232:312,1,229.499992996216,2|0,0:0|0:0,0:0:0:0:
192,256,48194,1,0,0:0:0:0:
136,336,48344,6,0,L|8:332,2,114.749996498108,4|0|2,0:0|0:0|0:0,0:0:0:0:
248,176,49544,2,0,L|376:172,2,114.749996498108,0|0|0,0:0|0:0|0:0,0:0:0:0:
180,124,50594,1,0,0:0:0:0:
184,40,50744,6,0,P|244:64|264:120,2,114.749996498108,0|0|2,0:0|0:0|0:0,0:0:0:0:
124,252,51944,2,0,P|64:228|44:172,2,114.749996498108,0|0|2,0:0|0:0|0:0,0:0:0:0:
360,196,53144,1,2,0:1:0:0:
24,236,55544,6,0,L|124:228,1,85,2|0,0:0|0:0,0:0:0:0:
204,264,55844,1,0,0:0:0:0:
260,156,55994,1,2,0:0:0:0:
112,228,56144,2,0,P|104:284|124:324,1,85,2|0,0:0|0:0,0:0:0:0:
260,156,56444,2,0,P|268:100|248:60,1,85
72,40,56744,1,0,0:0:0:0:
72,40,57044,6,0,L|172:32,1,85,2|0,0:0|0:0,0:0:0:0:
344,148,57344,2,0,L|259:154,1,85,2|0,0:0|0:0,0:0:0:0:
92,296,57644,2,0,L|176:289,1,85,2|0,0:0|0:0,0:0:0:0:
424,176,57944,6,0,P|428:128|312:72,1,170,6|0,0:0|0:0,0:0:0:0:
236,88,58394,1,2,0:0:0:0:
184,176,58544,2,0,P|180:224|296:280,1,170,2|0,0:0|0:0,0:0:0:0:
372,264,58994,1,0,0:0:0:0:
424,176,59144,6,0,P|420:128|424:80,2,85,2|0|0,0:0|0:0|0:0,0:0:0:0:
248,276,59594,2,0,P|244:324|232:368,2,85,2|0|0,0:0|0:0|0:0,0:0:0:0:
124,128,60044,2,0,P|72:128|32:132,1,85,2|0,0:0|0:0,0:0:0:0:
204,208,60344,6,0,B|248:176|288:200|332:228|388:172,1,170,6|0,0:0|0:0,0:0:0:0:
428,68,60794,2,0,P|372:52|272:92,1,170,2|0,0:0|0:0,0:0:0:0:
312,316,61244,2,0,P|368:332|468:292,1,170,2|6,0:0|0:0,0:0:0:0:
484,180,61694,5,0,0:0:0:0:
428,68,61844,1,0,0:0:0:0:
300,124,61994,2,0,L|108:128,1,170,2|0,0:0|0:0,0:0:0:0:
60,44,62444,2,0,P|100:20|152:24,1,85,2|0,0:0|0:0,0:0:0:0:
184,244,62744,5,6,0:0:0:0:
144,260,62819,1,0,0:0:0:0:
100,264,62894,1,0,0:0:0:0:
60,248,62969,1,0,0:0:0:0:
32,216,63044,2,0,P|24:196|32:160,1,42.5
60,84,63194,5,2,0:0:0:0:
100,64,63269,1,0,0:0:0:0:
144,68,63344,1,0,0:0:0:0:
180,92,63419,1,0,0:0:0:0:
196,132,63494,1,0,0:0:0:0:
208,172,63569,1,0,0:0:0:0:
240,200,63644,2,0,P|292:204|316:196,1,42.5,2|0,0:0|0:0,0:0:0:0:
400,152,63794,2,0,P|348:148|324:156,1,42.5
352,304,63944,5,0,0:0:0:0:
352,304,64094,2,0,P|364:240|352:200,1,85
184,56,64394,2,0,P|188:116|236:168,1,93.5000028533936
492,100,64694,2,0,L|376:96,1,101.999996887207
60,260,64994,2,0,L|180:264,1,110.499994941712
240,164,65294,6,0,P|192:144|120:156,1,93.5000028533936,6|0,0:0|0:0,0:0:0:0:
152,384,65594,2,0,P|198:383|240:364,1,93.5000028533936,2|0,0:0|0:0,0:0:0:0:
56,184,65894,1,2,0:0:0:0:
52,352,66044,1,2,0:0:0:0:
220,352,66194,1,0,0:0:0:0:
224,184,66344,1,2,0:0:0:0:
56,184,66494,6,0,L|44:280,1,93.5000028533936,6|0,0:0|0:0,0:0:0:0:
344,180,66794,2,0,L|355:87,1,93.5000028533936,2|0,0:0|0:0,0:0:0:0:
240,60,67094,1,2,0:0:0:0:
248,220,67244,1,2,0:0:0:0:
340,76,67394,1,0,0:0:0:0:
180,144,67544,1,2,0:0:0:0:
344,180,67694,6,0,P|408:188|464:160,1,93.5000028533936,6|0,0:0|0:0,0:0:0:0:
268,280,67994,2,0,P|260:344|288:400,1,93.5000028533936,2|0,0:0|0:0,0:0:0:0:
168,204,68294,2,0,P|104:196|48:224,1,93.5000028533936,2|0,0:0|0:0,0:0:0:0:
244,104,68594,2,0,P|252:40|224:-16,2,93.5000028533936,0|2|0,0:0|0:0|0:0,0:0:0:0:
72,180,69044,5,0,0:0:0:0:
120,160,69119,1,0,0:0:0:0:
172,164,69194,1,0,0:0:0:0:
212,196,69269,1,0,0:0:0:0:
224,244,69344,1,0,0:0:0:0:
236,292,69419,1,0,0:0:0:0:
276,324,69494,6,0,P|344:324|356:320,1,46.7500014266968
376,252,69644,2,0,P|342:193|332:184,1,46.7500014266968
264,200,69794,2,0,P|230:258|227:271,1,46.7500014266968
276,324,69944,6,0,L|488:296,1,187.000005706787,6|0,0:0|0:0,0:0:0:0:
492,144,70394,2,0,P|452:96|312:80,1,187.000005706787,2|0,0:0|0:0,0:0:0:0:
240,192,70844,2,0,P|164:196|116:160,1,93.5000028533936,2|0,0:0|0:0,0:0:0:0:
36,72,71144,5,6,0:0:0:0:
120,12,71294,1,0,0:0:0:0:
196,108,71444,1,0,0:0:0:0:
280,48,71594,2,0,L|476:56,1,187.000005706787,2|0,0:0|0:0,0:0:0:0:
500,172,72044,2,0,P|444:160|392:168,1,93.5000028533936,2|0,0:0|0:0,0:0:0:0:
328,256,72344,5,4,0:0:0:0:
292,292,72419,1,0,0:0:0:0:
244,304,72494,1,0,0:0:0:0:
192,300,72569,1,0,0:0:0:0:
152,268,72644,2,0,P|140:252|136:212,1,46.7500014266968
164,19,72794,5,4,0:2:0:0:
213,32,72869,1,0,0:0:0:0:
248,68,72944,1,0,0:0:0:0:
270,115,73019,1,0,0:0:0:0:
262,165,73094,2,0,P|254:183|221:206,1,46.7500014266968
27,277,73244,5,4,0:0:0:0:
14,228,73319,1,0,0:0:0:0:
28,180,73394,1,0,0:0:0:0:
57,137,73469,1,0,0:0:0:0:
105,119,73544,6,0,L|228:128,1,93.5000028533936,6|0,0:0|0:0,0:0:0:0:
424,64,73844,2,0,L|330:57,1,93.5000028533936,0|2,0:0|0:0,0:0:0:0:
156,232,74144,2,0,L|279:241,1,93.5000028533936,0|0,0:0|0:0,0:0:0:0:
475,177,74444,2,0,L|381:170,1,93.5000028533936,2|0,0:0|0:0,0:0:0:0:
207,345,74744,6,0,B|300:352|300:352|400:312,1,187.000005706787,4|0,0:0|0:0,0:0:0:0:
320,136,75194,1,2,0:0:0:0:
320,136,75344,1,0,0:0:0:0:
176,272,75494,1,2,0:0:0:0:
176,272,75644,1,0,0:0:0:0:
388,316,75794,1,2,0:0:0:0:
416,212,75944,5,0,0:0:0:0:
200,164,76094,1,2,0:0:0:0:
268,352,76244,1,2,0:0:0:0:
268,352,76319,1,0,0:0:0:0:
268,352,76394,1,0,0:0:0:0:
320,136,76544,2,2,P|288:76|88:108,1,280.500008560181,0|0,0:0|0:0,0:0:0:0:
56,188,77144,5,0,0:0:0:0:
192,316,77294,1,2,0:0:0:0:
192,316,77444,1,0,0:0:0:0:
240,136,77594,1,2,0:0:0:0:
240,136,77744,1,0,0:0:0:0:
80,288,77894,1,2,0:0:0:0:
80,288,78044,1,0,0:0:0:0:
276,236,78194,1,2,0:0:0:0:
132,104,78344,6,0,P|188:40|308:48,1,187.000005706787
324,60,78719,1,0,0:0:0:0:
348,100,78794,1,0,0:0:0:0:
352,148,78869,1,0,0:0:0:0:
340,192,78944,5,0,0:0:0:0:
336,216,79019,1,0,0:0:0:0:
340,240,79094,1,0,0:0:0:0:
352,260,79169,1,0,0:0:0:0:
372,272,79244,1,0,0:0:0:0:
396,280,79319,1,0,0:0:0:0:
420,280,79394,2,0,L|480:272,1,46.7500014266968
488,192,79544,5,4,0:0:0:0:
304,156,79694,1,2,0:0:0:0:
304,156,79844,1,0,0:0:0:0:
360,332,79994,1,2,0:0:0:0:
360,332,80144,1,0,0:0:0:0:
408,120,80294,5,2,0:0:0:0:
280,260,80444,1,0,0:0:0:0:
464,296,80594,1,2,0:0:0:0:
304,156,80744,5,0,0:0:0:0:
360,332,80894,1,2,0:0:0:0:
488,192,81044,1,2,0:0:0:0:
488,192,81119,1,0,0:0:0:0:
488,192,81194,1,0,0:0:0:0:
280,260,81344,2,2,B|216:276|144:268|100:200|112:136|112:136|144:144|164:184,1,280.500008560181
137,149,81944,5,0,0:0:0:0:
168,44,82094,2,0,P|220:28|268:28,1,93.5000028533936,2|0,0:0|0:0,0:0:0:0:
396,160,82394,2,0,P|344:144|296:144,1,93.5000028533936,2|0,0:0|0:0,0:0:0:0:
140,280,82694,2,0,P|192:264|240:264,1,93.5000028533936,2|0,0:0|0:0,0:0:0:0:
412,360,82994,1,2,0:0:0:0:
96,356,83144,6,0,P|52:288|136:192,1,187.000005706787,4|0,0:0|0:0,0:0:0:0:
348,240,83594,1,4,0:0:0:0:
296,260,83669,1,0,0:0:0:0:
240,248,83744,1,0,0:0:0:0:
200,208,83819,1,0,0:0:0:0:
184,156,83894,1,0,0:0:0:0:
204,104,83969,1,0,0:0:0:0:
248,68,84044,1,4,0:0:0:0:
304,60,84119,1,0,0:0:0:0:
356,80,84194,1,0,0:0:0:0:
392,124,84269,1,0,0:0:0:0:
392,180,84344,6,0,L|404:304,1,93.5000028533936,4|0,0:0|0:0,0:0:0:0:
384,280,84569,1,0,0:0:0:0:
368,288,84644,1,0,0:0:0:0:
352,296,84719,1,0,0:0:0:0:
336,304,84794,1,0,0:0:0:0:
320,312,84869,1,0,0:0:0:0:
304,320,84944,6,0,L|240:312,1,46.7500014266968
232,240,85094,2,0,L|168:232,1,46.7500014266968,0|0,0:0|0:0,0:0:0:0:
160,160,85244,2,0,L|96:152,1,46.7500014266968,0|0,0:0|0:0,0:0:0:0:
88,80,85394,2,0,L|24:72,1,46.7500014266968,0|0,0:0|0:0,0:0:0:0:
12,200,85544,6,2,B|64:288|152:280|208:248|248:184|248:184|288:120|368:96|432:112|480:184|472:208,1,561.000017120362,6|2,0:0|0:0,0:0:0:0:
472,208,86519,1,0,0:0:0:0:
476,228,86594,1,0,0:0:0:0:
476,248,86669,1,0,0:0:0:0:
480,268,86744,1,0,0:0:0:0:
480,268,90944,6,0,L|472:344,2,59.4999981842042,0|0|8,0:0|0:0|0:0,0:0:0:0:
360,176,91544,6,0,P|300:156|200:168,1,161.499995687485,4|8,0:0|0:0,0:0:0:0:
136,236,91994,1,0,0:0:0:0:
172,320,92144,2,0,L|272:316,1,80.7499978437424
104,148,92444,2,0,L|23:151,2,80.7499978437424,8|0|0,0:0|0:0|0:0,0:0:0:0:
200,168,92894,5,0,0:0:0:0:
264,104,93044,1,8,0:0:0:0:
348,80,93194,1,0,0:0:0:0:
436,92,93344,2,0,P|448:144|428:188,1,80.7499978437424
264,104,93644,2,0,P|252:52|272:8,1,80.7499978437424,8|0,0:0|0:0,0:0:0:0:
360,188,93944,6,0,P|304:232|200:212,1,161.499995687485,0|8,0:0|0:0,0:0:0:0:
144,172,94394,1,0,0:0:0:0:
48,184,94544,1,0,0:0:0:0:
104,264,94694,1,0,0:0:0:0:
88,96,94844,2,0,P|44:84|-8:112,1,80.7499978437424,8|0,0:0|0:0,0:0:0:0:
200,252,95144,6,0,P|244:264|296:236,1,80.7499978437424,0|0,0:0|0:0,0:0:0:0:
368,152,95444,2,0,L|360:56,1,80.7499978437424,8|0,0:0|0:0,0:0:0:0:
208,24,95744,1,0,0:0:0:0:
204,48,95819,1,0,0:0:0:0:
200,72,95894,1,0,0:0:0:0:
196,96,95969,1,0,0:0:0:0:
192,120,96044,1,0,0:0:0:0:
288,224,96194,1,0,0:0:0:0:
168,340,96344,6,0,P|92:300|68:204,1,161.499995687485,4|8,0:0|0:0,0:0:0:0:
176,232,96794,2,0,L|260:224,1,80.7499978437424
400,328,97094,2,0,L|316:320,1,80.7499978437424,0|8,0:0|0:0,0:0:0:0:
368,176,97394,1,0,0:0:0:0:
484,280,97544,6,0,P|500:336|488:368,2,80.7499978437424,0|0|8,0:0|0:0|0:0,0:0:0:0:
343,87,97994,2,0,P|284:137|288:216,1,161.499995687485
476,192,98444,2,0,P|476:144|440:100,1,80.7499978437424,8|0,0:0|0:0,0:0:0:0:
332,84,98744,6,0,L|136:96,1,161.499995687485,4|8,0:0|0:0,0:0:0:0:
32,200,99194,2,0,P|104:204|220:204,1,161.499995687485
332,300,99644,2,0,L|232:304,1,80.7499978437424,8|0,0:0|0:0,0:0:0:0:
340,216,99944,6,0,L|251:169,1,80.7499978437424,0|0,0:0|0:0,0:0:0:0:
392,156,100244,2,0,L|338:71,1,80.7499978437424,8|0,0:0|0:0,0:0:0:0:
468,136,100544,2,0,L|464:36,1,80.7499978437424,0|0,0:0|0:0,0:0:0:0:
196,24,100844,2,0,L|199:124,1,80.7499978437424,8|0,0:0|0:0,0:0:0:0:
120,284,101144,6,0,P|204:280|308:312,1,161.499995687485,4|8,0:0|0:0,0:0:0:0:
472,176,101594,2,0,P|412:180|376:180,1,80.7499978437424
292,104,101894,1,0,0:0:0:0:
292,104,101969,1,0,0:0:0:0:
292,104,102044,1,8,0:0:0:0:
204,208,102194,1,0,0:0:0:0:
104,144,102344,6,0,P|100:68|112:36,1,80.7499978437424
204,20,102644,1,8,0:0:0:0:
292,104,102794,2,0,P|288:204|288:288,1,161.499995687485
416,360,103244,2,0,P|416:300|412:244,1,80.7499978437424,8|0,0:0|0:0,0:0:0:0:
44,268,103544,6,0,P|80:312|192:308,1,161.499995687485,4|8,0:0|0:0,0:0:0:0:
120,156,103994,2,0,L|132:248,1,80.7499978437424
248,80,104294,2,0,L|198:158,1,80.7499978437424,0|8,0:0|0:0,0:0:0:0:
480,76,104594,6,0,L|304:120,1,161.499995687485,2|2,0:0|0:0,0:0:0:0:
368,8,105044,1,8,0:0:0:0:
464,164,105194,2,0,P|472:212|460:260,1,80.7499978437424,2|0,0:0|0:0,0:0:0:0:
380,328,105494,1,2,0:0:0:0:
348,324,105569,1,0,0:0:0:0:
316,320,105644,1,8,0:0:0:0:
284,316,105719,1,0,0:0:0:0:
252,312,105794,1,2,0:0:0:0:
112,348,105944,6,0,P|132:276|120:164,1,161.499995687485,12|0,0:0|0:0,0:0:0:0:
256,64,106394,2,0,P|250:144|271:221,1,161.499995687485,8|0,0:0|0:0,0:0:0:0:
384,280,106844,2,0,P|436:280|476:268,2,80.7499978437424,8|0|0,0:0|0:0|0:0,0:0:0:0:
208,128,107294,2,0,P|156:128|116:140,2,80.7499978437424,8|0|0,0:0|0:0|0:0,0:0:0:0:
368,120,107744,2,0,P|368:68|356:28,1,80.7499978437424,8|0,0:0|0:0,0:0:0:0:
216,296,108044,2,0,P|216:348|228:388,1,80.7499978437424,8|0,0:0|0:0,0:0:0:0:
292,216,108344,6,0,P|228:188|132:220,1,161.499995687485,12|0,0:0|0:0,0:0:0:0:
12,60,108794,2,0,P|76:88|172:56,1,161.499995687485,8|0,0:0|0:0,0:0:0:0:
416,136,109244,2,0,L|312:128,1,80.7499978437424,8|0,0:0|0:0,0:0:0:0:
236,96,109544,1,0,0:0:0:0:
168,217,109694,2,0,L|88:224,2,80.7499978437424,8|0|0,0:0|0:0|0:0,0:0:0:0:
384,312,110144,2,0,P|345:323|305:324,1,80.7499978437424,8|8,0:0|0:0,0:0:0:0:
188,128,110444,2,0,P|226:116|266:115,1,80.7499978437424
420,216,110744,5,12,0:0:0:0:
132,304,111044,1,0,0:0:0:0:
132,304,111194,2,0,P|100:248|96:136,1,161.499995687485,8|0,0:0|0:0,0:0:0:0:
304,80,111644,2,0,L|296:164,1,80.7499978437424,8|0,0:0|0:0,0:0:0:0:
360,248,111944,2,0,P|404:268|444:268,2,80.7499978437424,8|0|0,0:0|0:0|0:0,0:0:0:0:
196,144,112394,2,0,P|155:147|120:165,2,80.7499978437424,8|0|0,0:0|0:0|0:0,0:0:0:0:
392,128,112844,1,8,0:0:0:0:
224,44,112994,1,0,0:0:0:0:
340,32,113144,6,0,L|328:224,1,161.499995687485,12|0,0:0|0:0,0:0:0:0:
336,212,113519,1,0,0:0:0:0:
344,232,113594,1,0,0:0:0:0:
232,248,113744,1,0,0:0:0:0:
238,266,113819,1,0,0:0:0:0:
246,286,113894,1,0,0:0:0:0:
140,300,114044,1,0,0:0:0:0:
146,318,114119,1,0,0:0:0:0:
154,338,114194,1,0,0:0:0:0:
48,352,114344,5,0,0:0:0:0:
40,332,114419,1,0,0:0:0:0:
32,312,114494,1,0,0:0:0:0:
24,292,114569,1,0,0:0:0:0:
16,272,114644,6,0,L|20:212,1,40.3749989218712
112,120,114794,2,0,L|109:160,1,40.3749989218712
180,300,114944,6,0,L|182:235,1,46.7500014266968,2|0,0:0|0:0,0:0:0:0:
284,112,115094,2,2,L|281:176,1,46.7500014266968,0|0,0:0|0:0,0:0:0:0:
340,328,115244,6,0,L|344:256,1,55.2499974708558
464,104,115394,2,0,L|460:159,1,55.2499974708558,0|0,0:0|0:0,0:0:0:0:
500,352,115544,5,6,0:0:0:0:
460,356,115619,1,0,0:0:0:0:
420,352,115694,1,8,0:0:0:0:
384,328,115769,1,0,0:0:0:0:
364,292,115844,1,0,0:0:0:0:
344,256,115919,1,0,0:0:0:0:
312,228,115994,1,8,0:0:0:0:
272,220,116069,1,0,0:0:0:0:
232,224,116144,6,0,P|188:224|156:244,1,46.7500014266968,2|0,0:0|0:0,0:0:0:0:
120,140,116294,2,0,P|116:163|120:186,1,46.7500014266968,8|0,0:0|0:0,0:0:0:0:
24,248,116444,2,0,P|68:248|100:228,1,46.7500014266968,0|0,0:0|0:0,0:0:0:0:
136,332,116594,2,0,P|139:308|135:285,1,46.7500014266968,10|0,0:0|0:0,0:0:0:0:
232,224,116744,5,0,0:0:0:0:
216,196,116819,1,0,0:0:0:0:
212,164,116894,1,10,0:0:0:0:
224,132,116969,1,0,0:0:0:0:
248,108,117044,1,0,0:0:0:0:
280,96,117119,1,0,0:0:0:0:
312,96,117194,1,8,0:0:0:0:
344,108,117269,1,0,0:0:0:0:
364,132,117344,6,0,P|368:160|356:200,3,46.7500014266968,0|0|8|0,0:0|0:0|0:0|0:0,0:0:0:0:
228,80,117644,2,0,P|225:56|229:33,3,46.7500014266968,2|0|8|0,0:0|0:0|0:0|0:0,0:0:0:0:
104,184,117944,6,0,P|112:244|112:312,1,93.5000028533936,6|8,0:0|0:0,0:0:0:0:
264,260,118244,2,0,P|268:200|284:144,1,93.5000028533936,2|8,0:0|0:0,0:0:0:0:
424,196,118544,1,2,0:0:0:0:
424,196,118694,2,0,P|436:272|432:300,1,93.5000028533936,10|0,0:0|0:0,0:0:0:0:
176,156,118994,6,0,P|212:92|340:84,1,187.000005706787,6|8,0:0|0:0,0:0:0:0:
432,152,119444,1,0,0:0:0:0:
428,176,119519,1,0,0:0:0:0:
424,200,119594,1,8,0:0:0:0:
420,224,119669,1,0,0:0:0:0:
408,248,119744,1,0,0:0:0:0:
404,272,119819,1,0,0:0:0:0:
400,296,119894,1,8,0:0:0:0:
396,320,119969,1,0,0:0:0:0:
380,344,120044,2,0,B|336:356|336:356|280:348,1,93.5000028533936,0|8,0:0|0:0,0:0:0:0:
216,316,120269,1,0,0:0:0:0:
216,316,120344,6,0,B|148:304|148:304|16:332,1,187.000005706787,4|0,0:0|0:0,0:0:0:0:
120,208,120794,2,0,B|188:220|188:220|320:192,1,187.000005706787,8|8,0:0|0:0,0:0:0:0:
376,112,121244,2,0,P|384:60|368:8,1,93.5000028533936,0|8,0:0|0:0,0:0:0:0:
20,168,121544,6,0,P|12:220|28:272,2,93.5000028533936,4|8|0,0:0|0:0|0:0,0:0:0:0:
92,88,121994,1,8,0:0:0:0:
164,152,122144,1,0,0:0:0:0:
192,52,122294,1,8,0:0:0:0:
100,224,122444,2,0,P|168:248|216:228,1,93.5000028533936,0|8,0:0|0:0,0:0:0:0:
308,164,122744,5,4,0:0:0:0:
340,148,122819,1,0,0:0:0:0:
376,144,122894,1,8,0:0:0:0:
412,156,122969,1,0,0:0:0:0:
436,184,123044,1,0,0:0:0:0:
448,220,123119,1,0,0:0:0:0:
440,256,123194,1,8,0:0:0:0:
420,288,123269,1,0,0:0:0:0:
344,280,123344,5,0,0:0:0:0:
324,284,123419,1,0,0:0:0:0:
304,288,123494,1,8,0:0:0:0:
284,292,123569,1,0,0:0:0:0:
264,296,123644,2,0,L|200:292,3,46.7500014266968,0|0|8|0,0:0|0:0|0:0|0:0,0:0:0:0:
148,256,123944,6,0,P|136:196|148:164,1,59.4999981842042,8|0,0:0|0:0,0:0:0:0:
228,100,124094,2,8,P|182:140|148:146,1,59.4999981842042,0|0,0:0|0:0,0:0:0:0:
56,108,124244,2,0,P|113:127|135:153,1,59.4999981842042,8|0,0:0|0:0,0:0:0:0:
248,212,124394,6,0,P|204:200|168:176,1,68,8|0,0:0|0:0,0:0:0:0:
140,28,124544,2,8,P|151:72|148:115,1,68
44,220,124694,2,0,P|76:187|115:168,1,68,8|0,0:0|0:0,0:0:0:0:
248,212,124844,5,10,0:0:0:0:
276,216,124919,1,8,0:0:0:0:
304,220,124994,1,10,0:0:0:0:
332,224,125069,1,8,0:0:0:0:
360,228,125144,6,0,P|416:164|412:128,1,101.999996887207,6|8,0:0|0:0,0:0:0:0:
248,36,125444,2,0,P|192:100|196:136,1,101.999996887207,0|8,0:0|0:0,0:0:0:0:
204,268,125744,1,2,0:0:0:0:
328,116,125894,1,8,0:0:0:0:
120,88,126044,1,0,0:0:0:0:
204,268,126194,2,0,P|312:260|416:264,2,203.999993774414,10|10|10,0:0|0:0|0:0,0:0:0:0:
96,312,126944,5,8,0:0:0:0:
60,284,127019,1,8,0:0:0:0:
40,240,127094,1,8,0:0:0:0:
40,196,127169,1,0,0:0:0:0:
60,156,127244,2,0,L|128:136,1,50.9999984436036,8|8,0:0|0:0,0:0:0:0:
203,174,127394,2,8,L|252:160,1,50.9999984436036,0|0,0:0|0:0,0:0:0:0:
348,192,127544,6,0,L|452:164,1,101.999996887207,6|8,0:0|0:0,0:0:0:0:
488,92,127769,1,0,0:0:0:0:
488,92,127844,2,0,P|420:84|384:108,1,101.999996887207,0|10,0:0|0:0,0:0:0:0:
404,244,128144,2,0,P|472:252|508:228,2,101.999996887207,2|8|0,0:0|0:0|0:0,0:0:0:0:
288,112,128594,1,10,0:0:0:0:
160,180,128744,6,2,L|184:388,1,203.999993774414,6|0,0:0|0:0,0:0:0:0:
288,276,129194,1,8,0:0:0:0:
232,120,129344,2,0,P|180:88|68:176,1,203.999993774414
288,276,129794,1,8,0:0:0:0:
308,272,129869,1,0,0:0:0:0:
328,268,129944,6,0,P|392:192|392:168,1,101.999996887207,4|8,0:0|0:0,0:0:0:0:
376,72,130244,1,0,0:0:0:0:
276,152,130394,1,8,0:0:0:0:
408,272,130544,2,0,L|520:260,1,101.999996887207,0|8,0:0|0:0,0:0:0:0:
276,152,130844,2,0,L|164:164,1,101.999996887207,0|8,0:0|0:0,0:0:0:0:
40,104,131144,6,0,P|24:176|48:232,1,101.999996887207,4|8,0:0|0:0,0:0:0:0:
200,292,131444,2,0,P|216:244|209:194,1,101.999996887207,0|8,0:0|0:0,0:0:0:0:
24,276,131744,2,0,P|96:292|152:268,1,101.999996887207,0|8,0:0|0:0,0:0:0:0:
212,116,132044,2,0,P|164:99|114:106,1,101.999996887207,0|8,0:0|0:0,0:0:0:0:
200,292,132344,5,8,0:0:0:0:
232,288,132419,1,8,0:0:0:0:
264,284,132494,1,8,0:0:0:0:
296,280,132569,1,8,0:0:0:0:
328,276,132644,2,0,L|360:228,1,50.9999984436036,8|0,0:0|0:0,0:0:0:0:
144,212,132794,5,8,0:0:0:0:
176,208,132869,1,8,0:0:0:0:
208,204,132944,1,8,0:0:0:0:
240,200,133019,1,8,0:0:0:0:
272,196,133094,2,0,L|304:148,1,50.9999984436036
92,128,133244,5,8,0:0:0:0:
124,124,133319,1,8,0:0:0:0:
156,120,133394,1,8,0:0:0:0:
188,116,133469,1,0,0:0:0:0:
220,112,133544,6,0,L|252:64,1,50.9999984436036,8|0,0:0|0:0,0:0:0:0:
332,96,133694,2,0,L|364:48,1,50.9999984436036,0|0,0:0|0:0,0:0:0:0:
448,80,133844,2,0,L|480:32,3,50.9999984436036,8|0|0|0,0:0|0:0|0:0|0:0,0:0:0:0:
432,104,134144,5,8,0:0:0:0:
424,132,134219,1,0,0:0:0:0:
428,164,134294,1,0,0:0:0:0:
444,188,134369,1,0,0:0:0:0:
468,204,134444,5,8,0:0:0:0:
452,224,134519,1,0,0:0:0:0:
444,248,134594,1,0,0:0:0:0:
448,272,134669,1,0,0:0:0:0:
460,296,134744,6,0,P|380:280|328:296,1,101.999996887207,4|0,0:0|0:0,0:0:0:0:
252,336,135044,1,8,0:0:0:0:
228,344,135119,1,0,0:0:0:0:
204,344,135194,1,0,0:0:0:0:
180,336,135269,1,0,0:0:0:0:
160,320,135344,6,0,P|144:296|136:268,1,50.9999984436036,8|0,0:0|0:0,0:0:0:0:
76,116,135494,2,0,P|92:140|100:168,1,50.9999984436036,0|0,0:0|0:0,0:0:0:0:
224,176,135644,2,0,P|203:190|179:198,1,50.9999984436036,8|0,0:0|0:0,0:0:0:0:
12,260,135794,2,0,P|32:245|56:237,1,50.9999984436036,0|0,0:0|0:0,0:0:0:0:
252,148,135944,5,8,0:0:0:0:
292,136,136019,1,0,0:0:0:0:
332,136,136094,1,0,0:0:0:0:
372,152,136169,1,0,0:0:0:0:
400,184,136244,1,8,0:0:0:0:
412,224,136319,1,0,0:0:0:0:
412,264,136394,1,0,0:0:0:0:
396,300,136469,1,0,0:0:0:0:
368,328,136544,6,0,L|308:352,1,50.9999984436036,8|0,0:0|0:0,0:0:0:0:
212,288,136694,2,0,L|188:228,1,50.9999984436036,0|0,0:0|0:0,0:0:0:0:
256,136,136844,2,0,L|316:112,1,50.9999984436036,8|0,0:0|0:0,0:0:0:0:
412,176,136994,2,0,L|436:236,1,50.9999984436036,0|0,0:0|0:0,0:0:0:0:
184,296,137144,5,12,0:0:0:0:
152,292,137219,1,0,0:0:0:0:
128,276,137294,1,0,0:0:0:0:
112,248,137369,1,0,0:0:0:0:
112,216,137444,2,0,L|116:160,3,50.9999984436036,8|0|0|0,0:0|0:0|0:0|0:0,0:0:0:0:
56,56,137744,5,8,0:0:0:0:
84,64,137819,1,0,0:0:0:0:
116,64,137894,1,0,0:0:0:0:
144,56,137969,1,0,0:0:0:0:
168,40,138044,2,0,P|200:28|228:28,3,50.9999984436036,8|0|0|0,0:0|0:0|0:0|0:0,0:0:0:0:
308,32,138344,6,0,P|348:40|372:56,1,50.9999984436036,8|0,0:0|0:0,0:0:0:0:
360,136,138494,2,0,P|385:167|393:195,1,50.9999984436036,0|0,0:0|0:0,0:0:0:0:
328,248,138644,2,0,P|327:288|315:315,1,50.9999984436036,8|0,0:0|0:0,0:0:0:0:
236,304,138794,2,0,P|209:334|183:347,1,50.9999984436036,0|0,0:0|0:0,0:0:0:0:
120,296,138944,6,0,L|48:292,3,50.9999984436036,8|0|0|0,0:0|0:0|0:0|0:0,0:0:0:0:
220,184,139244,2,0,L|292:180,3,50.9999984436036,8|0|0|0,0:0|0:0|0:0|0:0,0:0:0:0:
100,88,139544,6,0,P|160:36|216:28,1,101.999996887207,12|0,0:0|0:0,0:0:0:0:
280,104,139844,1,8,0:0:0:0:
380,56,139994,2,0,L|488:64,1,101.999996887207,0|8,0:0|0:0,0:0:0:0:
500,188,140294,1,0,0:0:0:0:
500,188,140369,1,0,0:0:0:0:
500,188,140444,2,0,L|392:196,1,101.999996887207,8|0,0:0|0:0,0:0:0:0:
264,260,140744,6,0,B|220:168|220:168|160:288,1,203.999993774414,8|8,0:0|0:0,0:0:0:0:
328,348,141194,2,0,L|440:336,1,101.999996887207,0|8,0:0|0:0,0:0:0:0:
492,228,141494,1,0,0:0:0:0:
492,228,141569,1,0,0:0:0:0:
492,228,141644,1,8,0:0:0:0:
360,120,141794,1,0,0:0:0:0:
224,196,141944,6,0,P|148:192|8:192,1,203.999993774414,12|8,0:0|0:0,0:0:0:0:
288,304,142394,2,0,P|376:296|408:296,1,101.999996887207,0|8,0:0|0:0,0:0:0:0:
360,120,142694,1,0,0:0:0:0:
360,120,142769,1,0,0:0:0:0:
360,120,142844,2,0,P|364:192|360:236,1,101.999996887207,8|0,0:0|0:0,0:0:0:0:
140,260,143144,5,8,0:0:0:0:
116,220,143219,1,8,0:0:0:0:
112,176,143294,1,8,0:0:0:0:
132,136,143369,1,8,0:0:0:0:
172,112,143444,2,0,P|216:104|244:116,1,50.9999984436036
400,193,143594,5,8,0:0:0:0:
378,234,143669,1,8,0:0:0:0:
342,260,143744,1,8,0:0:0:0:
297,262,143819,1,8,0:0:0:0:
256,240,143894,2,0,P|227:205|223:175,1,50.9999984436036
227,11,144044,5,8,0:0:0:0:
274,9,144119,1,8,0:0:0:0:
314,28,144194,1,8,0:0:0:0:
339,66,144269,1,8,0:0:0:0:
340,112,144344,6,0,P|268:108|156:108,1,152.999995330811,4|0,0:0|0:0,0:0:0:0:
112,148,144794,1,0,0:0:0:0:
164,220,144944,2,0,P|176:260|176:296,1,76.4999976654053,8|0,0:0|0:0,0:0:0:0:
272,200,145244,2,0,P|268:152|276:108,1,76.4999976654053,10|0,0:0|0:0,0:0:0:0:
356,276,145544,6,0,P|428:280|488:136,1,229.499992996216,2|0,0:0|0:0,0:0:0:0:
396,112,146144,2,0,P|396:160|408:200,1,76.4999976654053,8|0,0:0|0:0,0:0:0:0:
320,88,146444,2,0,P|289:124|272:163,1,76.4999976654053
272,28,146744,6,0,P|224:36|120:96,1,152.999995330811,4|0,0:0|0:0,0:0:0:0:
52,88,147194,1,0,0:0:0:0:
48,176,147344,2,0,L|132:188,1,76.4999976654053,8|0,0:0|0:0,0:0:0:0:
232,252,147644,2,0,P|180:264|156:276,1,76.4999976654053,10|0,0:0|0:0,0:0:0:0:
44,356,147944,6,0,B|128:352|200:372|200:372|240:352|280:348,1,229.499992996216,2|0,0:0|0:0,0:0:0:0:
352,372,148544,2,0,L|456:364,1,76.4999976654053,8|0,0:0|0:0,0:0:0:0:
380,292,148844,1,2,0:0:0:0:
500,208,149144,6,0,P|432:204|328:172,1,152.999995330811,4|0,0:0|0:0,0:0:0:0:
268,216,149594,2,0,P|208:204|160:212,1,76.4999976654053,0|8,0:0|0:2,0:0:0:0:
104,172,149894,1,0,0:0:0:0:
160,100,150044,2,0,L|256:108,1,76.4999976654053,10|0,0:0|0:0,0:0:0:0:
268,216,150344,6,0,P|272:280|120:360,1,229.499992996216,10|0,0:0|0:0,0:0:0:0:
168,256,150944,2,0,L|336:248,1,152.999995330811,8|2,0:0|0:0,0:0:0:0:
396,188,151394,1,0,0:0:0:0:
484,260,151544,6,2,P|504:212|488:128,1,114.749996498108,4|2,0:0|0:1,0:0:0:0:
488,132,151844,2,0,L|492:88,3,38.2499988327027,2|2|2|2,0:1|0:1|0:1|0:1,0:0:0:0:
412,96,152144,2,0,L|416:52,3,38.2499988327027,2|2|2|2,0:1|0:1|0:1|0:1,0:0:0:0:
336,60,152444,2,2,L|340:16,3,38.2499988327027,2|2|2|2,0:1|0:1|0:1|0:1,0:0:0:0:
260,32,152744,5,2,0:1:0:0:
252,64,152819,1,2,0:1:0:0:
232,92,152894,1,2,0:1:0:0:
204,112,152969,1,2,0:1:0:0:
172,120,153044,1,2,0:1:0:0:
136,116,153119,1,2,0:1:0:0:
104,104,153194,1,2,0:1:0:0:
76,84,153269,1,2,0:1:0:0:
56,56,153344,5,2,0:1:0:0:
60,80,153419,1,2,0:1:0:0:
64,104,153494,1,2,0:1:0:0:
68,128,153569,1,2,0:1:0:0:
72,152,153644,1,2,0:1:0:0:
76,176,153719,1,2,0:1:0:0:
80,200,153794,1,2,0:1:0:0:
84,224,153869,1,2,0:1:0:0:
88,248,153944,6,0,P|88:304|72:364,1,93.5000028533936,4|8,0:0|0:0,0:0:0:0:
208,296,154244,1,0,0:0:0:0:
308,340,154394,1,8,0:0:0:0:
376,244,154544,2,0,L|484:248,1,93.5000028533936,0|8,0:0|0:0,0:0:0:0:
340,156,154844,2,0,L|448:160,1,93.5000028533936,0|8,0:0|0:0,0:0:0:0:
304,64,155144,6,0,L|412:68,1,93.5000028533936,0|8,0:0|0:0,0:0:0:0:
480,176,155444,1,0,0:0:0:0:
292,256,155594,2,0,P|180:244|92:244,1,187.000005706787,8|8,0:0|0:0,0:0:0:0:
105,243,155969,1,0,0:0:0:0:
105,243,156044,2,0,P|112:304|108:352,1,93.5000028533936,0|8,0:0|0:0,0:0:0:0:
220,160,156344,6,0,P|224:96|240:44,1,93.5000028533936,4|8,0:0|0:0,0:0:0:0:
344,24,156644,1,0,0:0:0:0:
408,124,156794,2,0,P|404:188|388:240,1,93.5000028533936,8|0,0:0|0:0,0:0:0:0:
244,296,157094,2,0,P|301:267|354:255,1,93.5000028533936,8|0,0:0|0:0,0:0:0:0:
476,352,157394,6,0,P|422:316|385:276,2,93.5000028533936,8|0|8,0:0|0:0|0:0,0:0:0:0:
380,188,157844,1,0,0:0:0:0:
356,176,157919,1,0,0:0:0:0:
328,172,157994,1,0,0:0:0:0:
300,176,158069,1,0,0:0:0:0:
276,188,158144,1,0,0:0:0:0:
256,208,158219,1,0,0:0:0:0:
232,224,158294,1,0,0:0:0:0:
204,232,158369,1,0,0:0:0:0:
176,232,158444,2,0,P|148:228|124:208,3,46.7500014266968,0|0|0|0,0:0|0:0|0:0|0:0,0:0:0:0:
76,156,158744,6,0,P|68:100|84:48,1,93.5000028533936,4|8,0:0|0:0,0:0:0:0:
228,24,159044,2,0,P|236:80|220:132,1,93.5000028533936,0|8,0:0|0:0,0:0:0:0:
196,236,159344,2,0,P|112:228|4:224,1,187.000005706787
136,344,159794,1,8,0:0:0:0:
268,368,159944,6,0,P|340:372|388:368,1,93.5000028533936,0|8,0:0|0:0,0:0:0:0:
432,272,160244,1,0,0:0:0:0:
452,144,160394,2,0,P|336:196|312:284,1,187.000005706787,8|8,0:0|0:0,0:0:0:0:
232,140,160844,2,0,L|240:40,1,93.5000028533936,0|8,0:0|0:0,0:0:0:0:
124,176,161144,6,0,P|132:240|136:304,1,93.5000028533936,4|8,0:0|0:0,0:0:0:0:
48,344,161444,1,0,0:0:0:0:
220,296,161594,2,0,P|304:304|408:340,1,187.000005706787,8|8,0:0|0:0,0:0:0:0:
408,332,161969,1,0,0:0:0:0:
416,328,162044,2,0,L|416:232,1,93.5000028533936,0|8,0:0|0:0,0:0:0:0:
432,92,162344,5,8,0:0:0:0:
412,112,162419,1,8,0:0:0:0:
384,124,162494,1,8,0:0:0:0:
356,120,162569,1,8,0:0:0:0:
328,116,162644,1,8,0:0:0:0:
300,124,162719,1,0,0:0:0:0:
276,140,162794,2,0,P|272:164|272:204,1,46.7500014266968,8|8,0:0|0:0,0:0:0:0:
184,292,162944,6,0,P|188:268|188:228,1,46.7500014266968,8|8,0:0|0:0,0:0:0:0:
172,168,163094,2,0,P|148:164|125:162,1,46.7500014266968,8|0,0:0|0:0,0:0:0:0:
276,264,163244,2,0,P|348:272|392:252,1,93.5000028533936
366,266,163469,1,8,0:0:0:0:
366,266,163544,6,0,B|360:336|396:352|396:352|448:356|472:288,1,187.000005706787,4|0,0:0|0:0,0:0:0:0:
500,184,163994,2,0,L|476:72,1,93.5000028533936,8|0,0:0|0:0,0:0:0:0:
360,32,164294,1,8,0:0:0:0:
360,32,164369,1,0,0:0:0:0:
360,32,164444,1,0,0:0:0:0:
280,136,164594,1,8,0:0:0:0:
168,80,164744,6,0,P|96:76|20:184,1,187.000005706787,4|0,0:0|0:0,0:0:0:0:
116,336,165194,2,0,P|188:340|264:232,1,187.000005706787,8|8,0:0|0:0,0:0:0:0:
144,208,165644,1,0,0:0:0:0:
168,80,165794,1,8,0:0:0:0:
344,80,165944,6,0,P|416:76|492:184,1,187.000005706787,4|0,0:0|0:0,0:0:0:0:
396,336,166394,2,0,P|324:340|248:232,1,187.000005706787,8|8,0:0|0:0,0:0:0:0:
368,208,166844,1,0,0:0:0:0:
344,80,166994,1,8,0:0:0:0:
168,80,167144,6,0,L|68:72,1,93.5000028533936,4|8,0:0|0:0,0:0:0:0:
224,200,167444,2,0,L|324:188,1,93.5000028533936,0|8,0:0|0:0,0:0:0:0:
260,96,167744,1,0,0:0:0:0:
136,252,167894,1,8,0:0:0:0:
356,280,168044,2,0,L|472:272,1,93.5000028533936,0|8,0:0|0:0,0:0:0:0:
368,208,168344,6,0,P|304:228|324:344,1,187.000005706787,4|0,0:0|0:0,0:0:0:0:
192,288,168794,1,8,0:0:0:0:
164,292,168869,1,0,0:0:0:0:
136,296,168944,1,0,0:0:0:0:
108,300,169019,1,0,0:0:0:0:
80,304,169094,2,0,P|88:236|80:188,1,93.5000028533936,8|0,0:0|0:0,0:0:0:0:
52,116,169394,1,8,0:0:0:0:
168,144,169544,6,0,P|316:136|372:128,1,187.000005706787,4|0,0:0|0:0,0:0:0:0:
488,256,169994,2,0,P|432:252|368:256,1,93.5000028533936,8|0,0:0|0:0,0:0:0:0:
456,64,170294,1,8,0:0:0:0:
456,64,170369,1,0,0:0:0:0:
456,64,170444,2,0,L|452:176,1,93.5000028533936,0|8,0:0|0:0,0:0:0:0:
464,344,170744,5,8,0:0:0:0:
412,352,170819,1,8,0:0:0:0:
360,344,170894,1,8,0:0:0:0:
320,312,170969,1,8,0:0:0:0:
304,264,171044,6,0,P|300:232|304:196,1,46.7500014266968
228,84,171194,2,8,P|232:128|228:152,1,46.7500014266968
168,304,171344,2,8,P|172:264|180:236,1,46.7500014266968
100,64,171494,2,0,P|116:96|116:132,1,46.7500014266968
52,212,171644,5,8,0:0:0:0:
56,236,171719,1,8,0:0:0:0:
60,260,171794,1,8,0:0:0:0:
64,284,171869,1,8,0:0:0:0:
68,308,171944,6,0,P|136:336|200:304,1,118.999996368408,0|8,0:0|0:0,0:0:0:0:
244,272,172169,1,8,0:0:0:0:
244,272,172244,2,0,P|301:260|352:287,1,118.999996368408,0|8,0:0|0:0,0:0:0:0:
416,344,172469,1,8,0:0:0:0:
416,344,172544,2,0,L|396:192,1,118.999996368408
296,136,172844,2,0,P|212:144|156:144,1,118.999996368408,4|8,0:0|0:0,0:0:0:0:
444,72,173144,5,4,0:0:0:0:
256,192,173444,12,0,175244,0:0:0:0:
256,128,175394,5,0,0:0:0:0:
144,288,175544,1,4,0:0:0:0:
232,316,175844,5,0,0:0:0:0:
236,172,176144,5,4,0:0:0:0:
292,244,176444,5,0,0:0:0:0:
148,200,176744,6,0,L|24:208,1,93.5000028533936
320,140,177344,2,0,L|444:148,1,93.5000028533936,0|0,0:0|0:0,0:0:0:0:
236,260,177944,6,0,B|212:200|240:164|268:132|224:52,1,187.000005706787,0|8,0:0|0:0,0:0:0:0:
136,108,178394,2,0,P|90:104|48:124,1,93.5000028533936
116,228,178694,1,0,0:0:0:0:
236,260,178844,2,0,P|244:208|224:168,1,93.5000028533936,8|0,0:0|0:0,0:0:0:0:
156,316,179144,6,0,P|240:356|328:288,1,187.000005706787,0|8,0:0|0:0,0:0:0:0:
320,228,179594,1,0,0:0:0:0:
392,184,179744,1,0,0:0:0:0:
476,188,179894,1,0,0:0:0:0:
320,228,180044,2,0,P|304:180|328:128,1,93.5000028533936,8|0,0:0|0:0,0:0:0:0:
420,56,180344,6,0,P|324:56|212:40,1,187.000005706787,0|8,0:0|0:0,0:0:0:0:
164,132,180794,2,0,P|100:128|40:136,1,93.5000028533936
20,224,181094,1,0,0:0:0:0:
152,308,181244,2,0,P|198:310|245:306,1,93.5000028533936,8|0,0:0|0:0,0:0:0:0:
284,200,181544,6,0,L|268:104,1,93.5000028533936
376,220,181844,2,0,L|360:124,1,93.5000028533936,8|0,0:0|0:0,0:0:0:0:
468,240,182144,2,0,L|452:144,1,93.5000028533936,0|0,0:0|0:0,0:0:0:0:
184,44,182444,2,0,P|156:104|180:212,1,140.25000428009,8|0,0:0|0:0,0:0:0:0:
196,252,182744,6,0,P|128:252|16:352,1,187.000005706787,4|8,0:0|0:0,0:0:0:0:
276,324,183194,2,0,P|300:276|296:236,1,93.5000028533936
248,156,183494,1,0,0:0:0:0:
348,296,183644,2,0,L|448:288,1,93.5000028533936,8|0,0:0|0:0,0:0:0:0:
248,156,183944,6,0,L|154:163,1,93.5000028533936,0|0,0:0|0:0,0:0:0:0:
288,64,184244,2,0,P|336:100|344:140,1,93.5000028533936,8|0,0:0|0:0,0:0:0:0:
120,248,184544,2,0,P|72:212|64:172,1,93.5000028533936
248,156,184844,2,0,L|220:336,1,140.25000428009,8|0,0:0|0:0,0:0:0:0:
176,352,185144,6,0,P|256:344|372:360,1,187.000005706787,0|8,0:0|0:0,0:0:0:0:
480,264,185594,2,0,P|420:276|348:276,1,93.5000028533936
288,184,185894,1,0,0:0:0:0:
288,184,185969,1,0,0:0:0:0:
288,184,186044,2,0,P|368:196|408:224,1,93.5000028533936,8|0,0:0|0:0,0:0:0:0:
156,280,186344,6,0,P|140:220|136:172,1,93.5000028533936
248,64,186644,2,0,P|204:107|164:135,1,93.5000028533936,8|0,0:0|0:0,0:0:0:0:
16,92,186944,1,0,0:0:0:0:
16,92,187019,1,0,0:0:0:0:
16,92,187094,1,0,0:0:0:0:
16,92,187169,1,0,0:0:0:0:
16,92,187244,2,0,P|75:108|119:128,1,93.5000028533936,8|0,0:0|0:0,0:0:0:0:
252,212,187544,6,0,P|352:200|472:192,1,187.000005706787,4|8,0:0|0:0,0:0:0:0:
284,340,187994,2,0,P|192:328|92:308,1,187.000005706787
40,224,188444,1,8,0:0:0:0:
112,152,188594,1,0,0:0:0:0:
224,240,188744,6,0,L|328:232,1,93.5000028533936
400,172,189044,1,8,0:0:0:0:
248,148,189194,2,0,P|176:160|136:272,1,187.000005706787
196,348,189644,1,0,0:0:0:0:
360,284,189794,1,0,0:0:0:0:
240,128,189944,6,0,L|40:152,1,187.000005706787,0|8,0:0|0:0,0:0:0:0:
8,248,190394,2,0,P|120:256|208:268,1,187.000005706787
320,340,190844,2,0,P|316:280|384:316,1,140.25000428009,8|0,0:0|0:0,0:0:0:0:
384,300,191144,6,0,L|488:300,1,93.5000028533936
420,204,191444,2,0,P|476:160|492:140,1,93.5000028533936,8|0,0:0|0:0,0:0:0:0:
464,24,191744,2,0,P|408:68|392:88,1,93.5000028533936,0|0,0:0|0:0,0:0:0:0:
248,180,192044,1,8,0:0:0:0:
208,196,192119,1,0,0:0:0:0:
168,192,192194,1,0,0:0:0:0:
136,168,192269,1,0,0:0:0:0:
128,128,192344,6,0,P|200:112|316:124,1,187.000005706787,4|8,0:0|0:0,0:0:0:0:
400,196,192794,1,0,0:0:0:0:
328,268,192944,2,0,P|312:324|316:368,1,93.5000028533936
200,268,193244,2,0,P|196:212|160:168,1,93.5000028533936,8|0,0:0|0:0,0:0:0:0:
48,172,193544,6,0,P|28:256|116:336,1,187.000005706787,0|8,0:0|0:0,0:0:0:0:
200,268,193994,2,0,L|328:280,1,93.5000028533936
428,136,194294,1,0,0:0:0:0:
420,152,194369,1,0,0:0:0:0:
412,168,194444,2,0,L|318:159,1,93.5000028533936,8|0,0:0|0:0,0:0:0:0:
204,116,194744,5,0,0:0:0:0:
400,288,195044,1,8,0:0:0:0:
456,36,195344,1,0,0:0:0:0:
204,116,195644,1,8,0:0:0:0:
120,68,195794,6,0,L|-8:64,1,93.5000028533936
236,188,196094,2,0,L|340:184,1,93.5000028533936,0|8,0:0|0:0,0:0:0:0:
116,164,196394,2,0,P|112:216|156:276,1,93.5000028533936
452,220,196694,2,0,P|456:168|412:108,1,93.5000028533936,0|8,0:0|0:0,0:0:0:0:
296,72,196994,1,0,0:0:0:0:
200,348,197144,6,0,P|332:368|416:344,1,187.000005706787,8|0,0:0|0:0,0:0:0:0:
