osu file format v14

[General]
AudioFilename: DragonForce - Trail of Broken Hearts.mp3
AudioLeadIn: 0
PreviewTime: 114401
Countdown: 1
SampleSet: Normal
StackLeniency: 0.7
Mode: 0
LetterboxInBreaks: 1
WidescreenStoryboard: 0

[Editor]
Bookmarks: 190332
DistanceSpacing: 1
BeatDivisor: 4
GridSize: 32
TimelineZoom: 1

[Metadata]
Title:Trail of Broken Hearts
TitleUnicode:Trail of Broken Hearts
Artist:DragonForce
ArtistUnicode:DragonForce
Creator:TehDragonGuy
Version:Broken
Source:
Tags:
BeatmapID:856132
BeatmapSetID:393345

[Difficulty]
HPDrainRate:2
CircleSize:3
OverallDifficulty:2
ApproachRate:4
SliderMultiplier:1
SliderTickRate:1

[Events]
//Background and Video events
0,0,"DragonForce BG.png",0,0
//Break Periods
2,68056,69505
2,140677,145643
2,147498,334667
//Storyboard Layer 0 (Background)
//Storyboard Layer 1 (Fail)
//Storyboard Layer 2 (Pass)
//Storyboard Layer 3 (Foreground)
//Storyboard Sound Samples

[TimingPoints]
13230,827.586206896552,4,1,0,60,1,0
67850,827.586206896552,4,1,0,60,1,0
113781,-100,4,1,0,20,0,0
114194,-100,4,1,0,60,0,1
137367,-100,4,1,0,60,0,0
190332,-100,4,1,0,60,0,1
238332,827.586206896552,4,1,0,60,1,0
306194,827.586206896552,4,1,0,60,1,0
306194,-100,4,1,0,60,0,1
339297,-100,4,1,0,20,0,0

[HitObjects]
158,175,13229,6,0,P|158:224|185:264,2,100
256,192,15712,1,0,0:0:0:0:
354,211,16540,2,0,P|353:161|326:121,2,100
298,294,19023,2,0,L|230:304,1,50
220,342,19850,6,0,B|197:285|197:285|159:299|109:282,1,150
62,296,21505,2,0,P|64:220|75:178,1,100
136,128,23161,2,0,B|180:105|180:105|224:128,2,100
180,216,25643,1,0,0:0:0:0:
224,304,26471,6,0,B|180:327|180:327|136:304,1,100
80,216,28126,2,0,P|71:166|78:117,1,100
111,81,29367,1,0,0:0:0:0:
111,81,29781,2,0,B|143:73|155:56|155:56|167:73|199:81,1,100
152,168,31436,2,0,B|180:175|192:192|192:192|204:175|236:167,1,100
325,120,33092,6,0,P|341:168|325:216,1,100
236,167,34747,1,0,0:0:0:0:
136,168,35574,2,0,L|125:223,1,50
138,265,36402,6,0,B|168:307|168:307|216:320,1,100
301,269,38057,2,0,L|321:218,1,50
366,206,38885,2,0,L|386:155,1,50
431,143,39712,1,0,0:0:0:0:
365,67,40540,6,0,P|342:58|309:56,1,50
271,77,41367,2,0,L|242:182,1,100
169,239,43023,2,0,P|207:268|256:270,1,100
245,173,44678,2,0,P|205:142|156:140,1,100
57,149,46333,6,0,L|67:248,1,100
106,280,47574,1,0,0:0:0:0:
106,280,47988,2,0,B|138:288|150:305|150:305|162:288|190:280,1,100
275,331,49643,2,0,P|284:250|242:194,1,150
205,226,51298,6,0,L|146:240,1,50
126,278,52126,2,0,L|77:289,1,50
33,265,52954,1,0,0:0:0:0:
7,168,53781,6,0,L|-52:173,1,50
7,168,54609,2,0,B|19:114|0:72|0:72|29:81|58:69,1,150
92,43,56264,2,0,L|193:33,1,100
235,123,57919,2,0,L|135:132,1,100
46,178,59574,6,0,P|32:262|81:320,1,150
109,283,61230,2,0,L|184:272,2,75
65,258,62885,6,0,L|51:199,1,50
13,179,63713,2,0,L|2:130,1,50
256,192,64540,12,0,67798,0:0:0:0:
392,208,71160,5,0,0:0:0:0:
392,208,71987,6,0,P|400:244|392:280,2,75
359,170,73643,2,0,L|347:122,1,50
304,96,74470,2,0,P|256:80|208:96,1,100
255,183,76125,1,0,0:0:0:0:
304,96,76953,2,0,L|360:88,1,50
396,63,77781,6,0,B|386:-24|386:-24,2,75
436,92,79436,2,0,B|446:179,2,75
396,63,81091,2,0,P|343:56|297:63,1,100
248,150,82746,2,0,P|198:156|149:149,1,100
104,127,83987,1,0,0:0:0:0:
60,102,84401,1,0,0:0:0:0:
4,185,85229,6,0,L|-1:246,1,50
34,271,86056,2,0,B|75:282|123:282|123:281,2,75
0,308,87712,2,0,B|0:340|0:340|46:361|121:360,1,150
159,336,89367,1,0,0:0:0:0:
232,267,90194,6,0,P|282:231|291:229,1,50
315,215,91022,2,0,L|313:123,2,75
359,237,92677,2,0,L|360:312,2,75
387,195,94332,1,0,0:0:0:0:
387,195,95160,6,0,L|341:152,1,50
300,168,95987,2,0,L|254:125,1,50
266,83,96815,2,0,L|220:40,1,50
182,22,97643,6,0,P|135:34|120:80,1,100
120,120,98884,1,0,0:0:0:0:
120,120,99298,2,0,P|167:132|182:178,1,100
96,208,100953,6,0,P|111:253|158:265,1,100
208,265,102194,1,0,0:0:0:0:
208,265,102608,2,0,P|254:276|270:322,1,100
369,333,104263,6,0,L|386:219,1,100
483,235,105918,2,0,L|468:333,1,100
369,333,107574,2,0,P|309:261|356:175,1,200
400,250,110056,5,0,0:0:0:0:
256,192,110884,12,0,113367,0:0:0:0:
256,192,114194,5,0,0:0:0:0:
256,192,115022,6,0,L|308:188,1,50
349,166,115850,2,0,P|358:131|361:88,2,75
305,188,117505,2,0,L|296:287,1,100
209,287,119160,2,0,L|217:187,1,100
133,133,120815,6,0,P|187:88|263:98,1,150
298,132,122470,2,0,L|331:235,1,100
246,282,124125,2,0,L|216:187,1,100
116,172,125781,2,0,L|98:117,1,50
59,96,126608,2,0,L|41:41,1,50
60,1,127436,5,12,0:0:0:0:
159,4,128263,2,0,P|211:7|249:42,2,100
167,103,130746,1,0,0:0:0:0:
220,187,131574,2,0,P|258:218|307:219,1,100
392,167,133229,1,0,0:0:0:0:
456,110,134056,6,0,P|387:82|318:126,1,150
291,153,135712,2,0,P|226:186|159:158,1,150
256,192,137367,12,0,139850,0:0:0:0:
291,153,147298,5,0,0:0:0:0:
256,192,335987,12,0,342194,0:0:0:0:
