osu file format v5

[General]
AudioFilename: DragonForce - 01 - Through The Fire And Flames.mp3
AudioLeadIn: 0
PreviewTime: -1
Countdown: 1
SampleSet: Normal
EditorBookmarks: 20248,48527,95557,144762

[Metadata]
Title:Through The Fire And Flames
Artist:DragonForce
Creator:kingcobra52
Version:Hard

[Difficulty]
HPDrainRate:5
CircleSize:5
OverallDifficulty:5
SliderMultiplier:1.4
SliderTickRate:4

[Events]
//Background and Video events
0,0,"fire.jpg"
//Break Periods
2,39748,47712
2,87769,94833
2,133390,143875
//Storyboard Layer 0 (Background)
//Storyboard Layer 1 (Failing)
//Storyboard Layer 2 (Passing)
//Storyboard Layer 3 (Foreground)
//Storyboard Sound Samples
//Background Colour Transformations
3,100,163,162,255

[TimingPoints]
2348,300.045006751013,4,1,0,100

[HitObjects]
224,96,1147,1,4
136,152,1447,1,0
120,256,1747,1,0
152,296,1897,1,0
184,256,2047,1,0
288,264,2348,1,0
392,240,2648,1,0
440,144,2948,1,0
368,64,3248,1,0
288,128,3548,5,4
200,64,3848,1,0
96,56,4148,1,0
72,104,4298,1,0
128,104,4448,1,0
88,208,4748,1,0
184,256,5048,1,0
288,216,5348,1,0
384,264,5648,1,0
464,328,5948,5,4
352,328,6248,1,0
240,328,6548,1,0
200,288,6698,1,0
168,328,6848,1,0
64,296,7148,1,0
40,192,7448,1,0
88,96,7748,1,0
184,40,8048,1,0
288,56,8348,5,4
384,96,8648,1,0
432,192,8948,1,0
432,192,9099,1,0
432,192,9249,1,0
328,184,9549,1,0
384,272,9849,1,0
272,272,10149,1,0
328,184,10449,1,0
224,160,10749,5,4
192,56,11049,1,0
96,96,11349,1,0
80,144,11499,1,0
96,192,11649,1,0
56,288,11949,1,0
152,328,12249,1,0
256,328,12549,1,0
360,304,12849,1,0
440,232,13149,5,4
352,176,13449,1,0
256,120,13749,1,0
224,160,13899,1,0
192,120,14049,1,0
256,32,14349,1,0
352,72,14649,1,0
424,144,14949,1,0
384,240,15249,1,0
304,312,15549,5,4
384,240,15850,1,0
424,144,16150,1,0
368,144,16300,1,0
400,96,16450,1,0
296,64,16750,1,0
192,88,17050,1,0
112,152,17350,1,0
56,240,17650,1,0
128,320,17950,5,4
56,240,18250,1,0
112,152,18550,1,0
168,152,18700,1,0
224,152,18850,1,0
328,152,19150,1,0
328,256,19450,1,0
224,256,19750,1,0
224,152,20050,1,0
224,40,20350,6,0,B|8:5|-48:136|16:200|112:216|176:216|176:216,1,420
264,224,21550,6,0,B|480:259|536:128|472:64|376:48|316:52|316:52,1,420
336,160,22751,6,0,B|272:96|192:64|128:64|77:100|48:288,1,420
152,288,23951,2,0,B|200:336|232:384|328:368|360:336|427:301|456:160,1,420
360,120,25151,5,0
256,96,25451,1,0
208,72,25601,1,0
88,176,26051,1,0
88,280,26351,1,0
184,328,26651,1,0
232,344,26801,1,0
360,248,27251,1,0
448,184,27551,6,2,B|482:104|455:23|368:8|281:-7|193:16|125:60|68:77|40:134|34:197|44:247|48:280|80:320|126:342|172:359|242:353|300:341|361:341|392:288,1,980
480,304,29952,5,0
432,208,30252,2,0,B|368:176,1,70
288,40,30852,1,0
232,40,31002,1,0
184,64,31152,1,0
80,88,31452,2,0,B|128:152,1,70
88,296,32052,1,0
128,328,32202,1,0
176,304,32352,5,0
248,224,32652,2,0,B|320:224,1,70
480,200,33252,1,0
480,144,33402,1,0
464,88,33552,1,0
360,56,33852,2,0,B|280:56,1,70
128,32,34452,1,0
184,32,34602,1,0
160,80,34752,5,0
216,168,35052,2,0,B|272:232,1,70
424,216,35652,1,0
408,264,35803,1,0
376,304,35953,1,0
272,312,36253,2,0,B|200:256,1,70
168,112,36853,1,0
272,112,37153,1,0
256,192,37603,12,2,39553
64,336,49155,6,0,B|128:288|176:272|224:272|272:272|320:304|384:288|416:256|448:208|432:144|448:112|432:48|400:32|336:32|304:32|272:64|173:32|96:144,1,840
176,208,51255,5,0
200,256,51405,1,0
248,240,51555,2,0,B|352:99|188:16|104:29|15:77|15:175|14:273|45:315|88:362|180:361|230:371|317:356|376:320,1,840
432,240,53655,1,0
384,144,53955,5,0
296,88,54255,2,0,B|232:24,1,70
96,88,54855,1,0
112,136,55005,1,0
144,176,55155,1,0
184,272,55455,2,0,B|248:304,1,70
408,280,56056,1,0
312,232,56356,5,0
224,168,56656,2,0,B|288:104,1,70
424,56,57256,1,2
424,160,57556,1,2
424,264,57856,2,0,B|360:311|312:280|280:264,2,140
360,176,58756,5,0
304,80,59056,1,0
248,80,59206,1,0
272,128,59356,1,0
192,200,59656,1,0
232,232,59806,1,0
288,232,59956,1,0
336,208,60106,1,0
376,48,60556,1,0
264,48,60856,1,0
152,48,61156,2,0,B|56:32|-8:48|-6:80|54:142|-8:242|88:224|184:208|248:192|328:176|360:176|392:256|376:320|280:336|243:369|120:344|40:288,1,840
168,264,63257,5,0
64,240,63557,1,0
112,256,63707,1,0
216,264,64007,1,0
376,272,64457,1,0
328,176,64757,1,0
264,88,65057,1,0
296,128,65207,1,0
160,40,65657,1,0
56,56,65957,6,2,B|24:104|8:152|8:200|24:248|40:296|120:360|152:344|232:344|280:328|360:296|392:280,1,560
328,192,67457,1,2
224,216,67757,1,2
128,176,68057,1,2
128,64,68357,5,0
232,88,68657,1,0
280,72,68807,1,0
424,136,69258,1,0
376,232,69558,1,0
272,264,69858,1,0
232,232,70008,1,0
80,168,70458,1,0
96,64,70758,2,0,B|192:32|288:16|368:32|400:96|400:160|368:224|320:272|272:304|224:320|204:330|204:330,1,560
232,152,72408,1,0
384,104,72858,5,0
384,208,73158,1,0
376,312,73458,1,0
328,328,73608,1,0
168,328,74058,1,0
72,280,74358,1,0
64,168,74658,1,0
96,128,74808,1,0
240,56,75258,1,0
256,192,75558,12,2,76759
288,256,77059,5,0
224,168,77359,1,0
120,128,77659,1,0
24,168,77959,1,0
88,312,78409,1,0
248,344,78859,1,0
352,344,79159,1,0
448,40,80059,1,0
376,120,80359,1,0
280,64,80659,1,0
240,32,80809,1,0
120,136,81259,1,0
64,224,81559,1,0
160,272,81859,1,0
160,272,82009,1,0
328,64,82760,5,0
384,152,83060,1,0
384,208,83210,1,0
272,320,83660,1,0
208,232,83960,1,0
288,160,84260,1,0
328,128,84410,1,0
376,64,84860,2,0,B|296:32|216:32,1,140
80,56,85610,1,0
176,184,86060,1,0
64,184,86360,2,0,B|-7:259|0:328|36:347|112:351|172:332|216:315|289:279|336:104,1,560
160,272,96262,5,0
232,192,96562,1,0
304,112,96862,1,2
384,40,97162,2,0,B|476:107|451:179|429:244|408:284|372:322|331:348|254:355|188:352|144:328|112:312|66:255|37:172|30:120|43:63|64:40|89:8|145:-6|240:88,1,980
336,48,99562,6,0,B|400:80|448:112|416:192|352:256|272:272|256:224|192:192|192:128|160:80|80:112|64:160|48:224|48:304|80:336|128:336|224:352|272:352|352:336,1,840
152,224,101962,6,0,B|168:272,31,35
296,232,104663,1,2
376,160,104963,1,2
336,56,105263,1,2
232,40,105563,1,2
136,88,105863,5,2
96,184,106163,1,2
160,264,106463,1,2
264,272,106763,2,0,B|328:272|360:224|360:144|328:112|296:64|248:48|168:112|136:176|120:176,1,420
48,248,107963,1,2
48,88,108413,1,2
208,88,108863,5,0
304,128,109164,1,0
336,232,109464,1,0
336,232,109614,1,0
184,184,110064,1,2
288,216,110364,1,2
128,72,110964,1,0
216,128,111264,1,0
304,184,111564,2,0,B|304:232,7,35
336,216,112164,6,0,B|336:168,7,35
368,216,112764,5,0
240,144,113964,5,0
272,96,114114,1,0
424,40,114564,1,0
432,88,114714,1,0
408,136,114864,1,0
344,216,115164,1,0
304,248,115314,1,0
144,280,115765,1,0
96,248,115915,1,0
88,192,116065,1,0
192,160,116365,5,0
240,136,116515,1,0
384,64,116965,1,0
392,120,117115,1,0
376,168,117265,1,0
360,272,117565,2,2,B|264:272|200:240|168:192|152:144|136:96|168:32|200:16|248:0|264:0,1,420
304,88,118765,5,0
360,88,118915,1,0
464,88,119215,1,0
400,176,119515,1,0
360,216,119665,1,0
312,184,119815,1,0
272,216,119965,1,0
112,224,120415,1,0
176,312,120715,1,2
176,312,120865,1,2
176,312,121015,1,0
216,272,121165,1,2
376,272,121615,1,0
240,40,122366,2,2,B|291:105|216:145|176:104,3,140
88,64,123566,5,0
120,272,124166,1,0
160,240,124316,1,0
200,208,124466,1,0
280,136,124766,1,0
472,240,125366,1,0
464,136,125666,1,0
384,64,125966,2,2,B|281:72|220:123|176:144|160:224|180:254|222:287|280:324|331:333|380:331|448:304,1,560
312,208,127616,1,2
80,72,128366,5,0
120,112,128516,1,0
224,80,128816,1,0
264,120,128966,1,0
304,88,129117,1,0
344,120,129267,1,0
400,208,129567,5,0
400,208,129717,1,0
240,168,130167,1,0
192,192,130317,1,0
144,168,130467,1,0
64,240,130767,2,2,B|123:325|180:341|231:338|323:315|366:280|384:224|400:192,1,420
328,112,131967,5,0
232,64,132267,1,0
128,88,132567,1,2
144,168,132792,1,2
208,208,133017,1,2
264,216,133167,1,2
192,96,145169,6,0,B|192:144,23,35
328,128,147269,1,0
352,176,147419,1,0
408,184,147569,6,0,B|408:136,28,35
336,264,149970,5,0
288,288,150120,1,0
232,272,150270,1,0
208,224,150420,1,0
240,176,150570,1,0
192,80,150870,1,0
192,80,151020,1,0
240,64,151170,1,0
288,88,151320,1,0
376,144,151620,1,0
320,296,152070,1,0
216,320,152370,2,2,B|152:288|74:226|120:192|152:128|200:96|296:144|360:208|424:240|496:296,1,560
264,272,154170,5,0
176,216,154470,1,0
264,152,154770,1,0
360,112,155070,1,0
360,112,155220,1,0
432,256,155670,1,0
336,304,155971,1,0
232,320,156271,1,0
232,320,156421,1,0
296,168,156871,1,0
192,144,157171,6,0,B|160:192,7,35
160,192,157771,6,0,B|128:240,7,35
128,240,158371,6,0,B|96:288,7,35
96,288,158971,6,0,B|64:336,7,35
64,336,159571,5,2
168,312,159871,1,0
168,312,160021,1,0
328,336,160471,1,0
384,248,160771,1,0
352,144,161071,1,0
352,144,161221,1,0
216,232,161671,1,2
256,192,161971,12,2,163172
336,112,163472,5,0
248,48,163772,1,0
160,112,164072,1,0
64,56,164372,2,0,B|48:136|48:200|64:248|80:280,1,210
224,320,165272,1,0
328,320,165572,2,0,B|392:288|456:256|440:208|392:128|344:80|312:48|280:32|232:48,1,420
128,40,166772,1,0
40,104,167072,1,0
40,160,167222,1,0
104,304,167672,1,0
208,272,167972,1,2
208,160,168272,1,2
312,160,168572,1,2
312,272,168872,1,2
408,232,169173,5,0
416,128,169473,1,0
376,88,169623,1,0
216,48,170073,1,0
112,88,170373,1,0
72,192,170673,1,0
96,240,170823,1,0
216,344,171273,1,0
320,328,171573,1,0
304,224,171873,1,0
280,176,172023,1,0
408,72,172473,1,2
472,160,172773,1,2
56,56,173973,5,0
80,160,174273,1,0
80,160,174423,1,0
232,208,174873,1,0
136,256,175173,2,0,B|192:313|294:332|360:288,1,210
440,56,176374,1,0
336,88,176674,1,0
336,88,176824,1,0
184,144,177274,1,0
104,216,177574,2,0,B|120:280|168:296|232:296|264:280|296:264,1,210
424,48,178774,5,0
312,56,179074,1,0
256,56,179224,1,0
280,104,179374,1,0
184,56,179674,1,0
96,120,179974,1,0
80,168,180124,1,0
96,216,180274,1,0
120,320,180574,1,0
224,304,180874,1,0
264,336,181024,2,2,B|328:352|392:352|456:336|472:272|456:160|376:80|328:48|264:32|232:48|200:32|152:48|136:64|104:80,1,630
72,160,182675,5,4
120,256,182975,1,4
208,312,183275,1,4
312,336,183575,2,0,B|392:352|472:352|504:272|456:208|360:128|296:96|248:80|200:144|216:224|216:288|168:304|88:288|40:240|24:176|24:112|56:80|92:32|296:32,1,980
392,48,185975,6,0,B|456:96|456:160|440:240|392:288|312:320|264:336|248:288|248:208|248:128|232:64|168:16|120:32|72:96|40:192|24:224|40:272|56:320|120:352|184:352|296:352,1,980
376,352,188375,6,0,B|376:304,29,35
336,248,190776,2,2,B|304:296|240:312|176:312|96:280|48:216|32:168|48:88|112:72|176:56|256:104|272:120,1,560
352,144,192276,5,4
424,224,192576,1,4
368,320,192876,1,4
256,320,193176,2,0,B|304:336|336:352|400:336|416:304|432:240|400:192|368:160|320:144|288:112|240:96|224:96,1,420
144,72,194376,1,0
240,200,194826,1,0
368,104,195276,1,0
416,200,195576,1,0
376,296,195877,1,0
376,296,196027,1,0
216,296,196477,1,2
296,224,196777,1,2
160,56,197377,5,0
104,144,197677,1,0
208,144,197977,2,0,B|256:144,3,35
240,168,198277,6,0,B|240:216,3,35
232,216,198577,6,0,B|200:248,3,35
184,224,198877,6,0,B|152:176,3,35
152,168,199177,5,4
