osu file format v13

[General]
AudioFilename: The Game.mp3
AudioLeadIn: 0
PreviewTime: 48815
Countdown: 1
SampleSet: Normal
StackLeniency: 0.7
Mode: 3
LetterboxInBreaks: 1
SpecialStyle: 0
WidescreenStoryboard: 0

[Editor]
DistanceSpacing: 1
BeatDivisor: 4
GridSize: 4
TimelineZoom: 2.4

[Metadata]
Title:The Game
TitleUnicode:The Game
Artist:DragonForce
ArtistUnicode:DragonForce
Creator:Soldsaga KunG
Version:SHD
Source:
Tags:
BeatmapID:443475
BeatmapSetID:185517

[Difficulty]
HPDrainRate:8
CircleSize:7
OverallDifficulty:8
ApproachRate:5
SliderMultiplier:1.4
SliderTickRate:1

[Events]
//Background and Video events
0,0,"Konachan.com - 180939 sample.jpg",0,0
//Break Periods
//Storyboard Layer 0 (Background)
//Storyboard Layer 1 (Fail)
//Storyboard Layer 2 (Pass)
//Storyboard Layer 3 (Foreground)
//Storyboard Sound Samples
//Background Colour Transformations
3,100,163,162,255

[TimingPoints]
612,248.96265560166,4,1,1,100,1,0
2603,253.04710893678,4,1,1,100,1,0
34993,252.100840336134,4,1,1,100,1,0
39026,253.04710893678,4,1,1,100,1,0
43074,252.100840336134,4,1,1,100,1,0
48116,254.237288135593,4,1,1,100,1,0
51164,255.918106206014,4,1,1,100,1,0
67544,253.04710893678,4,1,1,100,1,0
91836,252.100840336134,4,1,1,100,1,0
96878,254.237288135593,4,1,1,100,1,0
99928,255.918106206014,4,1,1,100,1,0
116306,254.345061466723,4,1,1,100,1,0
148862,254.237288135593,4,1,1,100,1,0
152929,252.100840336134,4,1,1,100,1,0
160996,254.237288135593,4,1,1,100,1,0
177267,253.164556962025,4,1,1,100,1,0
193469,254.237288135593,4,1,1,100,1,0
213807,255.918106206014,4,1,1,100,1,0
228138,255.31914893617,4,1,1,100,1,0
231201,255.918106206014,4,1,1,100,1,0
247579,254.345061466723,4,1,1,100,1,0
280135,253.04710893678,4,1,1,100,1,0
288232,254.237288135593,4,1,1,100,1,0
292299,300,4,1,1,100,1,0

[HitObjects]
36,192,49132,5,0,0:0:0:0:
329,192,49132,1,0,0:0:0:0:
182,192,49132,1,0,0:0:0:0:
256,192,49641,1,0,0:0:0:0:
402,192,49641,1,0,0:0:0:0:
475,192,49641,1,0,0:0:0:0:
402,192,50149,1,0,0:0:0:0:
329,192,50149,1,0,0:0:0:0:
109,192,50149,1,0,0:0:0:0:
36,192,50658,1,0,0:0:0:0:
256,192,50658,1,0,0:0:0:0:
475,192,50658,1,0,0:0:0:0:
109,192,50785,1,0,0:0:0:0:
182,192,50912,1,0,0:0:0:0:
329,192,50912,1,0,0:0:0:0:
402,192,51039,1,0,0:0:0:0:
256,192,51164,1,0,0:0:0:0:
109,192,51164,1,0,0:0:0:0:
182,192,51291,1,0,0:0:0:0:
329,192,51291,1,0,0:0:0:0:
256,192,51419,1,0,0:0:0:0:
402,192,51419,1,0,0:0:0:0:
475,192,51547,1,0,0:0:0:0:
329,192,51547,1,0,0:0:0:0:
402,192,51675,1,0,0:0:0:0:
256,192,51675,1,0,0:0:0:0:
329,192,51803,1,0,0:0:0:0:
182,192,51803,1,0,0:0:0:0:
256,192,51931,1,0,0:0:0:0:
109,192,51931,1,0,0:0:0:0:
182,192,52059,1,0,0:0:0:0:
36,192,52059,1,0,0:0:0:0:
329,192,52187,1,0,0:0:0:0:
475,192,52187,1,0,0:0:0:0:
182,192,52315,1,0,0:0:0:0:
36,192,52315,1,0,0:0:0:0:
329,192,52443,1,0,0:0:0:0:
475,192,52443,1,0,0:0:0:0:
182,192,52571,1,0,0:0:0:0:
36,192,52571,1,0,0:0:0:0:
329,192,52699,1,0,0:0:0:0:
475,192,52699,1,0,0:0:0:0:
182,192,52827,1,0,0:0:0:0:
109,192,52827,1,0,0:0:0:0:
402,192,52955,1,0,0:0:0:0:
475,192,52955,1,0,0:0:0:0:
36,192,53083,1,0,0:0:0:0:
109,192,53083,1,0,0:0:0:0:
329,192,53211,1,0,0:0:0:0:
475,192,53211,1,0,0:0:0:0:
402,192,53339,1,0,0:0:0:0:
256,192,53339,1,0,0:0:0:0:
329,192,53467,1,0,0:0:0:0:
182,192,53467,1,0,0:0:0:0:
256,192,53595,1,0,0:0:0:0:
109,192,53595,1,0,0:0:0:0:
182,192,53723,1,0,0:0:0:0:
36,192,53723,1,0,0:0:0:0:
109,192,53851,1,0,0:0:0:0:
256,192,53851,1,0,0:0:0:0:
182,192,53979,1,0,0:0:0:0:
329,192,53979,1,0,0:0:0:0:
256,192,54107,1,0,0:0:0:0:
402,192,54107,1,0,0:0:0:0:
329,192,54235,1,0,0:0:0:0:
475,192,54235,1,0,0:0:0:0:
256,192,54298,1,0,0:0:0:0:
182,192,54362,1,0,0:0:0:0:
109,192,54426,1,0,0:0:0:0:
36,192,54490,1,0,0:0:0:0:
329,192,54618,1,0,0:0:0:0:
182,192,54746,1,0,0:0:0:0:
256,192,54810,1,0,0:0:0:0:
329,192,54874,1,0,0:0:0:0:
402,192,54938,1,0,0:0:0:0:
475,192,55002,1,0,0:0:0:0:
