osu file format v14

[General]
AudioFilename: Dragonforce - Scars of Yesterday with lyrics and images.mp3
AudioLeadIn: 0
PreviewTime: 198609
Countdown: 0
SampleSet: Normal
StackLeniency: 0.7
Mode: 1
LetterboxInBreaks: 0
WidescreenStoryboard: 0

[Editor]
DistanceSpacing: 1.1
BeatDivisor: 4
GridSize: 32
TimelineZoom: 3.099999

[Metadata]
Title:Scars of Yesterday
TitleUnicode:Scars of Yesterday
Artist:DragonForce
ArtistUnicode:DragonForce
Creator:Mew104
Version:Tatsujin
Source:
Tags:speed power metal ultra beatdown
BeatmapID:996560
BeatmapSetID:465504

[Difficulty]
HPDrainRate:4
CircleSize:5
OverallDifficulty:7
ApproachRate:5
SliderMultiplier:1.4
SliderTickRate:1

[Events]
//Background and Video events
0,0,"generic dragonforce bg with a slightly different color than another one.png",0,0
//Break Periods
2,443634,447034
//Storyboard Layer 0 (Background)
//Storyboard Layer 1 (Fail)
//Storyboard Layer 2 (Pass)
//Storyboard Layer 3 (Foreground)
//Storyboard Sound Samples

[TimingPoints]
634,461.538461538462,4,1,0,90,1,0
634,-71.4285714285714,4,1,0,90,0,0
48634,300,4,1,0,90,1,0
108634,-100,4,1,0,90,0,1
118234,-100,4,1,0,90,0,0
139834,-100,4,1,0,90,0,1
147034,-100,4,1,0,90,0,0
148084,-100,4,1,0,50,0,0
148384,-100,4,1,0,90,0,0
198634,-100,4,1,0,90,0,1
208234,-100,4,1,0,90,0,0
229834,-100,4,1,0,90,0,1
239434,-100,4,1,0,90,0,0
249034,-100,4,1,0,90,0,1
258634,-100,4,1,0,90,0,0
263134,-125,4,1,0,60,0,0
301834,-111.111111111111,4,1,0,90,0,0
304234,-100,4,1,0,90,0,0
317996,-100,4,1,0,30,0,0
318071,-100,4,1,0,40,0,0
318146,-100,4,1,0,50,0,0
318221,-100,4,1,0,60,0,0
318296,-100,4,1,0,70,0,0
318371,-100,4,1,0,80,0,0
318446,-100,4,1,0,90,0,0
328234,-100,4,1,0,90,0,1
347434,-100,4,1,0,90,0,0
376234,-100,4,1,0,90,0,1
395434,-100,4,1,0,90,0,0
419734,-100,4,1,0,55,0,0
423484,-95.2380952380952,4,1,0,90,0,0
423934,-90.9090909090909,4,1,0,90,0,0
424234,-86.9565217391304,4,1,0,90,0,0
433834,-86.9565217391304,4,1,0,90,0,1
443434,-86.9565217391304,4,1,0,90,0,0
448234,-57.1428571428571,4,1,0,90,0,0
449434,-86.9565217391304,4,1,0,90,0,0
450634,-86.9565217391304,4,1,0,90,0,1
455434,-86.9565217391304,4,1,0,90,0,0
465034,-66.6666666666667,4,1,0,90,0,0

[HitObjects]
256,192,634,5,0,0:0:0:0:
256,192,1095,1,8,0:0:0:0:
256,192,2018,1,8,0:0:0:0:
256,192,2941,1,8,0:0:0:0:
256,192,3864,1,8,0:0:0:0:
256,192,4326,1,0,0:0:0:0:
256,192,4787,1,8,0:0:0:0:
256,192,5710,1,8,0:0:0:0:
256,192,6172,1,12,0:0:0:0:
256,192,6403,1,0,0:0:0:0:
256,192,6518,1,0,0:0:0:0:
256,192,6749,1,0,0:0:0:0:
256,192,6864,1,0,0:0:0:0:
256,192,7095,1,8,0:0:0:0:
256,192,7210,1,0,0:0:0:0:
256,192,7441,1,0,0:0:0:0:
256,192,7557,1,0,0:0:0:0:
256,192,7787,1,0,0:0:0:0:
256,192,8018,1,4,0:0:0:0:
256,192,8480,1,8,0:0:0:0:
256,192,9403,1,8,0:0:0:0:
256,192,10326,1,8,0:0:0:0:
256,192,11249,1,8,0:0:0:0:
256,192,11710,1,0,0:0:0:0:
256,192,12172,1,8,0:0:0:0:
256,192,13095,1,8,0:0:0:0:
256,192,13557,1,12,0:0:0:0:
256,192,13787,1,0,0:0:0:0:
256,192,13864,1,0,0:0:0:0:
256,192,13941,1,0,0:0:0:0:
256,192,14018,1,8,0:0:0:0:
256,192,14134,1,8,0:0:0:0:
256,192,14249,1,0,0:0:0:0:
256,192,14364,1,0,0:0:0:0:
256,192,14480,1,8,0:0:0:0:
256,192,14595,1,0,0:0:0:0:
256,192,14710,1,0,0:0:0:0:
256,192,14941,1,8,0:0:0:0:
256,192,15172,1,0,0:0:0:0:
256,192,15403,1,4,0:0:0:0:
256,192,15634,1,0,0:0:0:0:
256,192,15864,1,8,0:0:0:0:
256,192,15980,1,0,0:0:0:0:
256,192,16210,1,8,0:0:0:0:
256,192,16441,1,8,0:0:0:0:
256,192,16672,1,0,0:0:0:0:
256,192,16903,1,8,0:0:0:0:
256,192,17018,1,0,0:0:0:0:
256,192,17249,1,0,0:0:0:0:
256,192,17480,1,0,0:0:0:0:
256,192,17710,1,8,0:0:0:0:
256,192,17826,1,0,0:0:0:0:
256,192,18057,1,8,0:0:0:0:
256,192,18287,1,8,0:0:0:0:
256,192,18518,1,0,0:0:0:0:
256,192,18749,1,8,0:0:0:0:
256,192,18864,1,8,0:0:0:0:
256,192,18980,1,8,0:0:0:0:
256,192,19095,1,0,0:0:0:0:
256,192,19326,1,0,0:0:0:0:
256,192,19557,1,8,0:0:0:0:
256,192,19672,1,0,0:0:0:0:
256,192,19903,1,0,0:0:0:0:
256,192,20134,1,8,0:0:0:0:
256,192,20364,1,8,0:0:0:0:
256,192,20595,1,0,0:0:0:0:
256,192,20710,1,8,0:0:0:0:
256,192,20941,1,0,0:0:0:0:
256,192,21057,1,8,0:0:0:0:
256,192,21172,1,8,0:0:0:0:
256,192,21287,1,0,0:0:0:0:
256,192,21403,1,8,0:0:0:0:
256,192,21518,1,0,0:0:0:0:
256,192,21634,1,0,0:0:0:0:
256,192,21749,1,0,0:0:0:0:
256,192,21864,1,8,0:0:0:0:
256,192,21980,1,8,0:0:0:0:
256,192,22095,1,0,0:0:0:0:
256,192,22210,1,0,0:0:0:0:
256,192,22326,1,8,0:0:0:0:
256,192,22441,1,8,0:0:0:0:
256,192,22557,1,8,0:0:0:0:
256,192,22672,1,8,0:0:0:0:
256,192,22787,1,4,0:0:0:0:
256,192,23018,1,0,0:0:0:0:
256,192,23249,1,8,0:0:0:0:
256,192,23364,1,0,0:0:0:0:
256,192,23595,1,8,0:0:0:0:
256,192,23826,1,8,0:0:0:0:
256,192,24057,1,0,0:0:0:0:
256,192,24287,1,8,0:0:0:0:
256,192,24403,1,0,0:0:0:0:
256,192,24634,1,0,0:0:0:0:
256,192,24864,1,0,0:0:0:0:
256,192,25095,1,8,0:0:0:0:
256,192,25210,1,0,0:0:0:0:
256,192,25441,1,8,0:0:0:0:
256,192,25672,1,8,0:0:0:0:
256,192,25903,1,0,0:0:0:0:
256,192,26134,1,8,0:0:0:0:
256,192,26249,1,0,0:0:0:0:
256,192,26364,1,8,0:0:0:0:
256,192,26480,1,0,0:0:0:0:
256,192,26710,1,0,0:0:0:0:
256,192,26941,1,8,0:0:0:0:
256,192,27057,1,0,0:0:0:0:
256,192,27287,1,0,0:0:0:0:
256,192,27518,1,8,0:0:0:0:
256,192,27749,1,8,0:0:0:0:
256,192,27980,1,0,0:0:0:0:
256,192,28095,1,8,0:0:0:0:
256,192,28326,1,8,0:0:0:0:
256,192,28441,1,8,0:0:0:0:
256,192,28557,1,0,0:0:0:0:
256,192,28672,1,8,0:0:0:0:
256,192,28787,1,0,0:0:0:0:
256,192,28903,1,8,0:0:0:0:
256,192,29018,1,0,0:0:0:0:
256,192,29134,1,8,0:0:0:0:
256,192,29249,1,0,0:0:0:0:
256,192,29480,1,0,0:0:0:0:
256,192,29710,1,8,0:0:0:0:
256,192,29787,1,0,0:0:0:0:
256,192,29864,1,0,0:0:0:0:
256,192,29941,1,0,0:0:0:0:
256,192,30172,1,12,0:0:0:0:
256,192,30634,1,0,0:0:0:0:
256,192,30864,1,0,0:0:0:0:
256,192,31095,1,8,0:0:0:0:
256,192,31557,1,0,0:0:0:0:
256,192,31903,1,0,0:0:0:0:
256,192,32018,1,8,0:0:0:0:
256,192,32249,1,0,0:0:0:0:
256,192,32480,1,8,0:0:0:0:
256,192,32710,1,8,0:0:0:0:
256,192,32941,1,0,0:0:0:0:
256,192,33172,1,0,0:0:0:0:
256,192,33287,1,0,0:0:0:0:
256,192,33403,1,8,0:0:0:0:
256,192,33634,1,0,0:0:0:0:
256,192,33864,1,0,0:0:0:0:
256,192,34326,1,8,0:0:0:0:
256,192,34787,1,0,0:0:0:0:
256,192,35018,1,8,0:0:0:0:
256,192,35134,1,0,0:0:0:0:
256,192,35249,1,8,0:0:0:0:
256,192,35364,1,8,0:0:0:0:
256,192,35480,1,0,0:0:0:0:
256,192,35710,1,8,0:0:0:0:
256,192,35826,1,0,0:0:0:0:
256,192,35941,1,0,0:0:0:0:
256,192,36057,1,0,0:0:0:0:
256,192,36172,1,8,0:0:0:0:
256,192,36287,1,8,0:0:0:0:
256,192,36403,1,0,0:0:0:0:
256,192,36518,1,0,0:0:0:0:
256,192,36634,1,8,0:0:0:0:
256,192,36749,1,0,0:0:0:0:
256,192,36980,1,0,0:0:0:0:
256,192,37095,1,0,0:0:0:0:
256,192,37326,1,0,0:0:0:0:
256,192,37557,1,4,0:0:0:0:
256,192,38018,1,8,0:0:0:0:
256,192,38364,1,0,0:0:0:0:
256,192,38480,1,0,0:0:0:0:
256,192,38710,1,8,0:0:0:0:
256,192,38941,1,8,0:0:0:0:
256,192,39172,1,0,0:0:0:0:
256,192,39403,1,0,0:0:0:0:
256,192,39749,1,0,0:0:0:0:
256,192,39864,1,8,0:0:0:0:
256,192,40095,1,8,0:0:0:0:
256,192,40326,1,0,0:0:0:0:
256,192,40557,1,0,0:0:0:0:
256,192,40672,1,0,0:0:0:0:
256,192,40787,1,8,0:0:0:0:
256,192,41018,1,0,0:0:0:0:
256,192,41249,1,12,0:0:0:0:
256,192,41710,1,8,0:0:0:0:
256,192,41941,1,0,0:0:0:0:
256,192,42172,1,12,0:0:0:0:
256,192,42634,1,8,0:0:0:0:
256,192,42864,1,0,0:0:0:0:
256,192,43095,1,12,0:0:0:0:
256,192,43557,1,8,0:0:0:0:
256,192,43787,1,0,0:0:0:0:
256,192,44018,1,12,0:0:0:0:
256,192,44249,1,8,0:0:0:0:
256,192,44480,1,8,0:0:0:0:
256,192,44710,1,0,0:0:0:0:
256,192,44941,1,12,0:0:0:0:
256,192,45403,1,8,0:0:0:0:
256,192,45518,1,8,0:0:0:0:
256,192,45634,1,8,0:0:0:0:
256,192,45749,1,0,0:0:0:0:
256,192,45864,1,8,0:0:0:0:
256,192,45980,1,0,0:0:0:0:
256,192,46095,1,0,0:0:0:0:
256,192,46210,1,0,0:0:0:0:
256,192,46326,1,8,0:0:0:0:
256,192,46441,1,0,0:0:0:0:
256,192,46557,1,0,0:0:0:0:
256,192,46672,1,0,0:0:0:0:
256,192,46787,1,8,0:0:0:0:
256,192,46864,1,8,0:0:0:0:
256,192,46941,1,8,0:0:0:0:
256,192,47018,1,8,0:0:0:0:
256,192,47095,1,8,0:0:0:0:
256,192,47172,1,8,0:0:0:0:
256,192,47249,1,0,0:0:0:0:
256,192,47326,1,0,0:0:0:0:
256,192,47403,1,0,0:0:0:0:
256,192,47480,1,0,0:0:0:0:
256,192,47557,1,0,0:0:0:0:
256,192,47634,1,0,0:0:0:0:
256,192,47710,1,8,0:0:0:0:
256,192,47787,1,8,0:0:0:0:
256,192,47864,1,8,0:0:0:0:
256,192,47941,1,8,0:0:0:0:
256,192,48018,1,8,0:0:0:0:
256,192,48095,1,8,0:0:0:0:
256,192,48172,1,0,0:0:0:0:
256,192,48249,1,0,0:0:0:0:
256,192,48326,1,0,0:0:0:0:
256,192,48403,1,0,0:0:0:0:
256,192,48480,1,0,0:0:0:0:
256,192,48634,1,12,0:0:0:0:
256,192,49834,1,4,0:0:0:0:
256,192,50434,1,12,0:0:0:0:
256,192,51034,1,12,0:0:0:0:
256,192,52234,1,4,0:0:0:0:
256,192,52834,1,12,0:0:0:0:
256,192,52984,1,12,0:0:0:0:
256,192,53134,1,12,0:0:0:0:
256,192,53434,1,12,0:0:0:0:
256,192,53584,1,0,0:0:0:0:
256,192,53659,1,0,0:0:0:0:
256,192,53734,1,8,0:0:0:0:
256,192,53809,1,8,0:0:0:0:
256,192,53884,1,0,0:0:0:0:
256,192,53959,1,0,0:0:0:0:
256,192,54034,1,8,0:0:0:0:
256,192,54109,1,0,0:0:0:0:
256,192,54184,1,0,0:0:0:0:
256,192,54259,1,0,0:0:0:0:
256,192,54334,1,8,0:0:0:0:
256,192,54409,1,8,0:0:0:0:
256,192,54484,1,0,0:0:0:0:
256,192,54559,1,0,0:0:0:0:
256,192,54634,1,8,0:0:0:0:
256,192,54709,1,0,0:0:0:0:
256,192,54784,1,0,0:0:0:0:
256,192,54859,1,0,0:0:0:0:
256,192,54934,1,8,0:0:0:0:
256,192,55009,1,0,0:0:0:0:
256,192,55084,1,8,0:0:0:0:
256,192,55159,1,0,0:0:0:0:
256,192,55234,1,8,0:0:0:0:
256,192,55309,1,0,0:0:0:0:
256,192,55384,1,0,0:0:0:0:
256,192,55459,1,0,0:0:0:0:
256,192,55534,1,8,0:0:0:0:
256,192,55609,1,0,0:0:0:0:
256,192,55684,1,8,0:0:0:0:
256,192,55759,1,0,0:0:0:0:
256,192,55834,1,8,0:0:0:0:
256,192,55909,1,0,0:0:0:0:
256,192,55984,1,0,0:0:0:0:
256,192,56059,1,0,0:0:0:0:
256,192,56134,1,8,0:0:0:0:
256,192,56209,1,8,0:0:0:0:
256,192,56284,1,0,0:0:0:0:
256,192,56359,1,0,0:0:0:0:
256,192,56434,1,8,0:0:0:0:
256,192,56509,1,0,0:0:0:0:
256,192,56584,1,0,0:0:0:0:
256,192,56659,1,0,0:0:0:0:
256,192,56734,1,8,0:0:0:0:
256,192,56809,1,8,0:0:0:0:
256,192,56884,1,0,0:0:0:0:
256,192,56959,1,0,0:0:0:0:
256,192,57034,1,8,0:0:0:0:
256,192,57109,1,8,0:0:0:0:
256,192,57184,1,8,0:0:0:0:
256,192,57259,1,0,0:0:0:0:
256,192,57334,1,8,0:0:0:0:
256,192,57409,1,8,0:0:0:0:
256,192,57484,1,8,0:0:0:0:
256,192,57559,1,0,0:0:0:0:
256,192,57634,1,8,0:0:0:0:
256,192,57709,1,8,0:0:0:0:
256,192,57784,1,0,0:0:0:0:
256,192,57859,1,8,0:0:0:0:
256,192,57934,1,8,0:0:0:0:
256,192,58009,1,8,0:0:0:0:
256,192,58084,1,0,0:0:0:0:
256,192,58159,1,8,0:0:0:0:
256,192,58234,1,0,0:0:0:0:
256,192,58384,1,0,0:0:0:0:
256,192,58534,1,8,0:0:0:0:
256,192,58684,1,0,0:0:0:0:
256,192,58759,1,0,0:0:0:0:
256,192,58834,1,8,0:0:0:0:
256,192,58909,1,8,0:0:0:0:
256,192,58984,1,0,0:0:0:0:
256,192,59134,1,8,0:0:0:0:
256,192,59284,1,0,0:0:0:0:
256,192,59434,1,8,0:0:0:0:
256,192,59509,1,8,0:0:0:0:
256,192,59584,1,8,0:0:0:0:
256,192,59659,1,8,0:0:0:0:
256,192,59734,1,0,0:0:0:0:
256,192,59809,1,0,0:0:0:0:
256,192,59884,1,0,0:0:0:0:
256,192,59959,1,0,0:0:0:0:
256,192,60034,1,8,0:0:0:0:
256,192,60109,1,8,0:0:0:0:
256,192,60184,1,8,0:0:0:0:
256,192,60259,1,8,0:0:0:0:
256,192,60334,1,0,0:0:0:0:
256,192,60409,1,0,0:0:0:0:
256,192,60484,1,0,0:0:0:0:
256,192,60559,1,0,0:0:0:0:
256,192,60634,1,8,0:0:0:0:
256,192,60784,1,0,0:0:0:0:
256,192,60934,1,8,0:0:0:0:
256,192,61084,1,0,0:0:0:0:
256,192,61234,1,8,0:0:0:0:
256,192,61309,1,8,0:0:0:0:
256,192,61384,1,0,0:0:0:0:
256,192,61534,1,8,0:0:0:0:
256,192,61684,1,8,0:0:0:0:
256,192,61834,1,8,0:0:0:0:
256,192,61909,1,8,0:0:0:0:
256,192,61984,1,8,0:0:0:0:
256,192,62059,1,8,0:0:0:0:
256,192,62134,1,0,0:0:0:0:
256,192,62209,1,0,0:0:0:0:
256,192,62284,1,0,0:0:0:0:
256,192,62359,1,0,0:0:0:0:
256,192,62434,1,8,0:0:0:0:
256,192,62509,1,8,0:0:0:0:
256,192,62584,1,0,0:0:0:0:
256,192,62659,1,8,0:0:0:0:
256,192,62734,1,0,0:0:0:0:
256,192,62809,1,0,0:0:0:0:
256,192,62884,1,8,0:0:0:0:
256,192,62959,1,0,0:0:0:0:
256,192,63034,1,8,0:0:0:0:
256,192,63109,1,8,0:0:0:0:
256,192,63184,1,0,0:0:0:0:
256,192,63259,1,0,0:0:0:0:
256,192,63334,1,8,0:0:0:0:
256,192,63409,1,0,0:0:0:0:
256,192,63484,1,0,0:0:0:0:
256,192,63559,1,0,0:0:0:0:
256,192,63634,1,8,0:0:0:0:
256,192,63709,1,0,0:0:0:0:
256,192,63784,1,8,0:0:0:0:
256,192,63859,1,0,0:0:0:0:
256,192,63934,1,8,0:0:0:0:
256,192,64009,1,8,0:0:0:0:
256,192,64084,1,0,0:0:0:0:
256,192,64159,1,0,0:0:0:0:
256,192,64234,1,8,0:0:0:0:
256,192,64309,1,8,0:0:0:0:
256,192,64384,1,8,0:0:0:0:
256,192,64459,1,0,0:0:0:0:
256,192,64534,1,8,0:0:0:0:
256,192,64609,1,8,0:0:0:0:
256,192,64684,1,8,0:0:0:0:
256,192,64759,1,0,0:0:0:0:
256,192,64834,1,8,0:0:0:0:
256,192,64909,1,8,0:0:0:0:
256,192,64984,1,0,0:0:0:0:
256,192,65059,1,8,0:0:0:0:
256,192,65134,1,0,0:0:0:0:
256,192,65209,1,0,0:0:0:0:
256,192,65284,1,8,0:0:0:0:
256,192,65359,1,0,0:0:0:0:
256,192,65434,1,8,0:0:0:0:
256,192,65509,1,8,0:0:0:0:
256,192,65584,1,0,0:0:0:0:
256,192,65659,1,0,0:0:0:0:
256,192,65734,1,8,0:0:0:0:
256,192,65809,1,0,0:0:0:0:
256,192,65884,1,0,0:0:0:0:
256,192,65959,1,0,0:0:0:0:
256,192,66034,1,8,0:0:0:0:
256,192,66109,1,0,0:0:0:0:
256,192,66184,1,8,0:0:0:0:
256,192,66259,1,0,0:0:0:0:
256,192,66334,1,8,0:0:0:0:
256,192,66409,1,8,0:0:0:0:
256,192,66484,1,0,0:0:0:0:
256,192,66559,1,0,0:0:0:0:
256,192,66634,1,8,0:0:0:0:
256,192,66709,1,8,0:0:0:0:
256,192,66784,1,8,0:0:0:0:
256,192,66859,1,0,0:0:0:0:
256,192,66934,1,8,0:0:0:0:
256,192,67009,1,8,0:0:0:0:
256,192,67084,1,8,0:0:0:0:
256,192,67159,1,0,0:0:0:0:
256,192,67234,1,8,0:0:0:0:
256,192,67309,1,8,0:0:0:0:
256,192,67384,1,0,0:0:0:0:
256,192,67459,1,8,0:0:0:0:
256,192,67534,1,8,0:0:0:0:
256,192,67609,1,0,0:0:0:0:
256,192,67684,1,8,0:0:0:0:
256,192,67834,1,4,0:0:0:0:
256,192,68134,1,8,0:0:0:0:
256,192,68209,1,8,0:0:0:0:
256,192,68284,1,8,0:0:0:0:
256,192,68434,1,4,0:0:0:0:
256,192,68734,1,8,0:0:0:0:
256,192,68809,1,8,0:0:0:0:
256,192,68884,1,8,0:0:0:0:
256,192,69034,1,4,0:0:0:0:
256,192,69334,1,8,0:0:0:0:
256,192,69409,1,8,0:0:0:0:
256,192,69484,1,0,0:0:0:0:
256,192,69559,1,8,0:0:0:0:
256,192,69634,1,8,0:0:0:0:
256,192,69709,1,0,0:0:0:0:
256,192,69784,1,8,0:0:0:0:
256,192,69859,1,0,0:0:0:0:
256,192,69934,1,8,0:0:0:0:
256,192,70009,1,8,0:0:0:0:
256,192,70084,1,0,0:0:0:0:
256,192,70234,1,4,0:0:0:0:
256,192,70534,1,8,0:0:0:0:
256,192,70609,1,8,0:0:0:0:
256,192,70684,1,0,0:0:0:0:
256,192,70834,1,4,0:0:0:0:
256,192,71134,1,8,0:0:0:0:
256,192,71209,1,8,0:0:0:0:
256,192,71284,1,0,0:0:0:0:
256,192,71434,1,4,0:0:0:0:
256,192,71584,1,4,0:0:0:0:
256,192,71884,1,4,0:0:0:0:
256,192,72034,1,4,0:0:0:0:
256,192,72184,1,4,0:0:0:0:
256,192,72334,1,4,0:0:0:0:
256,192,72634,1,8,0:0:0:0:
256,192,72709,1,0,0:0:0:0:
256,192,72784,1,0,0:0:0:0:
256,192,72859,1,0,0:0:0:0:
256,192,72934,1,8,0:0:0:0:
256,192,73009,1,0,0:0:0:0:
256,192,73084,1,0,0:0:0:0:
256,192,73159,1,0,0:0:0:0:
256,192,73234,1,8,0:0:0:0:
256,192,73309,1,0,0:0:0:0:
256,192,73384,1,0,0:0:0:0:
256,192,73459,1,0,0:0:0:0:
256,192,73534,1,8,0:0:0:0:
256,192,73609,1,0,0:0:0:0:
256,192,73684,1,0,0:0:0:0:
256,192,73759,1,0,0:0:0:0:
256,192,73834,1,8,0:0:0:0:
256,192,73909,1,8,0:0:0:0:
256,192,73984,1,0,0:0:0:0:
256,192,74059,1,0,0:0:0:0:
256,192,74134,1,8,0:0:0:0:
256,192,74209,1,8,0:0:0:0:
256,192,74284,1,0,0:0:0:0:
256,192,74359,1,0,0:0:0:0:
256,192,74434,1,8,0:0:0:0:
256,192,74509,1,8,0:0:0:0:
256,192,74584,1,0,0:0:0:0:
256,192,74659,1,0,0:0:0:0:
256,192,74734,1,8,0:0:0:0:
256,192,74809,1,8,0:0:0:0:
256,192,74884,1,0,0:0:0:0:
256,192,74959,1,0,0:0:0:0:
256,192,75034,1,8,0:0:0:0:
256,192,75109,1,0,0:0:0:0:
256,192,75184,1,0,0:0:0:0:
256,192,75259,1,0,0:0:0:0:
256,192,75334,1,8,0:0:0:0:
256,192,75409,1,0,0:0:0:0:
256,192,75484,1,8,0:0:0:0:
256,192,75559,1,0,0:0:0:0:
256,192,75634,1,8,0:0:0:0:
256,192,75709,1,0,0:0:0:0:
256,192,75784,1,0,0:0:0:0:
256,192,75859,1,0,0:0:0:0:
256,192,75934,1,8,0:0:0:0:
256,192,76009,1,0,0:0:0:0:
256,192,76084,1,8,0:0:0:0:
256,192,76159,1,0,0:0:0:0:
256,192,76234,1,8,0:0:0:0:
256,192,76309,1,8,0:0:0:0:
256,192,76384,1,0,0:0:0:0:
256,192,76459,1,0,0:0:0:0:
256,192,76534,1,8,0:0:0:0:
256,192,76609,1,8,0:0:0:0:
256,192,76684,1,0,0:0:0:0:
256,192,76759,1,0,0:0:0:0:
256,192,76834,1,8,0:0:0:0:
256,192,76909,1,8,0:0:0:0:
256,192,76984,1,0,0:0:0:0:
256,192,77059,1,8,0:0:0:0:
256,192,77134,1,8,0:0:0:0:
256,192,77209,1,0,0:0:0:0:
256,192,77284,1,8,0:0:0:0:
256,192,77434,1,0,0:0:0:0:
256,192,77584,1,8,0:0:0:0:
256,192,77659,1,8,0:0:0:0:
256,192,77734,1,0,0:0:0:0:
256,192,77884,1,8,0:0:0:0:
256,192,78034,1,0,0:0:0:0:
256,192,78184,1,8,0:0:0:0:
256,192,78259,1,8,0:0:0:0:
256,192,78334,1,8,0:0:0:0:
256,192,78484,1,8,0:0:0:0:
256,192,78634,1,8,0:0:0:0:
256,192,78709,1,0,0:0:0:0:
256,192,78784,1,0,0:0:0:0:
256,192,78859,1,0,0:0:0:0:
256,192,78934,1,8,0:0:0:0:
256,192,79009,1,0,0:0:0:0:
256,192,79084,1,0,0:0:0:0:
256,192,79159,1,0,0:0:0:0:
256,192,79234,1,8,0:0:0:0:
256,192,79309,1,0,0:0:0:0:
256,192,79384,1,8,0:0:0:0:
256,192,79459,1,0,0:0:0:0:
256,192,79534,1,8,0:0:0:0:
256,192,79684,1,0,0:0:0:0:
256,192,79834,1,4,0:0:0:0:
256,192,79984,1,8,0:0:0:0:
256,192,80134,1,0,0:0:0:0:
256,192,80209,1,0,0:0:0:0:
256,192,80284,1,8,0:0:0:0:
256,192,80434,1,0,0:0:0:0:
256,192,80584,1,8,0:0:0:0:
256,192,80659,1,8,0:0:0:0:
256,192,80734,1,0,0:0:0:0:
256,192,80884,1,8,0:0:0:0:
256,192,81034,1,0,0:0:0:0:
256,192,81184,1,8,0:0:0:0:
256,192,81334,1,0,0:0:0:0:
256,192,81409,1,0,0:0:0:0:
256,192,81484,1,8,0:0:0:0:
256,192,81559,1,0,0:0:0:0:
256,192,81634,1,8,0:0:0:0:
256,192,81709,1,8,0:0:0:0:
256,192,81784,1,0,0:0:0:0:
256,192,81934,1,8,0:0:0:0:
256,192,82009,1,8,0:0:0:0:
256,192,82084,1,0,0:0:0:0:
256,192,82234,1,12,0:0:0:0:
256,192,82384,1,0,0:0:0:0:
256,192,82534,1,12,0:0:0:0:
256,192,82684,1,0,0:0:0:0:
256,192,82834,1,12,0:0:0:0:
256,192,82984,1,12,0:0:0:0:
256,192,83134,1,0,0:0:0:0:
256,192,83284,1,12,0:0:0:0:
256,192,83584,1,8,0:0:0:0:
256,192,83734,1,8,0:0:0:0:
256,192,83884,1,0,0:0:0:0:
256,192,84034,1,8,0:0:0:0:
256,192,84184,1,8,0:0:0:0:
256,192,84334,1,8,0:0:0:0:
256,192,84484,1,0,0:0:0:0:
256,192,84634,1,8,0:0:0:0:
256,192,84709,1,0,0:0:0:0:
256,192,84784,1,0,0:0:0:0:
256,192,84859,1,0,0:0:0:0:
256,192,84934,1,8,0:0:0:0:
256,192,85009,1,0,0:0:0:0:
256,192,85084,1,0,0:0:0:0:
256,192,85159,1,0,0:0:0:0:
256,192,85234,1,8,0:0:0:0:
256,192,85309,1,0,0:0:0:0:
256,192,85384,1,0,0:0:0:0:
256,192,85459,1,0,0:0:0:0:
256,192,85534,1,8,0:0:0:0:
256,192,85609,1,0,0:0:0:0:
256,192,85684,1,0,0:0:0:0:
256,192,85759,1,0,0:0:0:0:
256,192,85834,1,8,0:0:0:0:
256,192,85909,1,8,0:0:0:0:
256,192,85984,1,0,0:0:0:0:
256,192,86059,1,0,0:0:0:0:
256,192,86134,1,8,0:0:0:0:
256,192,86209,1,8,0:0:0:0:
256,192,86284,1,0,0:0:0:0:
256,192,86359,1,0,0:0:0:0:
256,192,86434,1,8,0:0:0:0:
256,192,86509,1,8,0:0:0:0:
256,192,86584,1,0,0:0:0:0:
256,192,86659,1,0,0:0:0:0:
256,192,86734,1,8,0:0:0:0:
256,192,86809,1,8,0:0:0:0:
256,192,86884,1,0,0:0:0:0:
256,192,86959,1,0,0:0:0:0:
256,192,87034,1,8,0:0:0:0:
256,192,87184,1,0,0:0:0:0:
256,192,87259,1,0,0:0:0:0:
256,192,87334,1,8,0:0:0:0:
256,192,87484,1,8,0:0:0:0:
256,192,87634,1,0,0:0:0:0:
256,192,87784,1,8,0:0:0:0:
256,192,87859,1,8,0:0:0:0:
256,192,87934,1,0,0:0:0:0:
256,192,88084,1,8,0:0:0:0:
256,192,88234,1,8,0:0:0:0:
256,192,88309,1,0,0:0:0:0:
256,192,88384,1,8,0:0:0:0:
256,192,88459,1,8,0:0:0:0:
256,192,88534,1,0,0:0:0:0:
256,192,88609,1,0,0:0:0:0:
256,192,88684,1,8,0:0:0:0:
256,192,88759,1,0,0:0:0:0:
256,192,88834,1,8,0:0:0:0:
256,192,88909,1,8,0:0:0:0:
256,192,88984,1,0,0:0:0:0:
256,192,89059,1,8,0:0:0:0:
256,192,89134,1,0,0:0:0:0:
256,192,89209,1,0,0:0:0:0:
256,192,89284,1,8,0:0:0:0:
256,192,89434,1,4,0:0:0:0:
256,192,89584,1,8,0:0:0:0:
256,192,89659,1,8,0:0:0:0:
256,192,89734,1,0,0:0:0:0:
256,192,89884,1,8,0:0:0:0:
256,192,90034,1,0,0:0:0:0:
256,192,90184,1,8,0:0:0:0:
256,192,90259,1,8,0:0:0:0:
256,192,90334,1,0,0:0:0:0:
256,192,90484,1,8,0:0:0:0:
256,192,90634,1,0,0:0:0:0:
256,192,90784,1,8,0:0:0:0:
256,192,90859,1,0,0:0:0:0:
256,192,91009,1,0,0:0:0:0:
256,192,91084,1,8,0:0:0:0:
256,192,91234,1,0,0:0:0:0:
256,192,91384,1,8,0:0:0:0:
256,192,91459,1,0,0:0:0:0:
256,192,91534,1,8,0:0:0:0:
256,192,91609,1,8,0:0:0:0:
256,192,91684,1,0,0:0:0:0:
256,192,91834,1,12,0:0:0:0:
256,192,91984,1,0,0:0:0:0:
256,192,92134,1,12,0:0:0:0:
256,192,92284,1,0,0:0:0:0:
256,192,92434,1,12,0:0:0:0:
256,192,92584,1,12,0:0:0:0:
256,192,92734,1,0,0:0:0:0:
256,192,92884,1,12,0:0:0:0:
256,192,93184,1,8,0:0:0:0:
256,192,93259,1,0,0:0:0:0:
256,192,93334,1,8,0:0:0:0:
256,192,93409,1,8,0:0:0:0:
256,192,93484,1,0,0:0:0:0:
256,192,93559,1,0,0:0:0:0:
256,192,93634,1,8,0:0:0:0:
256,192,93709,1,8,0:0:0:0:
256,192,93784,1,0,0:0:0:0:
256,192,93859,1,0,0:0:0:0:
256,192,93934,1,8,0:0:0:0:
256,192,94009,1,8,0:0:0:0:
256,192,94084,1,8,0:0:0:0:
256,192,94159,1,0,0:0:0:0:
256,192,94234,1,8,0:0:0:0:
256,192,94309,1,0,0:0:0:0:
256,192,94384,1,0,0:0:0:0:
256,192,94459,1,0,0:0:0:0:
256,192,94534,1,8,0:0:0:0:
256,192,94609,1,0,0:0:0:0:
256,192,94684,1,0,0:0:0:0:
256,192,94759,1,0,0:0:0:0:
256,192,94834,1,8,0:0:0:0:
256,192,94909,1,0,0:0:0:0:
256,192,94984,1,0,0:0:0:0:
256,192,95059,1,0,0:0:0:0:
256,192,95134,1,8,0:0:0:0:
256,192,95209,1,0,0:0:0:0:
256,192,95284,1,0,0:0:0:0:
256,192,95359,1,0,0:0:0:0:
256,192,95434,1,8,0:0:0:0:
256,192,95509,1,8,0:0:0:0:
256,192,95584,1,0,0:0:0:0:
256,192,95659,1,0,0:0:0:0:
256,192,95734,1,8,0:0:0:0:
256,192,95809,1,8,0:0:0:0:
256,192,95884,1,0,0:0:0:0:
256,192,95959,1,0,0:0:0:0:
256,192,96034,1,8,0:0:0:0:
256,192,96109,1,8,0:0:0:0:
256,192,96184,1,0,0:0:0:0:
256,192,96259,1,0,0:0:0:0:
256,192,96334,1,8,0:0:0:0:
256,192,96409,1,8,0:0:0:0:
256,192,96484,1,0,0:0:0:0:
256,192,96559,1,0,0:0:0:0:
256,192,96634,1,8,0:0:0:0:
256,192,96784,1,0,0:0:0:0:
256,192,96859,1,0,0:0:0:0:
256,192,96934,1,8,0:0:0:0:
256,192,97084,1,8,0:0:0:0:
256,192,97234,1,0,0:0:0:0:
256,192,97384,1,8,0:0:0:0:
256,192,97459,1,8,0:0:0:0:
256,192,97534,1,0,0:0:0:0:
256,192,97684,1,8,0:0:0:0:
256,192,97834,1,8,0:0:0:0:
256,192,97909,1,8,0:0:0:0:
256,192,97984,1,0,0:0:0:0:
256,192,98059,1,0,0:0:0:0:
256,192,98134,1,8,0:0:0:0:
256,192,98209,1,0,0:0:0:0:
256,192,98284,1,0,0:0:0:0:
256,192,98359,1,0,0:0:0:0:
256,192,98434,1,8,0:0:0:0:
256,192,98509,1,8,0:0:0:0:
256,192,98584,1,0,0:0:0:0:
256,192,98659,1,0,0:0:0:0:
256,192,98734,1,8,0:0:0:0:
256,192,98809,1,8,0:0:0:0:
256,192,98884,1,8,0:0:0:0:
256,192,99034,1,4,0:0:0:0:
256,192,99334,1,4,0:0:0:0:
256,192,100084,1,12,0:0:0:0:
256,192,100384,1,12,0:0:0:0:
256,192,101434,1,12,0:0:0:0:
256,192,101584,1,0,0:0:0:0:
256,192,101659,1,0,0:0:0:0:
256,192,101734,1,0,0:0:0:0:
256,192,101884,1,0,0:0:0:0:
256,192,102034,1,8,0:0:0:0:
256,192,102109,1,8,0:0:0:0:
256,192,102184,1,0,0:0:0:0:
256,192,102259,1,0,0:0:0:0:
256,192,102334,1,8,0:0:0:0:
256,192,102484,1,4,0:0:0:0:
256,192,102784,1,0,0:0:0:0:
256,192,102859,1,0,0:0:0:0:
256,192,102934,1,0,0:0:0:0:
256,192,103084,1,0,0:0:0:0:
256,192,103234,1,8,0:0:0:0:
256,192,103309,1,8,0:0:0:0:
256,192,103384,1,0,0:0:0:0:
256,192,103534,1,8,0:0:0:0:
256,192,103609,1,8,0:0:0:0:
256,192,103684,1,0,0:0:0:0:
256,192,103834,1,4,0:0:0:0:
256,192,104134,1,4,0:0:0:0:
256,192,104884,1,12,0:0:0:0:
256,192,105184,1,12,0:0:0:0:
256,192,106234,1,8,0:0:0:0:
256,192,106309,1,8,0:0:0:0:
256,192,106384,1,0,0:0:0:0:
256,192,106459,1,0,0:0:0:0:
256,192,106534,1,8,0:0:0:0:
256,192,106684,1,0,0:0:0:0:
256,192,106834,1,8,0:0:0:0:
256,192,106909,1,8,0:0:0:0:
256,192,106984,1,0,0:0:0:0:
256,192,107134,1,8,0:0:0:0:
256,192,107284,1,4,0:0:0:0:
256,192,107584,1,8,0:0:0:0:
256,192,107659,1,0,0:0:0:0:
256,192,107734,1,8,0:0:0:0:
256,192,107809,1,8,0:0:0:0:
256,192,107884,1,8,0:0:0:0:
256,192,107959,1,8,0:0:0:0:
256,192,108034,1,0,0:0:0:0:
256,192,108109,1,0,0:0:0:0:
256,192,108184,1,0,0:0:0:0:
256,192,108259,1,0,0:0:0:0:
256,192,108334,1,8,0:0:0:0:
256,192,108409,1,8,0:0:0:0:
256,192,108484,1,0,0:0:0:0:
256,192,108634,1,4,0:0:0:0:
256,192,108784,1,8,0:0:0:0:
256,192,108934,1,0,0:0:0:0:
256,192,109009,1,0,0:0:0:0:
256,192,109084,1,8,0:0:0:0:
256,192,109234,1,0,0:0:0:0:
256,192,109384,1,8,0:0:0:0:
256,192,109459,1,0,0:0:0:0:
256,192,109534,1,8,0:0:0:0:
256,192,109684,1,8,0:0:0:0:
256,192,109834,1,0,0:0:0:0:
256,192,109984,1,8,0:0:0:0:
256,192,110059,1,8,0:0:0:0:
256,192,110134,1,0,0:0:0:0:
256,192,110284,1,8,0:0:0:0:
256,192,110434,1,0,0:0:0:0:
256,192,110509,1,0,0:0:0:0:
256,192,110584,1,8,0:0:0:0:
256,192,110659,1,8,0:0:0:0:
256,192,110734,1,0,0:0:0:0:
256,192,110884,1,8,0:0:0:0:
256,192,111034,1,0,0:0:0:0:
256,192,111109,1,0,0:0:0:0:
256,192,111184,1,8,0:0:0:0:
256,192,111259,1,0,0:0:0:0:
256,192,111334,1,0,0:0:0:0:
256,192,111409,1,0,0:0:0:0:
256,192,111484,1,8,0:0:0:0:
256,192,111559,1,0,0:0:0:0:
256,192,111634,1,0,0:0:0:0:
256,192,111709,1,0,0:0:0:0:
256,192,111784,1,8,0:0:0:0:
256,192,111859,1,8,0:0:0:0:
256,192,111934,1,0,0:0:0:0:
256,192,112009,1,0,0:0:0:0:
256,192,112084,1,8,0:0:0:0:
256,192,112234,1,0,0:0:0:0:
256,192,112384,1,8,0:0:0:0:
256,192,112459,1,8,0:0:0:0:
256,192,112534,1,0,0:0:0:0:
256,192,112684,1,0,0:0:0:0:
256,192,112834,1,8,0:0:0:0:
256,192,112909,1,8,0:0:0:0:
256,192,112984,1,0,0:0:0:0:
256,192,113059,1,8,0:0:0:0:
256,192,113134,1,0,0:0:0:0:
256,192,113209,1,0,0:0:0:0:
256,192,113284,1,8,0:0:0:0:
256,192,113359,1,8,0:0:0:0:
256,192,113434,1,0,0:0:0:0:
256,192,113584,1,8,0:0:0:0:
256,192,113734,1,0,0:0:0:0:
256,192,113809,1,0,0:0:0:0:
256,192,113884,1,8,0:0:0:0:
256,192,114034,1,0,0:0:0:0:
256,192,114184,1,8,0:0:0:0:
256,192,114259,1,8,0:0:0:0:
256,192,114334,1,0,0:0:0:0:
256,192,114484,1,8,0:0:0:0:
256,192,114634,1,8,0:0:0:0:
256,192,114709,1,8,0:0:0:0:
256,192,114784,1,0,0:0:0:0:
256,192,114859,1,0,0:0:0:0:
256,192,114934,1,8,0:0:0:0:
256,192,115084,1,8,0:0:0:0:
256,192,115234,1,0,0:0:0:0:
256,192,115384,1,8,0:0:0:0:
256,192,115534,1,8,0:0:0:0:
256,192,115609,1,8,0:0:0:0:
256,192,115684,1,8,0:0:0:0:
256,192,115834,1,0,0:0:0:0:
256,192,115909,1,0,0:0:0:0:
256,192,115984,1,8,0:0:0:0:
256,192,116059,1,0,0:0:0:0:
256,192,116134,1,0,0:0:0:0:
256,192,116209,1,0,0:0:0:0:
256,192,116284,1,8,0:0:0:0:
256,192,116359,1,0,0:0:0:0:
256,192,116434,1,0,0:0:0:0:
256,192,116509,1,0,0:0:0:0:
256,192,116584,1,8,0:0:0:0:
256,192,116659,1,8,0:0:0:0:
256,192,116734,1,8,0:0:0:0:
256,192,116884,1,0,0:0:0:0:
256,192,117034,1,12,0:0:0:0:
256,192,117184,1,12,0:0:0:0:
256,192,117484,1,12,0:0:0:0:
256,192,117634,1,12,0:0:0:0:
256,192,117784,1,0,0:0:0:0:
256,192,117859,1,0,0:0:0:0:
256,192,117934,1,8,0:0:0:0:
256,192,118234,1,4,0:0:0:0:
256,192,119434,1,8,0:0:0:0:
256,192,119509,1,0,0:0:0:0:
256,192,119584,1,8,0:0:0:0:
256,192,119659,1,0,0:0:0:0:
256,192,119734,1,8,0:0:0:0:
256,192,119809,1,0,0:0:0:0:
256,192,119884,1,8,0:0:0:0:
256,192,119959,1,0,0:0:0:0:
256,192,120034,1,8,0:0:0:0:
256,192,120109,1,8,0:0:0:0:
256,192,120184,1,0,0:0:0:0:
256,192,120259,1,0,0:0:0:0:
256,192,120334,1,8,0:0:0:0:
256,192,120409,1,8,0:0:0:0:
256,192,120484,1,0,0:0:0:0:
256,192,120559,1,0,0:0:0:0:
256,192,120634,1,8,0:0:0:0:
256,192,120709,1,0,0:0:0:0:
256,192,120784,1,8,0:0:0:0:
256,192,120859,1,0,0:0:0:0:
256,192,120934,1,8,0:0:0:0:
256,192,121009,1,0,0:0:0:0:
256,192,121084,1,8,0:0:0:0:
256,192,121159,1,0,0:0:0:0:
256,192,121234,1,8,0:0:0:0:
256,192,121309,1,8,0:0:0:0:
256,192,121384,1,0,0:0:0:0:
256,192,121459,1,8,0:0:0:0:
256,192,121534,1,0,0:0:0:0:
256,192,121609,1,0,0:0:0:0:
256,192,121684,1,8,0:0:0:0:
256,192,121759,1,0,0:0:0:0:
256,192,121834,1,0,0:0:0:0:
256,192,121909,1,0,0:0:0:0:
256,192,121984,1,8,0:0:0:0:
256,192,122059,1,8,0:0:0:0:
256,192,122134,1,8,0:0:0:0:
256,192,122209,1,8,0:0:0:0:
256,192,122284,1,0,0:0:0:0:
256,192,122359,1,0,0:0:0:0:
256,192,122434,1,8,0:0:0:0:
256,192,122509,1,8,0:0:0:0:
256,192,122584,1,8,0:0:0:0:
256,192,122659,1,8,0:0:0:0:
256,192,122734,1,0,0:0:0:0:
256,192,122884,1,0,0:0:0:0:
256,192,123034,1,8,0:0:0:0:
256,192,123109,1,8,0:0:0:0:
256,192,123184,1,0,0:0:0:0:
256,192,123259,1,0,0:0:0:0:
256,192,123334,1,8,0:0:0:0:
256,192,123409,1,0,0:0:0:0:
256,192,123484,1,8,0:0:0:0:
256,192,123559,1,8,0:0:0:0:
256,192,123634,1,0,0:0:0:0:
256,192,123709,1,0,0:0:0:0:
256,192,123784,1,8,0:0:0:0:
256,192,123859,1,0,0:0:0:0:
256,192,123934,1,8,0:0:0:0:
256,192,124009,1,8,0:0:0:0:
256,192,124084,1,8,0:0:0:0:
256,192,124159,1,0,0:0:0:0:
256,192,124234,1,8,0:0:0:0:
256,192,124309,1,8,0:0:0:0:
256,192,124384,1,0,0:0:0:0:
256,192,124459,1,8,0:0:0:0:
256,192,124534,1,0,0:0:0:0:
256,192,124609,1,0,0:0:0:0:
256,192,124684,1,8,0:0:0:0:
256,192,124759,1,0,0:0:0:0:
256,192,124834,1,8,0:0:0:0:
256,192,124909,1,8,0:0:0:0:
256,192,124984,1,0,0:0:0:0:
256,192,125059,1,0,0:0:0:0:
256,192,125134,1,8,0:0:0:0:
256,192,125209,1,8,0:0:0:0:
256,192,125284,1,0,0:0:0:0:
256,192,125359,1,0,0:0:0:0:
256,192,125434,1,8,0:0:0:0:
256,192,125509,1,8,0:0:0:0:
256,192,125584,1,8,0:0:0:0:
256,192,125659,1,0,0:0:0:0:
256,192,125734,1,0,0:0:0:0:
256,192,125809,1,0,0:0:0:0:
256,192,125884,1,8,0:0:0:0:
256,192,125959,1,8,0:0:0:0:
256,192,126034,1,8,0:0:0:0:
256,192,126109,1,0,0:0:0:0:
256,192,126184,1,0,0:0:0:0:
256,192,126259,1,0,0:0:0:0:
256,192,126334,1,8,0:0:0:0:
256,192,126409,1,8,0:0:0:0:
256,192,126484,1,8,0:0:0:0:
256,192,126559,1,0,0:0:0:0:
256,192,126634,1,8,0:0:0:0:
256,192,126709,1,8,0:0:0:0:
256,192,126784,1,0,0:0:0:0:
256,192,126859,1,8,0:0:0:0:
256,192,126934,1,0,0:0:0:0:
256,192,127009,1,0,0:0:0:0:
256,192,127084,1,8,0:0:0:0:
256,192,127159,1,0,0:0:0:0:
256,192,127234,1,8,0:0:0:0:
256,192,127309,1,8,0:0:0:0:
256,192,127384,1,0,0:0:0:0:
256,192,127459,1,8,0:0:0:0:
256,192,127534,1,0,0:0:0:0:
256,192,127609,1,0,0:0:0:0:
256,192,127684,1,8,0:0:0:0:
256,192,127759,1,0,0:0:0:0:
256,192,127834,1,8,0:0:0:0:
256,192,127909,1,8,0:0:0:0:
256,192,127984,1,8,0:0:0:0:
256,192,128059,1,8,0:0:0:0:
256,192,128134,1,0,0:0:0:0:
256,192,128209,1,0,0:0:0:0:
256,192,128284,1,8,0:0:0:0:
256,192,128359,1,8,0:0:0:0:
256,192,128434,1,0,0:0:0:0:
256,192,128509,1,0,0:0:0:0:
256,192,128584,1,0,0:0:0:0:
256,192,128659,1,0,0:0:0:0:
256,192,128734,1,8,0:0:0:0:
256,192,128809,1,0,0:0:0:0:
256,192,128884,1,0,0:0:0:0:
256,192,128959,1,0,0:0:0:0:
256,192,129034,1,8,0:0:0:0:
256,192,130234,1,12,0:0:0:0:
256,192,130684,1,0,0:0:0:0:
256,192,130834,1,8,0:0:0:0:
256,192,131134,1,0,0:0:0:0:
256,192,131284,1,0,0:0:0:0:
256,192,131434,1,8,0:0:0:0:
256,192,131584,1,0,0:0:0:0:
256,192,131734,1,0,0:0:0:0:
256,192,132034,1,8,0:0:0:0:
256,192,132184,1,0,0:0:0:0:
256,192,132334,1,8,0:0:0:0:
256,192,132484,1,8,0:0:0:0:
256,192,132634,1,0,0:0:0:0:
256,192,133084,1,0,0:0:0:0:
256,192,133234,1,8,0:0:0:0:
256,192,133534,1,0,0:0:0:0:
256,192,133684,1,8,0:0:0:0:
256,192,133834,1,0,0:0:0:0:
256,192,133909,1,0,0:0:0:0:
256,192,133984,1,8,0:0:0:0:
256,192,134059,1,8,0:0:0:0:
256,192,134134,1,0,0:0:0:0:
256,192,134284,1,0,0:0:0:0:
256,192,134434,1,8,0:0:0:0:
256,192,134509,1,8,0:0:0:0:
256,192,134584,1,0,0:0:0:0:
256,192,134659,1,0,0:0:0:0:
256,192,134734,1,8,0:0:0:0:
256,192,134809,1,8,0:0:0:0:
256,192,134884,1,8,0:0:0:0:
256,192,134959,1,8,0:0:0:0:
256,192,135034,1,0,0:0:0:0:
256,192,135484,1,0,0:0:0:0:
256,192,135634,1,8,0:0:0:0:
256,192,135934,1,0,0:0:0:0:
256,192,136084,1,8,0:0:0:0:
256,192,136234,1,8,0:0:0:0:
256,192,136384,1,0,0:0:0:0:
256,192,136534,1,8,0:0:0:0:
256,192,136834,1,8,0:0:0:0:
256,192,136909,1,8,0:0:0:0:
256,192,136984,1,0,0:0:0:0:
256,192,137059,1,0,0:0:0:0:
256,192,137134,1,8,0:0:0:0:
256,192,137209,1,8,0:0:0:0:
256,192,137284,1,0,0:0:0:0:
256,192,137359,1,0,0:0:0:0:
256,192,137434,1,8,0:0:0:0:
256,192,137734,1,8,0:0:0:0:
256,192,137884,1,0,0:0:0:0:
256,192,138034,1,8,0:0:0:0:
256,192,138334,1,0,0:0:0:0:
256,192,138634,1,0,0:0:0:0:
256,192,138834,1,8,0:0:0:0:
256,192,138934,1,8,0:0:0:0:
256,192,139034,1,8,0:0:0:0:
256,192,139134,1,0,0:0:0:0:
256,192,139234,1,8,0:0:0:0:
256,192,139334,1,0,0:0:0:0:
256,192,139434,1,0,0:0:0:0:
256,192,139534,1,8,0:0:0:0:
256,192,139634,1,0,0:0:0:0:
256,192,139734,1,0,0:0:0:0:
256,192,139834,1,0,0:0:0:0:
256,192,139909,1,0,0:0:0:0:
256,192,139984,1,8,0:0:0:0:
256,192,140059,1,0,0:0:0:0:
256,192,140134,1,0,0:0:0:0:
256,192,140209,1,0,0:0:0:0:
256,192,140284,1,8,0:0:0:0:
256,192,140359,1,0,0:0:0:0:
256,192,140434,1,0,0:0:0:0:
256,192,140509,1,0,0:0:0:0:
256,192,140584,1,8,0:0:0:0:
256,192,140659,1,8,0:0:0:0:
256,192,140734,1,0,0:0:0:0:
256,192,140809,1,0,0:0:0:0:
256,192,140884,1,8,0:0:0:0:
256,192,140959,1,0,0:0:0:0:
256,192,141034,1,0,0:0:0:0:
256,192,141109,1,0,0:0:0:0:
256,192,141184,1,8,0:0:0:0:
256,192,141259,1,0,0:0:0:0:
256,192,141334,1,0,0:0:0:0:
256,192,141409,1,0,0:0:0:0:
256,192,141484,1,8,0:0:0:0:
256,192,141559,1,0,0:0:0:0:
256,192,141634,1,0,0:0:0:0:
256,192,141709,1,0,0:0:0:0:
256,192,141784,1,8,0:0:0:0:
256,192,141859,1,8,0:0:0:0:
256,192,141934,1,0,0:0:0:0:
256,192,142009,1,0,0:0:0:0:
256,192,142084,1,8,0:0:0:0:
256,192,142159,1,0,0:0:0:0:
256,192,142234,1,8,0:0:0:0:
256,192,142309,1,8,0:0:0:0:
256,192,142384,1,0,0:0:0:0:
256,192,142459,1,0,0:0:0:0:
256,192,142534,1,8,0:0:0:0:
256,192,142609,1,0,0:0:0:0:
256,192,142684,1,8,0:0:0:0:
256,192,142759,1,0,0:0:0:0:
256,192,142834,1,8,0:0:0:0:
256,192,142909,1,8,0:0:0:0:
256,192,142984,1,0,0:0:0:0:
256,192,143059,1,0,0:0:0:0:
256,192,143134,1,8,0:0:0:0:
256,192,143209,1,8,0:0:0:0:
256,192,143284,1,0,0:0:0:0:
256,192,143359,1,8,0:0:0:0:
256,192,143434,1,0,0:0:0:0:
256,192,143584,1,0,0:0:0:0:
256,192,143734,1,8,0:0:0:0:
256,192,143809,1,8,0:0:0:0:
256,192,143884,1,8,0:0:0:0:
256,192,143959,1,8,0:0:0:0:
256,192,144034,1,0,0:0:0:0:
256,192,144109,1,0,0:0:0:0:
256,192,144184,1,0,0:0:0:0:
256,192,144259,1,0,0:0:0:0:
256,192,144334,1,8,0:0:0:0:
256,192,144409,1,8,0:0:0:0:
256,192,144484,1,8,0:0:0:0:
256,192,144559,1,8,0:0:0:0:
256,192,144634,1,0,0:0:0:0:
256,192,144709,1,0,0:0:0:0:
256,192,144784,1,8,0:0:0:0:
256,192,144859,1,0,0:0:0:0:
256,192,144934,1,0,0:0:0:0:
256,192,145009,1,0,0:0:0:0:
256,192,145084,1,8,0:0:0:0:
256,192,145159,1,0,0:0:0:0:
256,192,145234,1,0,0:0:0:0:
256,192,145309,1,0,0:0:0:0:
256,192,145384,1,8,0:0:0:0:
256,192,145459,1,0,0:0:0:0:
256,192,145534,1,0,0:0:0:0:
256,192,145609,1,0,0:0:0:0:
256,192,145684,1,8,0:0:0:0:
256,192,145759,1,8,0:0:0:0:
256,192,145834,1,0,0:0:0:0:
256,192,145909,1,0,0:0:0:0:
256,192,145984,1,8,0:0:0:0:
256,192,146059,1,8,0:0:0:0:
256,192,146134,1,0,0:0:0:0:
256,192,146209,1,0,0:0:0:0:
256,192,146284,1,8,0:0:0:0:
256,192,146359,1,0,0:0:0:0:
256,192,146434,1,8,0:0:0:0:
256,192,146509,1,8,0:0:0:0:
256,192,146584,1,0,0:0:0:0:
256,192,146659,1,0,0:0:0:0:
256,192,146734,1,8,0:0:0:0:
256,192,146809,1,8,0:0:0:0:
256,192,146884,1,8,0:0:0:0:
256,192,146959,1,8,0:0:0:0:
256,192,147034,1,0,0:0:0:0:
256,192,147484,1,8,0:0:0:0:
256,192,147559,1,0,0:0:0:0:
256,192,147634,1,0,0:0:0:0:
256,192,147709,1,0,0:0:0:0:
256,192,148159,1,8,0:0:0:0:
256,192,148234,1,8,0:0:0:0:
256,192,149434,1,12,0:0:0:0:
256,192,149584,1,0,0:0:0:0:
256,192,149659,1,0,0:0:0:0:
256,192,149734,1,8,0:0:0:0:
256,192,149884,1,8,0:0:0:0:
256,192,150034,1,0,0:0:0:0:
256,192,150109,1,0,0:0:0:0:
256,192,150184,1,8,0:0:0:0:
256,192,150259,1,0,0:0:0:0:
256,192,150334,1,8,0:0:0:0:
256,192,150484,1,0,0:0:0:0:
256,192,150634,1,8,0:0:0:0:
256,192,150709,1,8,0:0:0:0:
256,192,150784,1,0,0:0:0:0:
256,192,150859,1,0,0:0:0:0:
256,192,150934,1,8,0:0:0:0:
256,192,151084,1,8,0:0:0:0:
256,192,151234,1,0,0:0:0:0:
256,192,151309,1,0,0:0:0:0:
256,192,151384,1,8,0:0:0:0:
256,192,151459,1,0,0:0:0:0:
256,192,151534,1,8,0:0:0:0:
256,192,151609,1,8,0:0:0:0:
256,192,151684,1,0,0:0:0:0:
256,192,151759,1,0,0:0:0:0:
256,192,151834,1,8,0:0:0:0:
256,192,151984,1,0,0:0:0:0:
256,192,152059,1,0,0:0:0:0:
256,192,152134,1,8,0:0:0:0:
256,192,152284,1,0,0:0:0:0:
256,192,152359,1,0,0:0:0:0:
256,192,152434,1,8,0:0:0:0:
256,192,152584,1,0,0:0:0:0:
256,192,152659,1,0,0:0:0:0:
256,192,152734,1,8,0:0:0:0:
256,192,152809,1,8,0:0:0:0:
256,192,152884,1,0,0:0:0:0:
256,192,153034,1,8,0:0:0:0:
256,192,153109,1,8,0:0:0:0:
256,192,153184,1,0,0:0:0:0:
256,192,153259,1,0,0:0:0:0:
256,192,153334,1,0,0:0:0:0:
256,192,153409,1,0,0:0:0:0:
256,192,153484,1,8,0:0:0:0:
256,192,153559,1,8,0:0:0:0:
256,192,153634,1,0,0:0:0:0:
256,192,153709,1,0,0:0:0:0:
256,192,153784,1,0,0:0:0:0:
256,192,153859,1,0,0:0:0:0:
256,192,153934,1,8,0:0:0:0:
256,192,154009,1,8,0:0:0:0:
256,192,154084,1,0,0:0:0:0:
256,192,154159,1,0,0:0:0:0:
256,192,154234,1,8,0:0:0:0:
256,192,154384,1,0,0:0:0:0:
256,192,154459,1,0,0:0:0:0:
256,192,154534,1,8,0:0:0:0:
256,192,154609,1,0,0:0:0:0:
256,192,154684,1,8,0:0:0:0:
256,192,154759,1,8,0:0:0:0:
256,192,154834,1,0,0:0:0:0:
256,192,154909,1,0,0:0:0:0:
256,192,154984,1,8,0:0:0:0:
256,192,155059,1,0,0:0:0:0:
256,192,155134,1,8,0:0:0:0:
256,192,155209,1,8,0:0:0:0:
256,192,155284,1,0,0:0:0:0:
256,192,155434,1,8,0:0:0:0:
256,192,155509,1,8,0:0:0:0:
256,192,155584,1,0,0:0:0:0:
256,192,155659,1,8,0:0:0:0:
256,192,155734,1,8,0:0:0:0:
256,192,155809,1,0,0:0:0:0:
256,192,155884,1,8,0:0:0:0:
256,192,155959,1,0,0:0:0:0:
256,192,156034,1,0,0:0:0:0:
256,192,156109,1,0,0:0:0:0:
256,192,156184,1,8,0:0:0:0:
256,192,156259,1,0,0:0:0:0:
256,192,156334,1,8,0:0:0:0:
256,192,156409,1,8,0:0:0:0:
256,192,156484,1,0,0:0:0:0:
256,192,156634,1,8,0:0:0:0:
256,192,156709,1,8,0:0:0:0:
256,192,156784,1,0,0:0:0:0:
256,192,156859,1,0,0:0:0:0:
256,192,156934,1,8,0:0:0:0:
256,192,157009,1,0,0:0:0:0:
256,192,157084,1,8,0:0:0:0:
256,192,157159,1,8,0:0:0:0:
256,192,157234,1,0,0:0:0:0:
256,192,157309,1,0,0:0:0:0:
256,192,157384,1,8,0:0:0:0:
256,192,157459,1,0,0:0:0:0:
256,192,157534,1,8,0:0:0:0:
256,192,157609,1,8,0:0:0:0:
256,192,157684,1,0,0:0:0:0:
256,192,157834,1,8,0:0:0:0:
256,192,157909,1,8,0:0:0:0:
256,192,157984,1,0,0:0:0:0:
256,192,158134,1,8,0:0:0:0:
256,192,158209,1,8,0:0:0:0:
256,192,158284,1,0,0:0:0:0:
256,192,158434,1,8,0:0:0:0:
256,192,158509,1,8,0:0:0:0:
256,192,158659,1,0,0:0:0:0:
256,192,158734,1,8,0:0:0:0:
256,192,158884,1,0,0:0:0:0:
256,192,159034,1,12,0:0:0:0:
256,192,159184,1,0,0:0:0:0:
256,192,159259,1,0,0:0:0:0:
256,192,159334,1,8,0:0:0:0:
256,192,159484,1,8,0:0:0:0:
256,192,159634,1,0,0:0:0:0:
256,192,159709,1,0,0:0:0:0:
256,192,159784,1,8,0:0:0:0:
256,192,159934,1,8,0:0:0:0:
256,192,160084,1,0,0:0:0:0:
256,192,160234,1,8,0:0:0:0:
256,192,160309,1,0,0:0:0:0:
256,192,160384,1,0,0:0:0:0:
256,192,160459,1,0,0:0:0:0:
256,192,160534,1,8,0:0:0:0:
256,192,160684,1,8,0:0:0:0:
256,192,160834,1,0,0:0:0:0:
256,192,160909,1,0,0:0:0:0:
256,192,160984,1,8,0:0:0:0:
256,192,161059,1,0,0:0:0:0:
256,192,161134,1,8,0:0:0:0:
256,192,161284,1,0,0:0:0:0:
256,192,161434,1,8,0:0:0:0:
256,192,161509,1,8,0:0:0:0:
256,192,161584,1,0,0:0:0:0:
256,192,161659,1,0,0:0:0:0:
256,192,161734,1,8,0:0:0:0:
256,192,161809,1,0,0:0:0:0:
256,192,161884,1,0,0:0:0:0:
256,192,161959,1,0,0:0:0:0:
256,192,162034,1,8,0:0:0:0:
256,192,162109,1,8,0:0:0:0:
256,192,162184,1,0,0:0:0:0:
256,192,162259,1,0,0:0:0:0:
256,192,162334,1,8,0:0:0:0:
256,192,162484,1,0,0:0:0:0:
256,192,162634,1,8,0:0:0:0:
256,192,162709,1,8,0:0:0:0:
256,192,162784,1,0,0:0:0:0:
256,192,162934,1,0,0:0:0:0:
256,192,163009,1,0,0:0:0:0:
256,192,163084,1,0,0:0:0:0:
256,192,163234,1,8,0:0:0:0:
256,192,163309,1,8,0:0:0:0:
256,192,163384,1,0,0:0:0:0:
256,192,163534,1,0,0:0:0:0:
256,192,163609,1,0,0:0:0:0:
256,192,163684,1,0,0:0:0:0:
256,192,163834,1,12,0:0:0:0:
256,192,163984,1,0,0:0:0:0:
256,192,164059,1,0,0:0:0:0:
256,192,164134,1,8,0:0:0:0:
256,192,164284,1,8,0:0:0:0:
256,192,164434,1,0,0:0:0:0:
256,192,164584,1,8,0:0:0:0:
256,192,164659,1,0,0:0:0:0:
256,192,164734,1,8,0:0:0:0:
256,192,164809,1,8,0:0:0:0:
256,192,164884,1,0,0:0:0:0:
256,192,165034,1,8,0:0:0:0:
256,192,165184,1,0,0:0:0:0:
256,192,165259,1,8,0:0:0:0:
256,192,165334,1,0,0:0:0:0:
256,192,165484,1,8,0:0:0:0:
256,192,165634,1,0,0:0:0:0:
256,192,165784,1,8,0:0:0:0:
256,192,165859,1,0,0:0:0:0:
256,192,165934,1,8,0:0:0:0:
256,192,166009,1,8,0:0:0:0:
256,192,166084,1,0,0:0:0:0:
256,192,166234,1,8,0:0:0:0:
256,192,166309,1,8,0:0:0:0:
256,192,166384,1,8,0:0:0:0:
256,192,166534,1,0,0:0:0:0:
256,192,166684,1,8,0:0:0:0:
256,192,166759,1,8,0:0:0:0:
256,192,166834,1,8,0:0:0:0:
256,192,166984,1,0,0:0:0:0:
256,192,167134,1,8,0:0:0:0:
256,192,167209,1,8,0:0:0:0:
256,192,167284,1,0,0:0:0:0:
256,192,167434,1,0,0:0:0:0:
256,192,167509,1,0,0:0:0:0:
256,192,167584,1,8,0:0:0:0:
256,192,167659,1,0,0:0:0:0:
256,192,167734,1,8,0:0:0:0:
256,192,167809,1,8,0:0:0:0:
256,192,167884,1,8,0:0:0:0:
256,192,167959,1,0,0:0:0:0:
256,192,168034,1,8,0:0:0:0:
256,192,168109,1,8,0:0:0:0:
256,192,168184,1,0,0:0:0:0:
256,192,168259,1,8,0:0:0:0:
256,192,168334,1,8,0:0:0:0:
256,192,168409,1,8,0:0:0:0:
256,192,168484,1,0,0:0:0:0:
256,192,168634,1,4,0:0:0:0:
256,192,168784,1,4,0:0:0:0:
256,192,169084,1,4,0:0:0:0:
256,192,169234,1,4,0:0:0:0:
256,192,169834,1,4,0:0:0:0:
256,192,169984,1,8,0:0:0:0:
256,192,170134,1,0,0:0:0:0:
256,192,170209,1,0,0:0:0:0:
256,192,170284,1,8,0:0:0:0:
256,192,170434,1,0,0:0:0:0:
256,192,170584,1,8,0:0:0:0:
256,192,170659,1,8,0:0:0:0:
256,192,170734,1,0,0:0:0:0:
256,192,170884,1,8,0:0:0:0:
256,192,171034,1,0,0:0:0:0:
256,192,171184,1,8,0:0:0:0:
256,192,171334,1,0,0:0:0:0:
256,192,171409,1,0,0:0:0:0:
256,192,171484,1,8,0:0:0:0:
256,192,171559,1,0,0:0:0:0:
256,192,171634,1,8,0:0:0:0:
256,192,171709,1,8,0:0:0:0:
256,192,171784,1,0,0:0:0:0:
256,192,171934,1,8,0:0:0:0:
256,192,172009,1,8,0:0:0:0:
256,192,172084,1,0,0:0:0:0:
256,192,172234,1,12,0:0:0:0:
256,192,172384,1,0,0:0:0:0:
256,192,172534,1,12,0:0:0:0:
256,192,172684,1,0,0:0:0:0:
256,192,172834,1,12,0:0:0:0:
256,192,172984,1,12,0:0:0:0:
256,192,173134,1,0,0:0:0:0:
256,192,173284,1,12,0:0:0:0:
256,192,173584,1,8,0:0:0:0:
256,192,173734,1,8,0:0:0:0:
256,192,173884,1,0,0:0:0:0:
256,192,174034,1,8,0:0:0:0:
256,192,174184,1,8,0:0:0:0:
256,192,174334,1,8,0:0:0:0:
256,192,174484,1,0,0:0:0:0:
256,192,174634,1,8,0:0:0:0:
256,192,174709,1,0,0:0:0:0:
256,192,174784,1,0,0:0:0:0:
256,192,174859,1,0,0:0:0:0:
256,192,174934,1,8,0:0:0:0:
256,192,175009,1,0,0:0:0:0:
256,192,175084,1,0,0:0:0:0:
256,192,175159,1,0,0:0:0:0:
256,192,175234,1,8,0:0:0:0:
256,192,175309,1,0,0:0:0:0:
256,192,175384,1,0,0:0:0:0:
256,192,175459,1,0,0:0:0:0:
256,192,175534,1,8,0:0:0:0:
256,192,175609,1,0,0:0:0:0:
256,192,175684,1,0,0:0:0:0:
256,192,175759,1,0,0:0:0:0:
256,192,175834,1,8,0:0:0:0:
256,192,175909,1,8,0:0:0:0:
256,192,175984,1,0,0:0:0:0:
256,192,176059,1,0,0:0:0:0:
256,192,176134,1,8,0:0:0:0:
256,192,176209,1,8,0:0:0:0:
256,192,176284,1,0,0:0:0:0:
256,192,176359,1,0,0:0:0:0:
256,192,176434,1,8,0:0:0:0:
256,192,176509,1,8,0:0:0:0:
256,192,176584,1,0,0:0:0:0:
256,192,176659,1,0,0:0:0:0:
256,192,176734,1,8,0:0:0:0:
256,192,176809,1,8,0:0:0:0:
256,192,176884,1,0,0:0:0:0:
256,192,176959,1,0,0:0:0:0:
256,192,177034,1,8,0:0:0:0:
256,192,177184,1,0,0:0:0:0:
256,192,177259,1,0,0:0:0:0:
256,192,177334,1,8,0:0:0:0:
256,192,177484,1,8,0:0:0:0:
256,192,177634,1,0,0:0:0:0:
256,192,177784,1,8,0:0:0:0:
256,192,177859,1,8,0:0:0:0:
256,192,177934,1,0,0:0:0:0:
256,192,178084,1,8,0:0:0:0:
256,192,178234,1,8,0:0:0:0:
256,192,178309,1,0,0:0:0:0:
256,192,178384,1,8,0:0:0:0:
256,192,178459,1,8,0:0:0:0:
256,192,178534,1,0,0:0:0:0:
256,192,178609,1,0,0:0:0:0:
256,192,178684,1,8,0:0:0:0:
256,192,178759,1,0,0:0:0:0:
256,192,178834,1,8,0:0:0:0:
256,192,178909,1,8,0:0:0:0:
256,192,178984,1,0,0:0:0:0:
256,192,179059,1,0,0:0:0:0:
256,192,179134,1,8,0:0:0:0:
256,192,179284,1,8,0:0:0:0:
256,192,179434,1,4,0:0:0:0:
256,192,179584,1,8,0:0:0:0:
256,192,179659,1,8,0:0:0:0:
256,192,179734,1,0,0:0:0:0:
256,192,179884,1,8,0:0:0:0:
256,192,180034,1,0,0:0:0:0:
256,192,180184,1,8,0:0:0:0:
256,192,180259,1,8,0:0:0:0:
256,192,180334,1,0,0:0:0:0:
256,192,180484,1,8,0:0:0:0:
256,192,180634,1,0,0:0:0:0:
256,192,180784,1,8,0:0:0:0:
256,192,180859,1,0,0:0:0:0:
256,192,181009,1,0,0:0:0:0:
256,192,181084,1,8,0:0:0:0:
256,192,181234,1,0,0:0:0:0:
256,192,181384,1,8,0:0:0:0:
256,192,181459,1,0,0:0:0:0:
256,192,181534,1,8,0:0:0:0:
256,192,181609,1,8,0:0:0:0:
256,192,181684,1,0,0:0:0:0:
256,192,181834,1,12,0:0:0:0:
256,192,181984,1,0,0:0:0:0:
256,192,182134,1,12,0:0:0:0:
256,192,182284,1,0,0:0:0:0:
256,192,182434,1,12,0:0:0:0:
256,192,182584,1,12,0:0:0:0:
256,192,182734,1,0,0:0:0:0:
256,192,182884,1,12,0:0:0:0:
256,192,183184,1,8,0:0:0:0:
256,192,183259,1,0,0:0:0:0:
256,192,183334,1,8,0:0:0:0:
256,192,183409,1,8,0:0:0:0:
256,192,183484,1,0,0:0:0:0:
256,192,183559,1,0,0:0:0:0:
256,192,183634,1,8,0:0:0:0:
256,192,183709,1,8,0:0:0:0:
256,192,183784,1,0,0:0:0:0:
256,192,183859,1,0,0:0:0:0:
256,192,183934,1,8,0:0:0:0:
256,192,184009,1,8,0:0:0:0:
256,192,184084,1,8,0:0:0:0:
256,192,184159,1,0,0:0:0:0:
256,192,184234,1,8,0:0:0:0:
256,192,184309,1,0,0:0:0:0:
256,192,184384,1,0,0:0:0:0:
256,192,184459,1,0,0:0:0:0:
256,192,184534,1,8,0:0:0:0:
256,192,184609,1,0,0:0:0:0:
256,192,184684,1,0,0:0:0:0:
256,192,184759,1,0,0:0:0:0:
256,192,184834,1,8,0:0:0:0:
256,192,184909,1,0,0:0:0:0:
256,192,184984,1,0,0:0:0:0:
256,192,185059,1,0,0:0:0:0:
256,192,185134,1,8,0:0:0:0:
256,192,185209,1,0,0:0:0:0:
256,192,185284,1,0,0:0:0:0:
256,192,185359,1,0,0:0:0:0:
256,192,185434,1,8,0:0:0:0:
256,192,185509,1,8,0:0:0:0:
256,192,185584,1,0,0:0:0:0:
256,192,185659,1,0,0:0:0:0:
256,192,185734,1,8,0:0:0:0:
256,192,185809,1,8,0:0:0:0:
256,192,185884,1,0,0:0:0:0:
256,192,185959,1,0,0:0:0:0:
256,192,186034,1,8,0:0:0:0:
256,192,186109,1,8,0:0:0:0:
256,192,186184,1,0,0:0:0:0:
256,192,186259,1,0,0:0:0:0:
256,192,186334,1,8,0:0:0:0:
256,192,186409,1,8,0:0:0:0:
256,192,186484,1,0,0:0:0:0:
256,192,186559,1,0,0:0:0:0:
256,192,186634,1,8,0:0:0:0:
256,192,186784,1,0,0:0:0:0:
256,192,186859,1,0,0:0:0:0:
256,192,186934,1,8,0:0:0:0:
256,192,187084,1,8,0:0:0:0:
256,192,187234,1,0,0:0:0:0:
256,192,187384,1,8,0:0:0:0:
256,192,187459,1,8,0:0:0:0:
256,192,187534,1,0,0:0:0:0:
256,192,187684,1,8,0:0:0:0:
256,192,187834,1,8,0:0:0:0:
256,192,187909,1,8,0:0:0:0:
256,192,187984,1,0,0:0:0:0:
256,192,188059,1,0,0:0:0:0:
256,192,188134,1,8,0:0:0:0:
256,192,188209,1,0,0:0:0:0:
256,192,188284,1,0,0:0:0:0:
256,192,188359,1,0,0:0:0:0:
256,192,188434,1,8,0:0:0:0:
256,192,188509,1,8,0:0:0:0:
256,192,188584,1,0,0:0:0:0:
256,192,188659,1,0,0:0:0:0:
256,192,188734,1,8,0:0:0:0:
256,192,188809,1,8,0:0:0:0:
256,192,188884,1,8,0:0:0:0:
256,192,189034,1,4,0:0:0:0:
256,192,189334,1,4,0:0:0:0:
256,192,190084,1,12,0:0:0:0:
256,192,190384,1,12,0:0:0:0:
256,192,191434,1,12,0:0:0:0:
256,192,191584,1,0,0:0:0:0:
256,192,191659,1,0,0:0:0:0:
256,192,191734,1,0,0:0:0:0:
256,192,191884,1,0,0:0:0:0:
256,192,192034,1,8,0:0:0:0:
256,192,192109,1,8,0:0:0:0:
256,192,192184,1,0,0:0:0:0:
256,192,192259,1,0,0:0:0:0:
256,192,192334,1,8,0:0:0:0:
256,192,192484,1,8,0:0:0:0:
256,192,192634,1,0,0:0:0:0:
256,192,192709,1,0,0:0:0:0:
256,192,192784,1,8,0:0:0:0:
256,192,192859,1,8,0:0:0:0:
256,192,192934,1,8,0:0:0:0:
256,192,193009,1,8,0:0:0:0:
256,192,193084,1,0,0:0:0:0:
256,192,193159,1,0,0:0:0:0:
256,192,193234,1,8,0:0:0:0:
256,192,193309,1,8,0:0:0:0:
256,192,193384,1,8,0:0:0:0:
256,192,193459,1,8,0:0:0:0:
256,192,193534,1,0,0:0:0:0:
256,192,193609,1,0,0:0:0:0:
256,192,193684,1,0,0:0:0:0:
256,192,193834,1,4,0:0:0:0:
256,192,194134,1,4,0:0:0:0:
256,192,194884,1,12,0:0:0:0:
256,192,195184,1,12,0:0:0:0:
256,192,196234,1,8,0:0:0:0:
256,192,196309,1,8,0:0:0:0:
256,192,196384,1,0,0:0:0:0:
256,192,196459,1,0,0:0:0:0:
256,192,196534,1,8,0:0:0:0:
256,192,196609,1,8,0:0:0:0:
256,192,196684,1,0,0:0:0:0:
256,192,196759,1,0,0:0:0:0:
256,192,196834,1,8,0:0:0:0:
256,192,196909,1,8,0:0:0:0:
256,192,196984,1,0,0:0:0:0:
256,192,197059,1,0,0:0:0:0:
256,192,197134,1,8,0:0:0:0:
256,192,197284,1,4,0:0:0:0:
256,192,197584,1,8,0:0:0:0:
256,192,197659,1,0,0:0:0:0:
256,192,197734,1,8,0:0:0:0:
256,192,197809,1,8,0:0:0:0:
256,192,197884,1,0,0:0:0:0:
256,192,197959,1,0,0:0:0:0:
256,192,198034,1,8,0:0:0:0:
256,192,198109,1,0,0:0:0:0:
256,192,198184,1,0,0:0:0:0:
256,192,198259,1,0,0:0:0:0:
256,192,198334,1,8,0:0:0:0:
256,192,198409,1,8,0:0:0:0:
256,192,198484,1,8,0:0:0:0:
256,192,198634,1,4,0:0:0:0:
256,192,198784,1,8,0:0:0:0:
256,192,198934,1,0,0:0:0:0:
256,192,199009,1,0,0:0:0:0:
256,192,199084,1,8,0:0:0:0:
256,192,199234,1,0,0:0:0:0:
256,192,199384,1,8,0:0:0:0:
256,192,199459,1,0,0:0:0:0:
256,192,199534,1,8,0:0:0:0:
256,192,199684,1,8,0:0:0:0:
256,192,199834,1,0,0:0:0:0:
256,192,199984,1,8,0:0:0:0:
256,192,200059,1,8,0:0:0:0:
256,192,200134,1,0,0:0:0:0:
256,192,200284,1,8,0:0:0:0:
256,192,200434,1,0,0:0:0:0:
256,192,200509,1,0,0:0:0:0:
256,192,200584,1,8,0:0:0:0:
256,192,200659,1,8,0:0:0:0:
256,192,200734,1,0,0:0:0:0:
256,192,200884,1,8,0:0:0:0:
256,192,201034,1,0,0:0:0:0:
256,192,201109,1,0,0:0:0:0:
256,192,201184,1,8,0:0:0:0:
256,192,201259,1,0,0:0:0:0:
256,192,201334,1,0,0:0:0:0:
256,192,201409,1,0,0:0:0:0:
256,192,201484,1,8,0:0:0:0:
256,192,201559,1,0,0:0:0:0:
256,192,201634,1,0,0:0:0:0:
256,192,201709,1,0,0:0:0:0:
256,192,201784,1,8,0:0:0:0:
256,192,201859,1,8,0:0:0:0:
256,192,201934,1,0,0:0:0:0:
256,192,202009,1,0,0:0:0:0:
256,192,202084,1,8,0:0:0:0:
256,192,202234,1,0,0:0:0:0:
256,192,202384,1,8,0:0:0:0:
256,192,202459,1,8,0:0:0:0:
256,192,202534,1,8,0:0:0:0:
256,192,202684,1,0,0:0:0:0:
256,192,202834,1,8,0:0:0:0:
256,192,202909,1,8,0:0:0:0:
256,192,202984,1,0,0:0:0:0:
256,192,203059,1,8,0:0:0:0:
256,192,203134,1,0,0:0:0:0:
256,192,203209,1,0,0:0:0:0:
256,192,203284,1,8,0:0:0:0:
256,192,203359,1,8,0:0:0:0:
256,192,203434,1,0,0:0:0:0:
256,192,203584,1,8,0:0:0:0:
256,192,203734,1,0,0:0:0:0:
256,192,203809,1,0,0:0:0:0:
256,192,203884,1,8,0:0:0:0:
256,192,204034,1,0,0:0:0:0:
256,192,204184,1,8,0:0:0:0:
256,192,204259,1,0,0:0:0:0:
256,192,204334,1,8,0:0:0:0:
256,192,204409,1,8,0:0:0:0:
256,192,204484,1,0,0:0:0:0:
256,192,204634,1,8,0:0:0:0:
256,192,204709,1,8,0:0:0:0:
256,192,204784,1,0,0:0:0:0:
256,192,204859,1,0,0:0:0:0:
256,192,204934,1,8,0:0:0:0:
256,192,205084,1,8,0:0:0:0:
256,192,205234,1,0,0:0:0:0:
256,192,205384,1,8,0:0:0:0:
256,192,205459,1,0,0:0:0:0:
256,192,205534,1,8,0:0:0:0:
256,192,205609,1,8,0:0:0:0:
256,192,205684,1,8,0:0:0:0:
256,192,205834,1,0,0:0:0:0:
256,192,205909,1,0,0:0:0:0:
256,192,205984,1,8,0:0:0:0:
256,192,206059,1,0,0:0:0:0:
256,192,206134,1,0,0:0:0:0:
256,192,206209,1,0,0:0:0:0:
256,192,206284,1,8,0:0:0:0:
256,192,206359,1,0,0:0:0:0:
256,192,206434,1,0,0:0:0:0:
256,192,206509,1,0,0:0:0:0:
256,192,206584,1,8,0:0:0:0:
256,192,206659,1,8,0:0:0:0:
256,192,206734,1,8,0:0:0:0:
256,192,206884,1,0,0:0:0:0:
256,192,207034,1,12,0:0:0:0:
256,192,207184,1,12,0:0:0:0:
256,192,207484,1,12,0:0:0:0:
256,192,207634,1,12,0:0:0:0:
256,192,207784,1,0,0:0:0:0:
256,192,207934,1,12,0:0:0:0:
256,192,208234,1,4,0:0:0:0:
256,192,209434,1,8,0:0:0:0:
256,192,209509,1,0,0:0:0:0:
256,192,209584,1,8,0:0:0:0:
256,192,209659,1,0,0:0:0:0:
256,192,209734,1,8,0:0:0:0:
256,192,209809,1,0,0:0:0:0:
256,192,209884,1,8,0:0:0:0:
256,192,209959,1,0,0:0:0:0:
256,192,210034,1,8,0:0:0:0:
256,192,210109,1,8,0:0:0:0:
256,192,210184,1,0,0:0:0:0:
256,192,210259,1,0,0:0:0:0:
256,192,210334,1,8,0:0:0:0:
256,192,210409,1,8,0:0:0:0:
256,192,210484,1,0,0:0:0:0:
256,192,210559,1,0,0:0:0:0:
256,192,210634,1,8,0:0:0:0:
256,192,210709,1,0,0:0:0:0:
256,192,210784,1,8,0:0:0:0:
256,192,210859,1,0,0:0:0:0:
256,192,210934,1,8,0:0:0:0:
256,192,211009,1,0,0:0:0:0:
256,192,211084,1,8,0:0:0:0:
256,192,211159,1,0,0:0:0:0:
256,192,211234,1,8,0:0:0:0:
256,192,211309,1,8,0:0:0:0:
256,192,211384,1,0,0:0:0:0:
256,192,211459,1,8,0:0:0:0:
256,192,211534,1,0,0:0:0:0:
256,192,211609,1,0,0:0:0:0:
256,192,211684,1,8,0:0:0:0:
256,192,211759,1,0,0:0:0:0:
256,192,211834,1,8,0:0:0:0:
256,192,211909,1,0,0:0:0:0:
256,192,211984,1,0,0:0:0:0:
256,192,212059,1,0,0:0:0:0:
256,192,212134,1,8,0:0:0:0:
256,192,212209,1,0,0:0:0:0:
256,192,212284,1,0,0:0:0:0:
256,192,212359,1,0,0:0:0:0:
256,192,212434,1,8,0:0:0:0:
256,192,212509,1,0,0:0:0:0:
256,192,212584,1,0,0:0:0:0:
256,192,212659,1,0,0:0:0:0:
256,192,212734,1,8,0:0:0:0:
256,192,212884,1,0,0:0:0:0:
256,192,213034,1,8,0:0:0:0:
256,192,213109,1,8,0:0:0:0:
256,192,213184,1,0,0:0:0:0:
256,192,213259,1,0,0:0:0:0:
256,192,213334,1,8,0:0:0:0:
256,192,213409,1,0,0:0:0:0:
256,192,213484,1,8,0:0:0:0:
256,192,213559,1,8,0:0:0:0:
256,192,213634,1,0,0:0:0:0:
256,192,213709,1,0,0:0:0:0:
256,192,213784,1,8,0:0:0:0:
256,192,213859,1,0,0:0:0:0:
256,192,213934,1,8,0:0:0:0:
256,192,214009,1,8,0:0:0:0:
256,192,214084,1,8,0:0:0:0:
256,192,214159,1,0,0:0:0:0:
256,192,214234,1,8,0:0:0:0:
256,192,214309,1,8,0:0:0:0:
256,192,214384,1,0,0:0:0:0:
256,192,214459,1,8,0:0:0:0:
256,192,214534,1,0,0:0:0:0:
256,192,214609,1,0,0:0:0:0:
256,192,214684,1,8,0:0:0:0:
256,192,214759,1,0,0:0:0:0:
256,192,214834,1,8,0:0:0:0:
256,192,214909,1,8,0:0:0:0:
256,192,214984,1,0,0:0:0:0:
256,192,215059,1,0,0:0:0:0:
256,192,215134,1,8,0:0:0:0:
256,192,215209,1,8,0:0:0:0:
256,192,215284,1,0,0:0:0:0:
256,192,215359,1,0,0:0:0:0:
256,192,215434,1,8,0:0:0:0:
256,192,215509,1,8,0:0:0:0:
256,192,215584,1,8,0:0:0:0:
256,192,215659,1,0,0:0:0:0:
256,192,215734,1,0,0:0:0:0:
256,192,215809,1,0,0:0:0:0:
256,192,215884,1,8,0:0:0:0:
256,192,215959,1,8,0:0:0:0:
256,192,216034,1,8,0:0:0:0:
256,192,216109,1,0,0:0:0:0:
256,192,216184,1,0,0:0:0:0:
256,192,216259,1,0,0:0:0:0:
256,192,216334,1,8,0:0:0:0:
256,192,216409,1,8,0:0:0:0:
256,192,216484,1,8,0:0:0:0:
256,192,216559,1,0,0:0:0:0:
256,192,216634,1,8,0:0:0:0:
256,192,216709,1,8,0:0:0:0:
256,192,216784,1,0,0:0:0:0:
256,192,216859,1,0,0:0:0:0:
256,192,216934,1,8,0:0:0:0:
256,192,217009,1,8,0:0:0:0:
256,192,217084,1,0,0:0:0:0:
256,192,217159,1,0,0:0:0:0:
256,192,217234,1,8,0:0:0:0:
256,192,217309,1,8,0:0:0:0:
256,192,217384,1,0,0:0:0:0:
256,192,217459,1,8,0:0:0:0:
256,192,217534,1,0,0:0:0:0:
256,192,217609,1,0,0:0:0:0:
256,192,217684,1,8,0:0:0:0:
256,192,217759,1,0,0:0:0:0:
256,192,217834,1,8,0:0:0:0:
256,192,217909,1,8,0:0:0:0:
256,192,217984,1,8,0:0:0:0:
256,192,218059,1,8,0:0:0:0:
256,192,218134,1,0,0:0:0:0:
256,192,218209,1,0,0:0:0:0:
256,192,218284,1,8,0:0:0:0:
256,192,218359,1,8,0:0:0:0:
256,192,218434,1,0,0:0:0:0:
256,192,218509,1,0,0:0:0:0:
256,192,218584,1,0,0:0:0:0:
256,192,218659,1,0,0:0:0:0:
256,192,218734,1,8,0:0:0:0:
256,192,218809,1,8,0:0:0:0:
256,192,218884,1,0,0:0:0:0:
12,192,219034,2,0,L|512:192,1,498.75
256,192,220234,5,12,0:0:0:0:
256,192,220534,1,8,0:0:0:0:
256,192,220684,1,0,0:0:0:0:
256,192,220834,1,8,0:0:0:0:
256,192,221134,1,0,0:0:0:0:
256,192,221284,1,8,0:0:0:0:
256,192,221434,1,8,0:0:0:0:
256,192,221584,1,0,0:0:0:0:
256,192,221734,1,8,0:0:0:0:
256,192,222034,1,8,0:0:0:0:
256,192,222109,1,8,0:0:0:0:
256,192,222184,1,0,0:0:0:0:
256,192,222259,1,0,0:0:0:0:
256,192,222334,1,8,0:0:0:0:
256,192,222409,1,8,0:0:0:0:
256,192,222484,1,0,0:0:0:0:
256,192,222559,1,0,0:0:0:0:
256,192,222634,1,8,0:0:0:0:
256,192,222784,1,0,0:0:0:0:
256,192,222934,1,0,0:0:0:0:
256,192,223084,1,0,0:0:0:0:
256,192,223234,1,8,0:0:0:0:
256,192,223384,1,0,0:0:0:0:
256,192,223534,1,0,0:0:0:0:
256,192,223684,1,0,0:0:0:0:
256,192,223834,1,8,0:0:0:0:
256,192,223909,1,8,0:0:0:0:
256,192,223984,1,8,0:0:0:0:
256,192,224059,1,8,0:0:0:0:
256,192,224134,1,0,0:0:0:0:
256,192,224209,1,0,0:0:0:0:
256,192,224284,1,8,0:0:0:0:
256,192,224359,1,8,0:0:0:0:
256,192,224434,1,8,0:0:0:0:
256,192,224509,1,8,0:0:0:0:
256,192,224584,1,0,0:0:0:0:
256,192,224659,1,0,0:0:0:0:
256,192,224734,1,8,0:0:0:0:
256,192,224809,1,8,0:0:0:0:
256,192,224884,1,8,0:0:0:0:
256,192,224959,1,8,0:0:0:0:
256,192,225034,1,0,0:0:0:0:
256,192,225484,1,0,0:0:0:0:
256,192,225634,1,8,0:0:0:0:
256,192,225934,1,8,0:0:0:0:
256,192,226084,1,8,0:0:0:0:
256,192,226234,1,0,0:0:0:0:
256,192,226384,1,8,0:0:0:0:
256,192,226534,1,8,0:0:0:0:
256,192,226684,1,0,0:0:0:0:
256,192,226834,1,8,0:0:0:0:
256,192,226909,1,8,0:0:0:0:
256,192,226984,1,0,0:0:0:0:
256,192,227059,1,0,0:0:0:0:
256,192,227134,1,8,0:0:0:0:
256,192,227209,1,8,0:0:0:0:
256,192,227284,1,0,0:0:0:0:
256,192,227359,1,0,0:0:0:0:
256,192,227434,1,8,0:0:0:0:
256,192,227734,1,8,0:0:0:0:
256,192,227884,1,0,0:0:0:0:
256,192,228034,1,8,0:0:0:0:
256,192,228334,1,0,0:0:0:0:
256,192,228634,1,8,0:0:0:0:
256,192,228784,1,0,0:0:0:0:
256,192,228934,1,8,0:0:0:0:
256,192,229084,1,0,0:0:0:0:
256,192,229159,1,0,0:0:0:0:
256,192,229234,1,8,0:0:0:0:
256,192,229309,1,0,0:0:0:0:
256,192,229384,1,0,0:0:0:0:
256,192,229459,1,0,0:0:0:0:
256,192,229534,1,8,0:0:0:0:
256,192,229609,1,8,0:0:0:0:
256,192,229684,1,8,0:0:0:0:
256,192,229759,1,8,0:0:0:0:
256,192,229834,1,0,0:0:0:0:
256,192,229909,1,0,0:0:0:0:
256,192,229984,1,8,0:0:0:0:
256,192,230059,1,0,0:0:0:0:
256,192,230134,1,0,0:0:0:0:
256,192,230209,1,0,0:0:0:0:
256,192,230284,1,8,0:0:0:0:
256,192,230359,1,0,0:0:0:0:
256,192,230434,1,0,0:0:0:0:
256,192,230509,1,0,0:0:0:0:
256,192,230584,1,8,0:0:0:0:
256,192,230659,1,8,0:0:0:0:
256,192,230734,1,0,0:0:0:0:
256,192,230809,1,0,0:0:0:0:
256,192,230884,1,8,0:0:0:0:
256,192,230959,1,0,0:0:0:0:
256,192,231034,1,0,0:0:0:0:
256,192,231109,1,0,0:0:0:0:
256,192,231184,1,8,0:0:0:0:
256,192,231259,1,0,0:0:0:0:
256,192,231334,1,0,0:0:0:0:
256,192,231409,1,0,0:0:0:0:
256,192,231484,1,8,0:0:0:0:
256,192,231559,1,0,0:0:0:0:
256,192,231634,1,0,0:0:0:0:
256,192,231709,1,0,0:0:0:0:
256,192,231784,1,8,0:0:0:0:
256,192,231859,1,8,0:0:0:0:
256,192,231934,1,0,0:0:0:0:
256,192,232009,1,0,0:0:0:0:
256,192,232084,1,8,0:0:0:0:
256,192,232159,1,0,0:0:0:0:
256,192,232234,1,8,0:0:0:0:
256,192,232309,1,8,0:0:0:0:
256,192,232384,1,0,0:0:0:0:
256,192,232459,1,0,0:0:0:0:
256,192,232534,1,8,0:0:0:0:
256,192,232609,1,0,0:0:0:0:
256,192,232684,1,8,0:0:0:0:
256,192,232759,1,0,0:0:0:0:
256,192,232834,1,8,0:0:0:0:
256,192,232909,1,8,0:0:0:0:
256,192,232984,1,0,0:0:0:0:
256,192,233059,1,0,0:0:0:0:
256,192,233134,1,8,0:0:0:0:
256,192,233209,1,8,0:0:0:0:
256,192,233284,1,0,0:0:0:0:
256,192,233359,1,8,0:0:0:0:
256,192,233434,1,0,0:0:0:0:
256,192,233584,1,0,0:0:0:0:
256,192,233734,1,8,0:0:0:0:
256,192,233809,1,8,0:0:0:0:
256,192,233884,1,0,0:0:0:0:
256,192,233959,1,0,0:0:0:0:
256,192,234034,1,8,0:0:0:0:
256,192,234109,1,8,0:0:0:0:
256,192,234184,1,8,0:0:0:0:
256,192,234259,1,0,0:0:0:0:
256,192,234334,1,8,0:0:0:0:
256,192,234409,1,8,0:0:0:0:
256,192,234484,1,8,0:0:0:0:
256,192,234559,1,8,0:0:0:0:
256,192,234634,1,0,0:0:0:0:
256,192,234709,1,0,0:0:0:0:
256,192,234784,1,8,0:0:0:0:
256,192,234859,1,0,0:0:0:0:
256,192,234934,1,0,0:0:0:0:
256,192,235009,1,0,0:0:0:0:
256,192,235084,1,8,0:0:0:0:
256,192,235159,1,0,0:0:0:0:
256,192,235234,1,0,0:0:0:0:
256,192,235309,1,0,0:0:0:0:
256,192,235384,1,8,0:0:0:0:
256,192,235459,1,0,0:0:0:0:
256,192,235534,1,0,0:0:0:0:
256,192,235609,1,0,0:0:0:0:
256,192,235684,1,8,0:0:0:0:
256,192,235759,1,8,0:0:0:0:
256,192,235834,1,0,0:0:0:0:
256,192,235909,1,0,0:0:0:0:
256,192,235984,1,8,0:0:0:0:
256,192,236059,1,8,0:0:0:0:
256,192,236134,1,0,0:0:0:0:
256,192,236209,1,0,0:0:0:0:
256,192,236284,1,8,0:0:0:0:
256,192,236359,1,0,0:0:0:0:
256,192,236434,1,8,0:0:0:0:
256,192,236509,1,8,0:0:0:0:
256,192,236584,1,0,0:0:0:0:
256,192,236659,1,0,0:0:0:0:
256,192,236734,1,8,0:0:0:0:
256,192,236809,1,8,0:0:0:0:
256,192,236884,1,8,0:0:0:0:
256,192,236959,1,0,0:0:0:0:
256,192,237034,1,8,0:0:0:0:
256,192,237109,1,0,0:0:0:0:
256,192,237184,1,0,0:0:0:0:
256,192,237259,1,8,0:0:0:0:
256,192,237334,1,8,0:0:0:0:
256,192,237409,1,0,0:0:0:0:
256,192,237484,1,8,0:0:0:0:
256,192,237559,1,0,0:0:0:0:
256,192,237634,1,8,0:0:0:0:
256,192,237709,1,8,0:0:0:0:
256,192,237784,1,0,0:0:0:0:
256,192,237859,1,8,0:0:0:0:
256,192,237934,1,8,0:0:0:0:
256,192,238009,1,0,0:0:0:0:
256,192,238084,1,8,0:0:0:0:
256,192,238159,1,0,0:0:0:0:
256,192,238234,1,8,0:0:0:0:
256,192,238309,1,8,0:0:0:0:
256,192,238384,1,8,0:0:0:0:
256,192,238459,1,8,0:0:0:0:
256,192,238534,1,0,0:0:0:0:
256,192,238609,1,0,0:0:0:0:
256,192,238684,1,8,0:0:0:0:
256,192,238759,1,0,0:0:0:0:
256,192,238834,1,8,0:0:0:0:
256,192,238909,1,8,0:0:0:0:
256,192,238984,1,0,0:0:0:0:
256,192,239059,1,0,0:0:0:0:
256,192,239134,1,8,0:0:0:0:
256,192,239209,1,8,0:0:0:0:
256,192,239284,1,0,0:0:0:0:
256,192,239434,1,4,0:0:0:0:
256,192,239734,1,0,0:0:0:0:
256,192,239884,1,8,0:0:0:0:
256,192,239959,1,8,0:0:0:0:
256,192,240034,1,0,0:0:0:0:
256,192,240184,1,8,0:0:0:0:
256,192,240334,1,0,0:0:0:0:
256,192,240409,1,0,0:0:0:0:
256,192,240484,1,8,0:0:0:0:
256,192,240559,1,8,0:0:0:0:
256,192,240634,1,0,0:0:0:0:
256,192,240784,1,8,0:0:0:0:
256,192,240934,1,8,0:0:0:0:
256,192,241084,1,0,0:0:0:0:
256,192,241159,1,0,0:0:0:0:
256,192,241234,1,8,0:0:0:0:
256,192,241384,1,0,0:0:0:0:
256,192,241534,1,8,0:0:0:0:
256,192,241609,1,8,0:0:0:0:
256,192,241684,1,8,0:0:0:0:
256,192,241759,1,8,0:0:0:0:
256,192,241834,1,0,0:0:0:0:
256,192,241984,1,8,0:0:0:0:
256,192,242134,1,8,0:0:0:0:
256,192,242284,1,0,0:0:0:0:
256,192,242434,1,8,0:0:0:0:
256,192,242584,1,0,0:0:0:0:
256,192,242659,1,0,0:0:0:0:
256,192,242734,1,0,0:0:0:0:
256,192,242884,1,8,0:0:0:0:
256,192,242959,1,8,0:0:0:0:
256,192,243034,1,0,0:0:0:0:
256,192,243184,1,8,0:0:0:0:
256,192,243334,1,0,0:0:0:0:
256,192,243484,1,8,0:0:0:0:
256,192,243559,1,0,0:0:0:0:
256,192,243634,1,8,0:0:0:0:
256,192,243709,1,8,0:0:0:0:
256,192,243784,1,0,0:0:0:0:
256,192,243934,1,8,0:0:0:0:
256,192,244009,1,8,0:0:0:0:
256,192,244084,1,0,0:0:0:0:
256,192,244234,1,4,0:0:0:0:
256,192,244384,1,8,0:0:0:0:
256,192,244534,1,0,0:0:0:0:
256,192,244609,1,0,0:0:0:0:
256,192,244684,1,8,0:0:0:0:
256,192,244834,1,0,0:0:0:0:
256,192,244984,1,8,0:0:0:0:
256,192,245134,1,8,0:0:0:0:
256,192,245284,1,0,0:0:0:0:
256,192,245434,1,8,0:0:0:0:
256,192,245509,1,8,0:0:0:0:
256,192,245584,1,0,0:0:0:0:
256,192,245734,1,8,0:0:0:0:
256,192,245884,1,8,0:0:0:0:
256,192,246034,1,0,0:0:0:0:
256,192,246184,1,8,0:0:0:0:
256,192,246259,1,0,0:0:0:0:
256,192,246334,1,8,0:0:0:0:
256,192,246409,1,8,0:0:0:0:
256,192,246484,1,8,0:0:0:0:
256,192,246559,1,8,0:0:0:0:
256,192,246634,1,0,0:0:0:0:
256,192,246784,1,8,0:0:0:0:
256,192,246859,1,8,0:0:0:0:
256,192,246934,1,0,0:0:0:0:
256,192,247084,1,8,0:0:0:0:
256,192,247234,1,0,0:0:0:0:
256,192,247384,1,8,0:0:0:0:
256,192,247459,1,8,0:0:0:0:
256,192,247534,1,0,0:0:0:0:
256,192,247684,1,8,0:0:0:0:
256,192,247834,1,8,0:0:0:0:
256,192,247909,1,0,0:0:0:0:
256,192,247984,1,0,0:0:0:0:
256,192,248059,1,0,0:0:0:0:
256,192,248134,1,8,0:0:0:0:
256,192,248209,1,0,0:0:0:0:
256,192,248284,1,0,0:0:0:0:
256,192,248359,1,0,0:0:0:0:
256,192,248434,1,8,0:0:0:0:
256,192,248509,1,8,0:0:0:0:
256,192,248584,1,0,0:0:0:0:
256,192,248659,1,0,0:0:0:0:
256,192,248734,1,8,0:0:0:0:
256,192,248884,1,8,0:0:0:0:
256,192,249034,1,0,0:0:0:0:
256,192,249109,1,0,0:0:0:0:
256,192,249184,1,8,0:0:0:0:
256,192,249259,1,0,0:0:0:0:
256,192,249334,1,0,0:0:0:0:
256,192,249409,1,0,0:0:0:0:
256,192,249484,1,8,0:0:0:0:
256,192,249559,1,0,0:0:0:0:
256,192,249634,1,0,0:0:0:0:
256,192,249709,1,0,0:0:0:0:
256,192,249784,1,8,0:0:0:0:
256,192,249859,1,8,0:0:0:0:
256,192,249934,1,0,0:0:0:0:
256,192,250009,1,0,0:0:0:0:
256,192,250084,1,8,0:0:0:0:
256,192,250159,1,0,0:0:0:0:
256,192,250234,1,0,0:0:0:0:
256,192,250309,1,0,0:0:0:0:
256,192,250384,1,8,0:0:0:0:
256,192,250459,1,0,0:0:0:0:
256,192,250534,1,0,0:0:0:0:
256,192,250609,1,0,0:0:0:0:
256,192,250684,1,8,0:0:0:0:
256,192,250759,1,0,0:0:0:0:
256,192,250834,1,0,0:0:0:0:
256,192,250909,1,0,0:0:0:0:
256,192,250984,1,8,0:0:0:0:
256,192,251059,1,8,0:0:0:0:
256,192,251134,1,0,0:0:0:0:
256,192,251209,1,0,0:0:0:0:
256,192,251284,1,8,0:0:0:0:
256,192,251359,1,0,0:0:0:0:
256,192,251434,1,0,0:0:0:0:
256,192,251509,1,0,0:0:0:0:
256,192,251584,1,8,0:0:0:0:
256,192,251659,1,0,0:0:0:0:
256,192,251734,1,0,0:0:0:0:
256,192,251809,1,0,0:0:0:0:
256,192,251884,1,8,0:0:0:0:
256,192,251959,1,0,0:0:0:0:
256,192,252034,1,0,0:0:0:0:
256,192,252109,1,0,0:0:0:0:
256,192,252184,1,8,0:0:0:0:
256,192,252259,1,8,0:0:0:0:
256,192,252334,1,0,0:0:0:0:
256,192,252409,1,0,0:0:0:0:
256,192,252484,1,8,0:0:0:0:
256,192,252559,1,0,0:0:0:0:
256,192,252634,1,0,0:0:0:0:
256,192,252709,1,0,0:0:0:0:
256,192,252784,1,8,0:0:0:0:
256,192,252859,1,0,0:0:0:0:
256,192,252934,1,0,0:0:0:0:
256,192,253009,1,0,0:0:0:0:
256,192,253084,1,8,0:0:0:0:
256,192,253159,1,0,0:0:0:0:
256,192,253234,1,0,0:0:0:0:
256,192,253309,1,0,0:0:0:0:
256,192,253384,1,8,0:0:0:0:
256,192,253459,1,0,0:0:0:0:
256,192,253534,1,8,0:0:0:0:
256,192,253609,1,8,0:0:0:0:
256,192,253684,1,8,0:0:0:0:
256,192,253759,1,0,0:0:0:0:
256,192,253834,1,8,0:0:0:0:
256,192,253909,1,8,0:0:0:0:
256,192,253984,1,0,0:0:0:0:
256,192,254059,1,8,0:0:0:0:
256,192,254134,1,0,0:0:0:0:
256,192,254209,1,0,0:0:0:0:
256,192,254284,1,8,0:0:0:0:
256,192,254359,1,0,0:0:0:0:
256,192,254434,1,8,0:0:0:0:
256,192,254509,1,8,0:0:0:0:
256,192,254584,1,0,0:0:0:0:
256,192,254659,1,8,0:0:0:0:
256,192,254734,1,0,0:0:0:0:
256,192,254809,1,0,0:0:0:0:
256,192,254884,1,8,0:0:0:0:
256,192,254959,1,0,0:0:0:0:
256,192,255034,1,8,0:0:0:0:
256,192,255109,1,8,0:0:0:0:
256,192,255184,1,0,0:0:0:0:
256,192,255259,1,0,0:0:0:0:
256,192,255334,1,8,0:0:0:0:
256,192,255409,1,8,0:0:0:0:
256,192,255484,1,0,0:0:0:0:
256,192,255559,1,0,0:0:0:0:
256,192,255634,1,8,0:0:0:0:
256,192,255709,1,0,0:0:0:0:
256,192,255784,1,0,0:0:0:0:
256,192,255859,1,8,0:0:0:0:
256,192,255934,1,0,0:0:0:0:
256,192,256009,1,0,0:0:0:0:
256,192,256084,1,8,0:0:0:0:
256,192,256159,1,0,0:0:0:0:
256,192,256234,1,8,0:0:0:0:
256,192,256309,1,8,0:0:0:0:
256,192,256384,1,8,0:0:0:0:
256,192,256459,1,8,0:0:0:0:
256,192,256534,1,0,0:0:0:0:
256,192,256609,1,0,0:0:0:0:
256,192,256684,1,8,0:0:0:0:
256,192,256759,1,0,0:0:0:0:
256,192,256834,1,8,0:0:0:0:
256,192,256909,1,8,0:0:0:0:
256,192,256984,1,0,0:0:0:0:
256,192,257059,1,0,0:0:0:0:
256,192,257134,1,8,0:0:0:0:
256,192,257209,1,0,0:0:0:0:
256,192,257284,1,0,0:0:0:0:
256,192,257359,1,0,0:0:0:0:
256,192,257434,1,8,0:0:0:0:
256,192,257509,1,8,0:0:0:0:
256,192,257584,1,0,0:0:0:0:
256,192,257659,1,0,0:0:0:0:
256,192,257734,1,8,0:0:0:0:
256,192,257809,1,8,0:0:0:0:
256,192,257884,1,0,0:0:0:0:
256,192,257959,1,0,0:0:0:0:
256,192,258034,1,8,0:0:0:0:
256,192,258109,1,0,0:0:0:0:
256,192,258184,1,0,0:0:0:0:
256,192,258259,1,0,0:0:0:0:
256,192,258334,1,8,0:0:0:0:
256,192,258634,1,4,0:0:0:0:
256,192,259534,1,12,0:0:0:0:
256,192,260134,1,4,0:0:0:0:
256,192,261034,1,12,0:0:0:0:
256,192,263434,1,12,0:0:0:0:
256,192,263734,1,0,0:0:0:0:
256,192,263884,1,8,0:0:0:0:
256,192,264184,1,8,0:0:0:0:
256,192,264334,1,0,0:0:0:0:
256,192,264634,1,0,0:0:0:0:
256,192,264784,1,0,0:0:0:0:
256,192,264934,1,8,0:0:0:0:
256,192,265234,1,0,0:0:0:0:
256,192,265534,1,8,0:0:0:0:
256,192,265684,1,8,0:0:0:0:
256,192,265834,1,0,0:0:0:0:
256,192,265984,1,8,0:0:0:0:
256,192,266134,1,0,0:0:0:0:
256,192,266434,1,8,0:0:0:0:
256,192,266734,1,0,0:0:0:0:
256,192,266884,1,8,0:0:0:0:
256,192,267184,1,8,0:0:0:0:
256,192,267484,1,0,0:0:0:0:
256,192,267634,1,8,0:0:0:0:
256,192,267784,1,0,0:0:0:0:
256,192,267934,1,8,0:0:0:0:
256,192,268084,1,8,0:0:0:0:
256,192,268234,1,0,0:0:0:0:
256,192,268534,1,8,0:0:0:0:
256,192,268684,1,0,0:0:0:0:
256,192,268984,1,0,0:0:0:0:
256,192,269134,1,8,0:0:0:0:
256,192,269434,1,0,0:0:0:0:
256,192,269584,1,0,0:0:0:0:
256,192,269734,1,8,0:0:0:0:
256,192,270034,1,0,0:0:0:0:
256,192,270334,1,8,0:0:0:0:
256,192,270484,1,8,0:0:0:0:
256,192,270634,1,0,0:0:0:0:
256,192,270934,1,8,0:0:0:0:
256,192,271084,1,0,0:0:0:0:
256,192,271384,1,0,0:0:0:0:
256,192,271534,1,8,0:0:0:0:
256,192,271834,1,0,0:0:0:0:
256,192,271984,1,0,0:0:0:0:
256,192,272134,1,8,0:0:0:0:
256,192,272434,1,0,0:0:0:0:
256,192,272734,1,8,0:0:0:0:
256,192,272884,1,8,0:0:0:0:
256,192,273034,1,0,0:0:0:0:
256,192,273334,1,0,0:0:0:0:
256,192,273484,1,8,0:0:0:0:
256,192,273634,1,0,0:0:0:0:
256,192,273934,1,8,0:0:0:0:
256,192,274084,1,0,0:0:0:0:
256,192,274234,1,8,0:0:0:0:
256,192,274534,1,8,0:0:0:0:
256,192,274834,1,0,0:0:0:0:
256,192,274984,1,0,0:0:0:0:
256,192,275134,1,8,0:0:0:0:
256,192,275434,1,0,0:0:0:0:
256,192,275734,1,8,0:0:0:0:
256,192,275884,1,0,0:0:0:0:
256,192,276184,1,0,0:0:0:0:
256,192,276334,1,8,0:0:0:0:
256,192,276484,1,0,0:0:0:0:
256,192,276634,1,8,0:0:0:0:
256,192,276934,1,8,0:0:0:0:
256,192,277084,1,0,0:0:0:0:
256,192,277384,1,0,0:0:0:0:
256,192,277534,1,8,0:0:0:0:
256,192,277684,1,8,0:0:0:0:
256,192,277834,1,0,0:0:0:0:
256,192,278134,1,8,0:0:0:0:
256,192,278284,1,0,0:0:0:0:
256,192,278584,1,0,0:0:0:0:
256,192,278734,1,8,0:0:0:0:
256,192,279034,1,0,0:0:0:0:
256,192,279334,1,8,0:0:0:0:
256,192,279484,1,8,0:0:0:0:
256,192,279634,1,0,0:0:0:0:
256,192,279934,1,8,0:0:0:0:
256,192,280234,1,0,0:0:0:0:
256,192,280534,1,8,0:0:0:0:
256,192,280834,1,0,0:0:0:0:
256,192,280984,1,8,0:0:0:0:
256,192,281284,1,0,0:0:0:0:
256,192,281434,1,8,0:0:0:0:
256,192,281584,1,0,0:0:0:0:
256,192,281734,1,0,0:0:0:0:
256,192,282034,1,8,0:0:0:0:
256,192,282334,1,0,0:0:0:0:
256,192,282634,1,12,0:0:0:0:
256,192,282934,1,0,0:0:0:0:
256,192,283084,1,8,0:0:0:0:
256,192,283384,1,0,0:0:0:0:
256,192,283534,1,8,0:0:0:0:
256,192,283684,1,0,0:0:0:0:
256,192,283834,1,8,0:0:0:0:
256,192,283984,1,8,0:0:0:0:
256,192,284134,1,0,0:0:0:0:
256,192,284434,1,0,0:0:0:0:
256,192,285034,1,0,0:0:0:0:
256,192,285334,1,0,0:0:0:0:
256,192,285484,1,8,0:0:0:0:
256,192,285784,1,0,0:0:0:0:
256,192,285934,1,8,0:0:0:0:
256,192,286084,1,8,0:0:0:0:
256,192,286234,1,0,0:0:0:0:
256,192,286384,1,8,0:0:0:0:
256,192,286534,1,0,0:0:0:0:
256,192,286834,1,0,0:0:0:0:
256,192,287434,1,0,0:0:0:0:
256,192,287584,1,0,0:0:0:0:
256,192,287734,1,8,0:0:0:0:
256,192,287884,1,8,0:0:0:0:
256,192,288184,1,0,0:0:0:0:
256,192,288334,1,8,0:0:0:0:
256,192,288484,1,0,0:0:0:0:
256,192,288634,1,8,0:0:0:0:
256,192,288934,1,8,0:0:0:0:
256,192,289084,1,0,0:0:0:0:
256,192,289534,1,8,0:0:0:0:
256,192,289834,1,0,0:0:0:0:
256,192,290134,1,8,0:0:0:0:
256,192,290284,1,8,0:0:0:0:
256,192,290584,1,8,0:0:0:0:
256,192,290734,1,8,0:0:0:0:
256,192,290884,1,0,0:0:0:0:
256,192,291034,1,8,0:0:0:0:
256,192,291184,1,0,0:0:0:0:
256,192,291334,1,8,0:0:0:0:
256,192,291484,1,0,0:0:0:0:
256,192,291934,1,8,0:0:0:0:
256,192,292234,1,0,0:0:0:0:
256,192,292534,1,8,0:0:0:0:
256,192,292684,1,0,0:0:0:0:
256,192,292984,1,0,0:0:0:0:
256,192,293134,1,8,0:0:0:0:
256,192,293434,1,0,0:0:0:0:
256,192,293584,1,0,0:0:0:0:
256,192,293734,1,8,0:0:0:0:
256,192,293884,1,0,0:0:0:0:
256,192,294034,1,8,0:0:0:0:
256,192,294334,1,0,0:0:0:0:
256,192,294634,1,0,0:0:0:0:
256,192,294934,1,8,0:0:0:0:
256,192,295084,1,0,0:0:0:0:
256,192,295384,1,0,0:0:0:0:
256,192,295534,1,8,0:0:0:0:
256,192,295834,1,0,0:0:0:0:
256,192,295984,1,0,0:0:0:0:
256,192,296134,1,8,0:0:0:0:
256,192,296284,1,0,0:0:0:0:
256,192,296434,1,0,0:0:0:0:
256,192,296734,1,8,0:0:0:0:
256,192,297034,1,0,0:0:0:0:
256,192,297334,1,8,0:0:0:0:
256,192,297484,1,0,0:0:0:0:
256,192,297784,1,8,0:0:0:0:
256,192,297934,1,8,0:0:0:0:
256,192,298084,1,0,0:0:0:0:
256,192,298234,1,8,0:0:0:0:
256,192,298534,1,8,0:0:0:0:
256,192,298684,1,0,0:0:0:0:
256,192,299134,1,8,0:0:0:0:
256,192,299434,1,0,0:0:0:0:
256,192,299734,1,0,0:0:0:0:
256,192,299884,1,0,0:0:0:0:
256,192,300034,1,8,0:0:0:0:
256,192,300184,1,0,0:0:0:0:
256,192,300484,1,0,0:0:0:0:
256,192,300784,1,0,0:0:0:0:
256,192,301084,1,0,0:0:0:0:
256,192,301234,1,8,0:0:0:0:
256,192,301534,1,0,0:0:0:0:
256,192,301834,1,12,0:0:0:0:
256,192,302284,1,8,0:0:0:0:
256,192,302734,1,12,0:0:0:0:
256,192,303034,1,4,0:0:0:0:
256,192,303484,1,12,0:0:0:0:
256,192,303934,1,0,0:0:0:0:
256,192,304234,1,12,0:0:0:0:
256,192,304534,1,8,0:0:0:0:
256,192,304684,1,8,0:0:0:0:
256,192,304834,1,0,0:0:0:0:
256,192,304984,1,0,0:0:0:0:
256,192,305134,1,12,0:0:0:0:
256,192,305584,1,0,0:0:0:0:
256,192,305734,1,8,0:0:0:0:
256,192,305884,1,0,0:0:0:0:
256,192,306034,1,4,0:0:0:0:
256,192,306334,1,12,0:0:0:0:
256,192,306634,1,12,0:0:0:0:
256,192,306934,1,8,0:0:0:0:
256,192,307084,1,0,0:0:0:0:
256,192,307234,1,8,0:0:0:0:
256,192,307384,1,8,0:0:0:0:
256,192,307534,1,4,0:0:0:0:
256,192,307834,1,8,0:0:0:0:
256,192,307984,1,0,0:0:0:0:
256,192,308134,1,8,0:0:0:0:
256,192,308284,1,0,0:0:0:0:
256,192,308434,1,12,0:0:0:0:
256,192,309034,1,4,0:0:0:0:
256,192,309334,1,8,0:0:0:0:
256,192,309484,1,8,0:0:0:0:
256,192,309634,1,8,0:0:0:0:
256,192,309784,1,0,0:0:0:0:
256,192,309934,1,12,0:0:0:0:
256,192,310384,1,0,0:0:0:0:
256,192,310534,1,8,0:0:0:0:
256,192,310684,1,0,0:0:0:0:
256,192,310834,1,4,0:0:0:0:
256,192,311134,1,12,0:0:0:0:
256,192,311434,1,12,0:0:0:0:
256,192,311734,1,8,0:0:0:0:
256,192,311884,1,0,0:0:0:0:
256,192,312034,1,8,0:0:0:0:
256,192,312184,1,0,0:0:0:0:
256,192,312334,1,12,0:0:0:0:
256,192,312634,1,0,0:0:0:0:
256,192,312834,1,8,0:0:0:0:
256,192,312934,1,8,0:0:0:0:
256,192,313034,1,8,0:0:0:0:
256,192,313134,1,8,0:0:0:0:
256,192,313234,1,0,0:0:0:0:
256,192,313334,1,0,0:0:0:0:
256,192,313434,1,8,0:0:0:0:
256,192,313534,1,8,0:0:0:0:
256,192,313634,1,8,0:0:0:0:
256,192,313734,1,8,0:0:0:0:
256,192,313834,1,0,0:0:0:0:
256,192,313909,1,0,0:0:0:0:
256,192,313984,1,0,0:0:0:0:
256,192,314134,1,8,0:0:0:0:
256,192,314209,1,0,0:0:0:0:
256,192,314284,1,0,0:0:0:0:
256,192,314434,1,0,0:0:0:0:
256,192,314509,1,0,0:0:0:0:
256,192,314584,1,0,0:0:0:0:
256,192,314734,1,8,0:0:0:0:
256,192,314809,1,0,0:0:0:0:
256,192,314884,1,0,0:0:0:0:
256,192,315034,1,0,0:0:0:0:
256,192,315109,1,0,0:0:0:0:
256,192,315184,1,0,0:0:0:0:
256,192,315334,1,8,0:0:0:0:
256,192,315409,1,0,0:0:0:0:
256,192,315484,1,0,0:0:0:0:
256,192,315634,1,0,0:0:0:0:
256,192,315784,1,0,0:0:0:0:
256,192,315934,1,8,0:0:0:0:
256,192,316084,1,0,0:0:0:0:
256,192,316234,1,0,0:0:0:0:
256,192,316309,1,0,0:0:0:0:
256,192,316384,1,0,0:0:0:0:
256,192,316534,1,8,0:0:0:0:
256,192,316609,1,0,0:0:0:0:
256,192,316684,1,0,0:0:0:0:
256,192,316834,1,0,0:0:0:0:
256,192,316909,1,0,0:0:0:0:
256,192,316984,1,0,0:0:0:0:
256,192,317134,1,8,0:0:0:0:
256,192,317209,1,0,0:0:0:0:
256,192,317284,1,0,0:0:0:0:
256,192,317434,1,0,0:0:0:0:
256,192,317509,1,0,0:0:0:0:
256,192,317584,1,0,0:0:0:0:
256,192,317734,1,8,0:0:0:0:
256,192,317809,1,0,0:0:0:0:
256,192,317884,1,0,0:0:0:0:
256,192,318034,2,4,L|480:192,1,218.75
256,192,318634,1,0,0:0:0:0:
256,192,318709,1,0,0:0:0:0:
256,192,318784,1,0,0:0:0:0:
256,192,318934,1,8,0:0:0:0:
256,192,319009,1,0,0:0:0:0:
256,192,319084,1,0,0:0:0:0:
256,192,319234,1,0,0:0:0:0:
256,192,319309,1,0,0:0:0:0:
256,192,319384,1,0,0:0:0:0:
256,192,319534,1,8,0:0:0:0:
256,192,319609,1,0,0:0:0:0:
256,192,319684,1,0,0:0:0:0:
256,192,319834,1,0,0:0:0:0:
256,192,319909,1,0,0:0:0:0:
256,192,319984,1,0,0:0:0:0:
256,192,320134,1,8,0:0:0:0:
256,192,320209,1,0,0:0:0:0:
256,192,320284,1,0,0:0:0:0:
256,192,320434,1,8,0:0:0:0:
256,192,320509,1,0,0:0:0:0:
256,192,320584,1,8,0:0:0:0:
256,192,320659,1,0,0:0:0:0:
256,192,320734,1,8,0:0:0:0:
256,192,320809,1,0,0:0:0:0:
256,192,320884,1,8,0:0:0:0:
256,192,320959,1,8,0:0:0:0:
256,192,321034,1,0,0:0:0:0:
256,192,321109,1,0,0:0:0:0:
256,192,321184,1,0,0:0:0:0:
256,192,321334,1,8,0:0:0:0:
256,192,321409,1,0,0:0:0:0:
256,192,321484,1,0,0:0:0:0:
256,192,321634,1,0,0:0:0:0:
256,192,321709,1,0,0:0:0:0:
256,192,321784,1,0,0:0:0:0:
256,192,321934,1,8,0:0:0:0:
256,192,322009,1,0,0:0:0:0:
256,192,322084,1,0,0:0:0:0:
256,192,322234,1,0,0:0:0:0:
256,192,322309,1,0,0:0:0:0:
256,192,322384,1,0,0:0:0:0:
256,192,322534,1,4,0:0:0:0:
256,192,322834,1,4,0:0:0:0:
256,192,322984,1,4,0:0:0:0:
256,192,323434,1,12,0:0:0:0:
256,192,323634,1,0,0:0:0:0:
256,192,323734,1,8,0:0:0:0:
256,192,323834,1,0,0:0:0:0:
256,192,323934,1,0,0:0:0:0:
256,192,324034,1,8,0:0:0:0:
256,192,324234,1,0,0:0:0:0:
256,192,324334,1,8,0:0:0:0:
256,192,324434,1,8,0:0:0:0:
256,192,324534,1,0,0:0:0:0:
256,192,324634,1,8,0:0:0:0:
256,192,324834,1,0,0:0:0:0:
256,192,324934,1,8,0:0:0:0:
256,192,325034,1,0,0:0:0:0:
256,192,325134,1,0,0:0:0:0:
256,192,325234,1,8,0:0:0:0:
256,192,325334,1,8,0:0:0:0:
256,192,325434,1,0,0:0:0:0:
256,192,325534,1,8,0:0:0:0:
256,192,325634,1,0,0:0:0:0:
256,192,325734,1,0,0:0:0:0:
256,192,325834,1,8,0:0:0:0:
256,192,325984,1,8,0:0:0:0:
256,192,326284,1,8,0:0:0:0:
256,192,326434,1,8,0:0:0:0:
256,192,326584,1,8,0:0:0:0:
256,192,326734,1,8,0:0:0:0:
256,192,327034,1,4,0:0:0:0:
256,192,327184,1,4,0:0:0:0:
256,192,327484,1,4,0:0:0:0:
256,192,327634,1,4,0:0:0:0:
256,192,327784,1,4,0:0:0:0:
256,192,328234,1,8,0:0:0:0:
256,192,328309,1,8,0:0:0:0:
256,192,328384,1,8,0:0:0:0:
256,192,328459,1,8,0:0:0:0:
256,192,328534,1,0,0:0:0:0:
256,192,328609,1,0,0:0:0:0:
256,192,328684,1,8,0:0:0:0:
256,192,328759,1,8,0:0:0:0:
256,192,328834,1,0,0:0:0:0:
256,192,328909,1,0,0:0:0:0:
256,192,328984,1,8,0:0:0:0:
256,192,329059,1,0,0:0:0:0:
256,192,329134,1,8,0:0:0:0:
256,192,329209,1,8,0:0:0:0:
256,192,329284,1,0,0:0:0:0:
256,192,329359,1,0,0:0:0:0:
256,192,329434,1,8,0:0:0:0:
256,192,329509,1,8,0:0:0:0:
256,192,329584,1,8,0:0:0:0:
256,192,329659,1,8,0:0:0:0:
256,192,329734,1,0,0:0:0:0:
256,192,329809,1,0,0:0:0:0:
256,192,329884,1,8,0:0:0:0:
256,192,329959,1,8,0:0:0:0:
256,192,330034,1,0,0:0:0:0:
256,192,330109,1,0,0:0:0:0:
256,192,330184,1,8,0:0:0:0:
256,192,330259,1,0,0:0:0:0:
256,192,330334,1,8,0:0:0:0:
256,192,330409,1,8,0:0:0:0:
256,192,330484,1,0,0:0:0:0:
256,192,330559,1,0,0:0:0:0:
256,192,330634,1,8,0:0:0:0:
256,192,330709,1,8,0:0:0:0:
256,192,330784,1,8,0:0:0:0:
256,192,330859,1,0,0:0:0:0:
256,192,330934,1,8,0:0:0:0:
256,192,331009,1,8,0:0:0:0:
256,192,331084,1,0,0:0:0:0:
256,192,331159,1,8,0:0:0:0:
256,192,331234,1,8,0:0:0:0:
256,192,331309,1,0,0:0:0:0:
256,192,331384,1,8,0:0:0:0:
256,192,331459,1,0,0:0:0:0:
256,192,331534,1,8,0:0:0:0:
256,192,331609,1,8,0:0:0:0:
256,192,331684,1,0,0:0:0:0:
256,192,331759,1,0,0:0:0:0:
256,192,331834,1,8,0:0:0:0:
256,192,331984,1,0,0:0:0:0:
256,192,332059,1,8,0:0:0:0:
256,192,332134,1,0,0:0:0:0:
256,192,332284,2,0,L|544:192,1,288.75
256,192,333034,1,8,0:0:0:0:
256,192,333109,1,8,0:0:0:0:
256,192,333184,1,0,0:0:0:0:
256,192,333259,1,0,0:0:0:0:
256,192,333334,1,0,0:0:0:0:
256,192,333409,1,0,0:0:0:0:
256,192,333484,1,8,0:0:0:0:
256,192,333559,1,8,0:0:0:0:
256,192,333634,1,0,0:0:0:0:
256,192,333709,1,0,0:0:0:0:
256,192,333784,1,0,0:0:0:0:
256,192,333859,1,0,0:0:0:0:
256,192,333934,1,8,0:0:0:0:
256,192,334009,1,8,0:0:0:0:
256,192,334084,1,0,0:0:0:0:
256,192,334159,1,0,0:0:0:0:
256,192,334234,1,8,0:0:0:0:
256,192,334309,1,0,0:0:0:0:
256,192,334384,1,8,0:0:0:0:
256,192,334459,1,0,0:0:0:0:
256,192,334534,1,8,0:0:0:0:
256,192,334609,1,0,0:0:0:0:
256,192,334684,1,8,0:0:0:0:
256,192,334759,1,0,0:0:0:0:
256,192,334834,1,8,0:0:0:0:
256,192,334909,1,8,0:0:0:0:
256,192,334984,1,0,0:0:0:0:
256,192,335059,1,0,0:0:0:0:
256,192,335134,1,8,0:0:0:0:
256,192,335209,1,8,0:0:0:0:
256,192,335284,1,8,0:0:0:0:
256,192,335359,1,8,0:0:0:0:
256,192,335434,1,0,0:0:0:0:
256,192,335584,1,8,0:0:0:0:
256,192,335659,1,8,0:0:0:0:
256,192,335734,1,0,0:0:0:0:
256,192,335884,1,8,0:0:0:0:
256,192,336034,1,0,0:0:0:0:
256,192,336184,1,8,0:0:0:0:
256,192,336334,1,8,0:0:0:0:
256,192,336484,1,0,0:0:0:0:
256,192,336634,1,8,0:0:0:0:
256,192,336709,1,0,0:0:0:0:
256,192,336784,1,8,0:0:0:0:
256,192,336859,1,0,0:0:0:0:
256,192,336934,1,0,0:0:0:0:
256,192,337009,1,0,0:0:0:0:
256,192,337084,1,8,0:0:0:0:
256,192,337159,1,0,0:0:0:0:
256,192,337234,1,0,0:0:0:0:
256,192,337309,1,0,0:0:0:0:
256,192,337384,1,8,0:0:0:0:
256,192,337459,1,0,0:0:0:0:
256,192,337534,1,8,0:0:0:0:
256,192,337609,1,8,0:0:0:0:
256,192,337684,1,0,0:0:0:0:
256,192,337834,1,8,0:0:0:0:
256,192,337909,1,8,0:0:0:0:
256,192,337984,1,0,0:0:0:0:
256,192,338059,1,0,0:0:0:0:
256,192,338134,1,8,0:0:0:0:
256,192,338209,1,0,0:0:0:0:
256,192,338284,1,8,0:0:0:0:
256,192,338359,1,8,0:0:0:0:
256,192,338434,1,0,0:0:0:0:
256,192,338509,1,0,0:0:0:0:
256,192,338584,1,8,0:0:0:0:
256,192,338659,1,0,0:0:0:0:
256,192,338734,1,8,0:0:0:0:
256,192,338809,1,8,0:0:0:0:
256,192,338884,1,0,0:0:0:0:
256,192,338959,1,0,0:0:0:0:
256,192,339034,1,8,0:0:0:0:
256,192,339109,1,8,0:0:0:0:
256,192,339184,1,8,0:0:0:0:
256,192,339259,1,0,0:0:0:0:
256,192,339334,1,8,0:0:0:0:
256,192,339409,1,0,0:0:0:0:
256,192,339484,1,8,0:0:0:0:
256,192,339559,1,8,0:0:0:0:
256,192,339634,1,0,0:0:0:0:
256,192,339709,1,8,0:0:0:0:
256,192,339784,1,8,0:0:0:0:
256,192,339859,1,0,0:0:0:0:
256,192,339934,1,8,0:0:0:0:
256,192,340009,1,0,0:0:0:0:
256,192,340084,1,0,0:0:0:0:
256,192,340159,1,0,0:0:0:0:
256,192,340234,1,8,0:0:0:0:
256,192,340309,1,8,0:0:0:0:
256,192,340384,1,0,0:0:0:0:
256,192,340459,1,0,0:0:0:0:
256,192,340534,1,8,0:0:0:0:
256,192,340609,1,8,0:0:0:0:
256,192,340684,1,8,0:0:0:0:
256,192,340759,1,0,0:0:0:0:
256,192,340834,1,8,0:0:0:0:
256,192,340909,1,8,0:0:0:0:
256,192,340984,1,0,0:0:0:0:
256,192,341059,1,0,0:0:0:0:
256,192,341134,1,8,0:0:0:0:
256,192,341209,1,8,0:0:0:0:
256,192,341284,1,8,0:0:0:0:
256,192,341359,1,0,0:0:0:0:
256,192,341434,1,8,0:0:0:0:
256,192,341584,1,8,0:0:0:0:
256,192,341734,1,0,0:0:0:0:
256,192,341884,1,8,0:0:0:0:
256,192,342184,1,8,0:0:0:0:
256,192,342334,1,8,0:0:0:0:
256,192,342484,1,0,0:0:0:0:
256,192,342634,1,8,0:0:0:0:
256,192,342709,1,0,0:0:0:0:
256,192,342784,1,8,0:0:0:0:
256,192,342859,1,0,0:0:0:0:
256,192,342934,1,0,0:0:0:0:
256,192,343009,1,0,0:0:0:0:
256,192,343084,1,8,0:0:0:0:
256,192,343234,1,0,0:0:0:0:
256,192,343384,1,8,0:0:0:0:
256,192,343459,1,0,0:0:0:0:
256,192,343534,1,8,0:0:0:0:
256,192,343609,1,8,0:0:0:0:
256,192,343684,1,0,0:0:0:0:
256,192,343834,1,8,0:0:0:0:
256,192,343909,1,8,0:0:0:0:
256,192,343984,1,0,0:0:0:0:
256,192,344059,1,0,0:0:0:0:
256,192,344134,1,0,0:0:0:0:
256,192,344209,1,0,0:0:0:0:
256,192,344284,1,8,0:0:0:0:
256,192,344359,1,0,0:0:0:0:
256,192,344434,1,8,0:0:0:0:
256,192,344509,1,8,0:0:0:0:
256,192,344584,1,0,0:0:0:0:
256,192,344659,1,8,0:0:0:0:
256,192,344734,1,8,0:0:0:0:
256,192,344809,1,0,0:0:0:0:
256,192,344884,1,8,0:0:0:0:
256,192,344959,1,0,0:0:0:0:
256,192,345034,1,8,0:0:0:0:
256,192,345109,1,0,0:0:0:0:
256,192,345184,1,0,0:0:0:0:
256,192,345259,1,8,0:0:0:0:
256,192,345334,1,8,0:0:0:0:
256,192,345409,1,0,0:0:0:0:
256,192,345484,1,8,0:0:0:0:
256,192,345559,1,0,0:0:0:0:
256,192,345634,1,8,0:0:0:0:
256,192,345709,1,0,0:0:0:0:
256,192,345784,1,0,0:0:0:0:
256,192,345859,1,8,0:0:0:0:
256,192,345934,1,8,0:0:0:0:
256,192,346009,1,8,0:0:0:0:
256,192,346084,1,0,0:0:0:0:
256,192,346159,1,0,0:0:0:0:
256,192,346234,1,8,0:0:0:0:
256,192,346309,1,0,0:0:0:0:
256,192,346384,1,0,0:0:0:0:
256,192,346459,1,0,0:0:0:0:
256,192,346534,1,8,0:0:0:0:
256,192,346609,1,0,0:0:0:0:
256,192,346684,1,0,0:0:0:0:
256,192,346759,1,0,0:0:0:0:
256,192,346834,1,8,0:0:0:0:
256,192,346909,1,0,0:0:0:0:
256,192,346984,1,0,0:0:0:0:
256,192,347059,1,0,0:0:0:0:
256,192,347134,1,8,0:0:0:0:
256,192,347434,1,8,0:0:0:0:
256,192,347509,1,8,0:0:0:0:
256,192,347584,1,0,0:0:0:0:
256,192,347659,1,0,0:0:0:0:
256,192,347734,1,8,0:0:0:0:
256,192,347809,1,0,0:0:0:0:
256,192,347884,1,8,0:0:0:0:
256,192,347959,1,0,0:0:0:0:
256,192,348034,1,8,0:0:0:0:
256,192,348109,1,8,0:0:0:0:
256,192,348184,1,0,0:0:0:0:
256,192,348259,1,0,0:0:0:0:
256,192,348334,1,8,0:0:0:0:
256,192,348409,1,8,0:0:0:0:
256,192,348484,1,8,0:0:0:0:
256,192,348559,1,0,0:0:0:0:
256,192,348634,1,8,0:0:0:0:
256,192,348709,1,0,0:0:0:0:
256,192,348784,1,8,0:0:0:0:
256,192,348859,1,8,0:0:0:0:
256,192,348934,1,0,0:0:0:0:
256,192,349009,1,0,0:0:0:0:
256,192,349084,1,8,0:0:0:0:
256,192,349159,1,0,0:0:0:0:
256,192,349234,1,8,0:0:0:0:
256,192,349309,1,8,0:0:0:0:
256,192,349384,1,0,0:0:0:0:
256,192,349459,1,0,0:0:0:0:
256,192,349534,1,8,0:0:0:0:
256,192,349609,1,8,0:0:0:0:
256,192,349684,1,0,0:0:0:0:
256,192,349759,1,0,0:0:0:0:
256,192,349834,1,8,0:0:0:0:
256,192,349909,1,8,0:0:0:0:
256,192,349984,1,0,0:0:0:0:
256,192,350059,1,8,0:0:0:0:
256,192,350134,1,8,0:0:0:0:
256,192,350209,1,0,0:0:0:0:
256,192,350284,1,8,0:0:0:0:
256,192,350359,1,0,0:0:0:0:
256,192,350434,1,8,0:0:0:0:
256,192,350509,1,8,0:0:0:0:
256,192,350584,1,0,0:0:0:0:
256,192,350659,1,8,0:0:0:0:
256,192,350734,1,8,0:0:0:0:
256,192,350809,1,0,0:0:0:0:
256,192,350884,1,8,0:0:0:0:
256,192,350959,1,0,0:0:0:0:
256,192,351034,1,8,0:0:0:0:
256,192,351109,1,8,0:0:0:0:
256,192,351184,1,8,0:0:0:0:
256,192,351259,1,0,0:0:0:0:
256,192,351334,1,8,0:0:0:0:
256,192,351409,1,8,0:0:0:0:
256,192,351484,1,8,0:0:0:0:
256,192,351559,1,8,0:0:0:0:
256,192,351634,1,0,0:0:0:0:
256,192,351709,1,0,0:0:0:0:
256,192,351784,1,8,0:0:0:0:
256,192,351859,1,0,0:0:0:0:
256,192,351934,1,0,0:0:0:0:
256,192,352009,1,0,0:0:0:0:
256,192,352084,1,8,0:0:0:0:
256,192,352234,1,4,0:0:0:0:
256,192,352384,1,8,0:0:0:0:
256,192,352534,1,4,0:0:0:0:
256,192,352834,1,0,0:0:0:0:
64,224,352984,2,4,B|64:192|96:96|128:0|160:0|192:0|224:96|256:160|288:96|320:0|352:0|384:0|416:96|448:224,1,630
256,192,354634,1,8,0:0:0:0:
256,192,354784,1,0,0:0:0:0:
256,192,354859,1,0,0:0:0:0:
256,192,354934,1,8,0:0:0:0:
256,192,355084,1,8,0:0:0:0:
256,192,355234,1,0,0:0:0:0:
256,192,355384,1,8,0:0:0:0:
256,192,355459,1,8,0:0:0:0:
256,192,355534,1,0,0:0:0:0:
256,192,355684,1,8,0:0:0:0:
256,192,355834,1,0,0:0:0:0:
256,192,355909,1,8,0:0:0:0:
256,192,355984,1,8,0:0:0:0:
256,192,356059,1,0,0:0:0:0:
256,192,356134,1,8,0:0:0:0:
256,192,356209,1,8,0:0:0:0:
256,192,356284,1,0,0:0:0:0:
256,192,356434,1,4,0:0:0:0:
256,192,356734,1,12,0:0:0:0:
256,192,357034,1,0,0:0:0:0:
256,192,357109,1,0,0:0:0:0:
256,192,357184,1,8,0:0:0:0:
256,192,357259,1,0,0:0:0:0:
256,192,357334,1,8,0:0:0:0:
256,192,357409,1,8,0:0:0:0:
256,192,357484,1,0,0:0:0:0:
256,192,357559,1,0,0:0:0:0:
256,192,357634,1,8,0:0:0:0:
256,192,357709,1,8,0:0:0:0:
256,192,357784,1,0,0:0:0:0:
256,192,357859,1,8,0:0:0:0:
256,192,357934,1,0,0:0:0:0:
256,192,358009,1,0,0:0:0:0:
256,192,358084,1,8,0:0:0:0:
256,192,358159,1,0,0:0:0:0:
256,192,358234,1,8,0:0:0:0:
256,192,358309,1,8,0:0:0:0:
256,192,358384,1,0,0:0:0:0:
256,192,358459,1,0,0:0:0:0:
256,192,358534,1,8,0:0:0:0:
256,192,358609,1,8,0:0:0:0:
256,192,358684,1,0,0:0:0:0:
256,192,358759,1,8,0:0:0:0:
256,192,358834,1,8,0:0:0:0:
256,192,358909,1,0,0:0:0:0:
256,192,358984,1,8,0:0:0:0:
256,192,359059,1,0,0:0:0:0:
256,192,359134,1,8,0:0:0:0:
256,192,359209,1,8,0:0:0:0:
256,192,359284,1,0,0:0:0:0:
256,192,359359,1,0,0:0:0:0:
256,192,359434,1,8,0:0:0:0:
256,192,359509,1,8,0:0:0:0:
256,192,359584,1,0,0:0:0:0:
256,192,359659,1,0,0:0:0:0:
256,192,359734,1,8,0:0:0:0:
256,192,359809,1,8,0:0:0:0:
256,192,359884,1,8,0:0:0:0:
256,192,359959,1,0,0:0:0:0:
256,192,360034,1,8,0:0:0:0:
256,192,360109,1,8,0:0:0:0:
256,192,360184,1,0,0:0:0:0:
256,192,360259,1,8,0:0:0:0:
256,192,360334,1,8,0:0:0:0:
256,192,360409,1,0,0:0:0:0:
256,192,360484,1,8,0:0:0:0:
256,192,360559,1,0,0:0:0:0:
256,192,360634,1,8,0:0:0:0:
256,192,360709,1,8,0:0:0:0:
256,192,360784,1,8,0:0:0:0:
256,192,360859,1,8,0:0:0:0:
256,192,360934,1,0,0:0:0:0:
256,192,361009,1,0,0:0:0:0:
256,192,361084,1,8,0:0:0:0:
256,192,361159,1,0,0:0:0:0:
256,192,361234,1,0,0:0:0:0:
256,192,361309,1,0,0:0:0:0:
256,192,361384,1,8,0:0:0:0:
256,192,361459,1,0,0:0:0:0:
256,192,361534,1,8,0:0:0:0:
256,192,361609,1,8,0:0:0:0:
256,192,361684,1,8,0:0:0:0:
256,192,361759,1,8,0:0:0:0:
256,192,361834,1,0,0:0:0:0:
256,192,361984,1,8,0:0:0:0:
256,192,362059,1,8,0:0:0:0:
256,192,362134,1,0,0:0:0:0:
256,192,362284,1,8,0:0:0:0:
256,192,362434,1,0,0:0:0:0:
256,192,362509,1,0,0:0:0:0:
256,192,362584,1,8,0:0:0:0:
256,192,362659,1,0,0:0:0:0:
256,192,362734,1,8,0:0:0:0:
256,192,362809,1,8,0:0:0:0:
256,192,362884,1,0,0:0:0:0:
256,192,362959,1,8,0:0:0:0:
256,192,363034,1,0,0:0:0:0:
256,192,363109,1,0,0:0:0:0:
256,192,363184,1,8,0:0:0:0:
256,192,363259,1,8,0:0:0:0:
256,192,363334,1,0,0:0:0:0:
256,192,363409,1,0,0:0:0:0:
256,192,363484,1,8,0:0:0:0:
256,192,363559,1,0,0:0:0:0:
256,192,363634,1,0,0:0:0:0:
256,192,363709,1,0,0:0:0:0:
256,192,363784,1,8,0:0:0:0:
256,192,363859,1,0,0:0:0:0:
256,192,363934,1,8,0:0:0:0:
256,192,364009,1,8,0:0:0:0:
256,192,364084,1,8,0:0:0:0:
256,192,364159,1,0,0:0:0:0:
256,192,364234,1,8,0:0:0:0:
256,192,364309,1,8,0:0:0:0:
256,192,364384,1,0,0:0:0:0:
256,192,364459,1,0,0:0:0:0:
256,192,364534,1,8,0:0:0:0:
256,192,364609,1,8,0:0:0:0:
256,192,364684,1,0,0:0:0:0:
256,192,364759,1,0,0:0:0:0:
256,192,364834,1,8,0:0:0:0:
256,192,364909,1,8,0:0:0:0:
256,192,364984,1,0,0:0:0:0:
256,192,365059,1,8,0:0:0:0:
256,192,365134,1,8,0:0:0:0:
256,192,365209,1,0,0:0:0:0:
256,192,365284,1,8,0:0:0:0:
256,192,365359,1,0,0:0:0:0:
256,192,365434,1,8,0:0:0:0:
256,192,365509,1,8,0:0:0:0:
256,192,365584,1,0,0:0:0:0:
256,192,365659,1,8,0:0:0:0:
256,192,365734,1,8,0:0:0:0:
256,192,365809,1,8,0:0:0:0:
256,192,365884,1,0,0:0:0:0:
256,192,365959,1,8,0:0:0:0:
256,192,366034,1,0,0:0:0:0:
256,192,366109,1,0,0:0:0:0:
256,192,366184,1,8,0:0:0:0:
256,192,366259,1,0,0:0:0:0:
256,192,366334,1,8,0:0:0:0:
256,192,366409,1,8,0:0:0:0:
256,192,366484,1,0,0:0:0:0:
256,192,366634,1,8,0:0:0:0:
256,192,366709,1,8,0:0:0:0:
256,192,366784,1,8,0:0:0:0:
256,192,366859,1,8,0:0:0:0:
256,192,366934,1,8,0:0:0:0:
256,192,367834,1,8,0:0:0:0:
256,192,367909,1,8,0:0:0:0:
256,192,367984,1,8,0:0:0:0:
256,192,368059,1,8,0:0:0:0:
256,192,368134,1,8,0:0:0:0:
256,192,369034,1,8,0:0:0:0:
256,192,369109,1,8,0:0:0:0:
256,192,369184,1,8,0:0:0:0:
256,192,369259,1,8,0:0:0:0:
256,192,369334,1,8,0:0:0:0:
256,192,370234,1,0,0:0:0:0:
256,192,370309,1,0,0:0:0:0:
256,192,370384,1,0,0:0:0:0:
256,192,370459,1,0,0:0:0:0:
256,192,370534,1,8,0:0:0:0:
256,192,370834,1,0,0:0:0:0:
256,192,370909,1,0,0:0:0:0:
256,192,370984,1,0,0:0:0:0:
256,192,371059,1,0,0:0:0:0:
256,192,371134,1,8,0:0:0:0:
256,192,371434,1,8,0:0:0:0:
256,192,371509,1,8,0:0:0:0:
256,192,371584,1,8,0:0:0:0:
256,192,371659,1,8,0:0:0:0:
256,192,371734,1,8,0:0:0:0:
256,192,372634,1,8,0:0:0:0:
256,192,372709,1,8,0:0:0:0:
256,192,372784,1,8,0:0:0:0:
256,192,372859,1,8,0:0:0:0:
256,192,372934,1,8,0:0:0:0:
256,192,373834,1,8,0:0:0:0:
256,192,373909,1,8,0:0:0:0:
256,192,373984,1,8,0:0:0:0:
256,192,374059,1,8,0:0:0:0:
256,192,374134,1,8,0:0:0:0:
256,192,375034,1,8,0:0:0:0:
256,192,375109,1,8,0:0:0:0:
256,192,375184,1,8,0:0:0:0:
256,192,375259,1,8,0:0:0:0:
256,192,375334,1,0,0:0:0:0:
256,192,375409,1,0,0:0:0:0:
256,192,375484,1,0,0:0:0:0:
256,192,375559,1,0,0:0:0:0:
256,192,375634,1,8,0:0:0:0:
256,192,375709,1,8,0:0:0:0:
256,192,375784,1,0,0:0:0:0:
256,192,375859,1,0,0:0:0:0:
256,192,375934,1,8,0:0:0:0:
256,192,376009,1,8,0:0:0:0:
256,192,376084,1,0,0:0:0:0:
256,192,376159,1,0,0:0:0:0:
256,192,376234,1,8,0:0:0:0:
256,192,376309,1,0,0:0:0:0:
256,192,376384,1,0,0:0:0:0:
256,192,376459,1,0,0:0:0:0:
256,192,376534,1,8,0:0:0:0:
256,192,376609,1,0,0:0:0:0:
256,192,376684,1,8,0:0:0:0:
256,192,376759,1,8,0:0:0:0:
256,192,376834,1,0,0:0:0:0:
256,192,376909,1,0,0:0:0:0:
256,192,376984,1,8,0:0:0:0:
256,192,377059,1,0,0:0:0:0:
256,192,377134,1,8,0:0:0:0:
256,192,377209,1,8,0:0:0:0:
256,192,377284,1,0,0:0:0:0:
256,192,377359,1,0,0:0:0:0:
256,192,377434,1,8,0:0:0:0:
256,192,377509,1,0,0:0:0:0:
256,192,377584,1,0,0:0:0:0:
256,192,377659,1,0,0:0:0:0:
256,192,377734,1,8,0:0:0:0:
256,192,377809,1,0,0:0:0:0:
256,192,377884,1,8,0:0:0:0:
256,192,377959,1,8,0:0:0:0:
256,192,378034,1,0,0:0:0:0:
256,192,378109,1,0,0:0:0:0:
256,192,378184,1,8,0:0:0:0:
256,192,378259,1,0,0:0:0:0:
256,192,378334,1,8,0:0:0:0:
256,192,378409,1,8,0:0:0:0:
256,192,378484,1,0,0:0:0:0:
256,192,378559,1,0,0:0:0:0:
256,192,378634,1,8,0:0:0:0:
256,192,378709,1,0,0:0:0:0:
256,192,378784,1,0,0:0:0:0:
256,192,378859,1,0,0:0:0:0:
256,192,378934,1,8,0:0:0:0:
256,192,379009,1,0,0:0:0:0:
256,192,379084,1,8,0:0:0:0:
256,192,379159,1,8,0:0:0:0:
256,192,379234,1,0,0:0:0:0:
256,192,379309,1,0,0:0:0:0:
256,192,379384,1,8,0:0:0:0:
256,192,379459,1,0,0:0:0:0:
256,192,379534,1,8,0:0:0:0:
256,192,379609,1,8,0:0:0:0:
256,192,379684,1,0,0:0:0:0:
256,192,379759,1,0,0:0:0:0:
256,192,379834,1,8,0:0:0:0:
256,192,379909,1,8,0:0:0:0:
256,192,379984,1,8,0:0:0:0:
256,192,380059,1,0,0:0:0:0:
256,192,380134,1,8,0:0:0:0:
256,192,380209,1,0,0:0:0:0:
256,192,380284,1,0,0:0:0:0:
256,192,380359,1,0,0:0:0:0:
256,192,380434,1,8,0:0:0:0:
256,192,380509,1,8,0:0:0:0:
256,192,380584,1,0,0:0:0:0:
256,192,380659,1,0,0:0:0:0:
256,192,380734,1,8,0:0:0:0:
256,192,380809,1,8,0:0:0:0:
256,192,380884,1,8,0:0:0:0:
256,192,381034,1,8,0:0:0:0:
256,192,381109,1,8,0:0:0:0:
256,192,381184,1,0,0:0:0:0:
256,192,381259,1,0,0:0:0:0:
256,192,381334,1,8,0:0:0:0:
256,192,381409,1,0,0:0:0:0:
256,192,381484,1,8,0:0:0:0:
256,192,381559,1,8,0:0:0:0:
256,192,381634,1,0,0:0:0:0:
256,192,381709,1,0,0:0:0:0:
256,192,381784,1,8,0:0:0:0:
256,192,381859,1,0,0:0:0:0:
256,192,381934,1,8,0:0:0:0:
256,192,382009,1,8,0:0:0:0:
256,192,382084,1,0,0:0:0:0:
256,192,382159,1,0,0:0:0:0:
256,192,382234,1,8,0:0:0:0:
256,192,382309,1,8,0:0:0:0:
256,192,382384,1,0,0:0:0:0:
256,192,382459,1,0,0:0:0:0:
256,192,382534,1,8,0:0:0:0:
256,192,382609,1,0,0:0:0:0:
256,192,382684,1,8,0:0:0:0:
256,192,382759,1,8,0:0:0:0:
256,192,382834,1,0,0:0:0:0:
256,192,382909,1,0,0:0:0:0:
256,192,382984,1,8,0:0:0:0:
256,192,383059,1,0,0:0:0:0:
256,192,383134,1,8,0:0:0:0:
256,192,383209,1,8,0:0:0:0:
256,192,383284,1,0,0:0:0:0:
256,192,383359,1,0,0:0:0:0:
256,192,383434,1,8,0:0:0:0:
256,192,383509,1,8,0:0:0:0:
256,192,383584,1,0,0:0:0:0:
256,192,383659,1,0,0:0:0:0:
256,192,383734,1,8,0:0:0:0:
256,192,383809,1,0,0:0:0:0:
256,192,383884,1,8,0:0:0:0:
256,192,383959,1,8,0:0:0:0:
256,192,384034,1,0,0:0:0:0:
256,192,384109,1,0,0:0:0:0:
256,192,384184,1,8,0:0:0:0:
256,192,384259,1,0,0:0:0:0:
256,192,384334,1,8,0:0:0:0:
256,192,384409,1,8,0:0:0:0:
256,192,384484,1,0,0:0:0:0:
256,192,384559,1,0,0:0:0:0:
256,192,384634,1,8,0:0:0:0:
256,192,384709,1,8,0:0:0:0:
256,192,384784,1,8,0:0:0:0:
256,192,384859,1,0,0:0:0:0:
256,192,384934,1,8,0:0:0:0:
256,192,385009,1,0,0:0:0:0:
256,192,385084,1,0,0:0:0:0:
256,192,385159,1,0,0:0:0:0:
256,192,385234,1,8,0:0:0:0:
256,192,385309,1,8,0:0:0:0:
256,192,385384,1,0,0:0:0:0:
256,192,385459,1,8,0:0:0:0:
256,192,385534,1,8,0:0:0:0:
256,192,385609,1,8,0:0:0:0:
256,192,385684,1,0,0:0:0:0:
256,192,385834,1,8,0:0:0:0:
256,192,385909,1,8,0:0:0:0:
256,192,385984,1,0,0:0:0:0:
256,192,386059,1,8,0:0:0:0:
256,192,386134,1,8,0:0:0:0:
256,192,386209,1,0,0:0:0:0:
256,192,386284,1,8,0:0:0:0:
256,192,386359,1,0,0:0:0:0:
256,192,386434,1,0,0:0:0:0:
256,192,386509,1,0,0:0:0:0:
256,192,386584,1,8,0:0:0:0:
256,192,386659,1,0,0:0:0:0:
256,192,386734,1,8,0:0:0:0:
256,192,386809,1,8,0:0:0:0:
256,192,386884,1,0,0:0:0:0:
256,192,386959,1,0,0:0:0:0:
256,192,387034,1,8,0:0:0:0:
256,192,387109,1,8,0:0:0:0:
256,192,387184,1,0,0:0:0:0:
256,192,387259,1,8,0:0:0:0:
256,192,387334,1,8,0:0:0:0:
256,192,387409,1,0,0:0:0:0:
256,192,387484,1,8,0:0:0:0:
256,192,387559,1,0,0:0:0:0:
256,192,387634,1,0,0:0:0:0:
256,192,387709,1,0,0:0:0:0:
256,192,387784,1,8,0:0:0:0:
256,192,387859,1,0,0:0:0:0:
256,192,387934,1,8,0:0:0:0:
256,192,388009,1,8,0:0:0:0:
256,192,388084,1,0,0:0:0:0:
256,192,388159,1,0,0:0:0:0:
256,192,388234,1,8,0:0:0:0:
256,192,388309,1,8,0:0:0:0:
256,192,388384,1,0,0:0:0:0:
256,192,388459,1,8,0:0:0:0:
256,192,388534,1,8,0:0:0:0:
256,192,388609,1,0,0:0:0:0:
256,192,388684,1,8,0:0:0:0:
256,192,388759,1,0,0:0:0:0:
256,192,388834,1,0,0:0:0:0:
256,192,388909,1,0,0:0:0:0:
256,192,388984,1,8,0:0:0:0:
256,192,389059,1,0,0:0:0:0:
256,192,389134,1,8,0:0:0:0:
256,192,389209,1,8,0:0:0:0:
256,192,389284,1,0,0:0:0:0:
256,192,389359,1,0,0:0:0:0:
256,192,389434,1,8,0:0:0:0:
256,192,389509,1,0,0:0:0:0:
256,192,389584,1,0,0:0:0:0:
256,192,389659,1,8,0:0:0:0:
256,192,389734,1,0,0:0:0:0:
256,192,389809,1,0,0:0:0:0:
256,192,389884,1,8,0:0:0:0:
256,192,389959,1,0,0:0:0:0:
256,192,390034,1,8,0:0:0:0:
256,192,390109,1,0,0:0:0:0:
256,192,390184,1,0,0:0:0:0:
256,192,390259,1,8,0:0:0:0:
256,192,390334,1,0,0:0:0:0:
256,192,390409,1,0,0:0:0:0:
256,192,390484,1,8,0:0:0:0:
256,192,390559,1,0,0:0:0:0:
256,192,390634,1,8,0:0:0:0:
256,192,390709,1,8,0:0:0:0:
256,192,390784,1,8,0:0:0:0:
256,192,390859,1,0,0:0:0:0:
256,192,390934,1,8,0:0:0:0:
256,192,391009,1,0,0:0:0:0:
256,192,391084,1,8,0:0:0:0:
256,192,391159,1,8,0:0:0:0:
256,192,391234,1,0,0:0:0:0:
256,192,391309,1,8,0:0:0:0:
256,192,391384,1,8,0:0:0:0:
256,192,391459,1,0,0:0:0:0:
256,192,391534,1,8,0:0:0:0:
256,192,391609,1,8,0:0:0:0:
256,192,391684,1,0,0:0:0:0:
256,192,391759,1,0,0:0:0:0:
256,192,391834,1,8,0:0:0:0:
256,192,391909,1,8,0:0:0:0:
256,192,391984,1,8,0:0:0:0:
256,192,392059,1,0,0:0:0:0:
256,192,392134,1,8,0:0:0:0:
256,192,392209,1,0,0:0:0:0:
256,192,392284,1,8,0:0:0:0:
256,192,392359,1,8,0:0:0:0:
256,192,392434,1,0,0:0:0:0:
256,192,392509,1,8,0:0:0:0:
256,192,392584,1,8,0:0:0:0:
256,192,392659,1,0,0:0:0:0:
256,192,392734,1,8,0:0:0:0:
256,192,392809,1,8,0:0:0:0:
256,192,392884,1,0,0:0:0:0:
256,192,392959,1,0,0:0:0:0:
256,192,393034,1,8,0:0:0:0:
256,192,393109,1,8,0:0:0:0:
256,192,393184,1,8,0:0:0:0:
256,192,393259,1,0,0:0:0:0:
256,192,393334,1,8,0:0:0:0:
256,192,393409,1,0,0:0:0:0:
256,192,393484,1,0,0:0:0:0:
256,192,393559,1,0,0:0:0:0:
256,192,393634,1,8,0:0:0:0:
256,192,393709,1,8,0:0:0:0:
256,192,393784,1,8,0:0:0:0:
256,192,393859,1,0,0:0:0:0:
256,192,393934,1,8,0:0:0:0:
256,192,394009,1,8,0:0:0:0:
256,192,394084,1,0,0:0:0:0:
256,192,394159,1,8,0:0:0:0:
256,192,394234,1,8,0:0:0:0:
256,192,394309,1,8,0:0:0:0:
256,192,394384,1,0,0:0:0:0:
256,192,394459,1,0,0:0:0:0:
256,192,394534,1,8,0:0:0:0:
256,192,394609,1,8,0:0:0:0:
256,192,394684,1,0,0:0:0:0:
256,192,394759,1,0,0:0:0:0:
256,192,394834,1,8,0:0:0:0:
256,192,394909,1,8,0:0:0:0:
256,192,394984,1,0,0:0:0:0:
256,192,395059,1,0,0:0:0:0:
256,192,395134,1,8,0:0:0:0:
256,192,395209,1,0,0:0:0:0:
256,192,395284,1,0,0:0:0:0:
256,192,395359,1,0,0:0:0:0:
256,192,395434,1,0,0:0:0:0:
256,192,395734,1,8,0:0:0:0:
256,192,395884,1,8,0:0:0:0:
256,192,396034,1,0,0:0:0:0:
256,192,396184,1,8,0:0:0:0:
256,192,396259,1,8,0:0:0:0:
256,192,396334,1,0,0:0:0:0:
256,192,396484,1,8,0:0:0:0:
256,192,396634,1,0,0:0:0:0:
256,192,396709,1,0,0:0:0:0:
256,192,396784,1,8,0:0:0:0:
256,192,396934,1,8,0:0:0:0:
256,192,397084,1,0,0:0:0:0:
256,192,397159,1,0,0:0:0:0:
256,192,397234,1,8,0:0:0:0:
256,192,397384,1,0,0:0:0:0:
256,192,397534,1,8,0:0:0:0:
256,192,397609,1,8,0:0:0:0:
256,192,397684,1,8,0:0:0:0:
256,192,397759,1,8,0:0:0:0:
256,192,397834,1,0,0:0:0:0:
256,192,397984,1,8,0:0:0:0:
256,192,398134,1,8,0:0:0:0:
256,192,398284,1,0,0:0:0:0:
256,192,398359,1,0,0:0:0:0:
256,192,398434,1,8,0:0:0:0:
256,192,398584,1,8,0:0:0:0:
256,192,398659,1,8,0:0:0:0:
256,192,398734,1,0,0:0:0:0:
256,192,398809,1,0,0:0:0:0:
256,192,398884,1,8,0:0:0:0:
256,192,399034,1,0,0:0:0:0:
256,192,399184,1,8,0:0:0:0:
256,192,399484,2,0,L|480:192,1,210
256,192,400234,1,0,0:0:0:0:
256,192,400384,1,8,0:0:0:0:
256,192,400459,1,8,0:0:0:0:
256,192,400534,1,8,0:0:0:0:
256,192,400684,1,8,0:0:0:0:
256,192,400834,1,0,0:0:0:0:
256,192,400909,1,8,0:0:0:0:
256,192,400984,1,8,0:0:0:0:
256,192,401059,1,0,0:0:0:0:
256,192,401134,1,8,0:0:0:0:
256,192,401284,1,0,0:0:0:0:
256,192,401434,1,8,0:0:0:0:
256,192,401509,1,0,0:0:0:0:
256,192,401584,1,8,0:0:0:0:
256,192,401659,1,8,0:0:0:0:
256,192,401734,1,0,0:0:0:0:
256,192,401809,1,0,0:0:0:0:
256,192,401884,1,8,0:0:0:0:
256,192,402034,1,8,0:0:0:0:
256,192,402184,1,0,0:0:0:0:
256,192,402259,1,0,0:0:0:0:
256,192,402334,1,8,0:0:0:0:
256,192,402409,1,8,0:0:0:0:
256,192,402484,1,8,0:0:0:0:
256,192,402559,1,8,0:0:0:0:
256,192,402634,1,0,0:0:0:0:
256,192,402784,1,8,0:0:0:0:
256,192,402934,1,0,0:0:0:0:
256,192,403009,1,0,0:0:0:0:
256,192,403084,1,8,0:0:0:0:
256,192,403234,1,0,0:0:0:0:
256,192,403384,1,8,0:0:0:0:
256,192,403459,1,8,0:0:0:0:
256,192,403534,1,0,0:0:0:0:
256,192,403684,1,8,0:0:0:0:
256,192,403834,1,0,0:0:0:0:
256,192,403909,1,0,0:0:0:0:
256,192,403984,1,8,0:0:0:0:
256,192,404059,1,8,0:0:0:0:
256,192,404134,1,8,0:0:0:0:
256,192,404209,1,8,0:0:0:0:
256,192,404284,1,0,0:0:0:0:
256,192,404359,1,0,0:0:0:0:
256,192,404434,1,8,0:0:0:0:
256,192,404509,1,8,0:0:0:0:
256,192,404584,1,8,0:0:0:0:
256,192,404659,1,8,0:0:0:0:
256,192,404734,1,0,0:0:0:0:
256,192,404809,1,0,0:0:0:0:
256,192,404884,1,0,0:0:0:0:
256,192,404959,1,0,0:0:0:0:
256,192,405034,1,8,0:0:0:0:
256,192,405109,1,8,0:0:0:0:
256,192,405184,1,0,0:0:0:0:
256,192,405259,1,0,0:0:0:0:
256,192,405334,1,8,0:0:0:0:
256,192,405409,1,0,0:0:0:0:
256,192,405484,1,8,0:0:0:0:
256,192,405559,1,8,0:0:0:0:
256,192,405634,1,8,0:0:0:0:
256,192,405709,1,0,0:0:0:0:
256,192,405784,1,8,0:0:0:0:
256,192,405859,1,0,0:0:0:0:
256,192,405934,1,8,0:0:0:0:
256,192,406009,1,8,0:0:0:0:
256,192,406084,1,8,0:0:0:0:
256,192,406159,1,0,0:0:0:0:
256,192,406234,1,8,0:0:0:0:
256,192,406309,1,8,0:0:0:0:
256,192,406384,1,0,0:0:0:0:
256,192,406459,1,8,0:0:0:0:
256,192,406534,1,8,0:0:0:0:
256,192,406609,1,0,0:0:0:0:
256,192,406684,1,8,0:0:0:0:
256,192,406759,1,0,0:0:0:0:
256,192,406834,1,8,0:0:0:0:
256,192,406909,1,8,0:0:0:0:
256,192,406984,1,0,0:0:0:0:
256,192,407134,1,8,0:0:0:0:
256,192,407434,1,8,0:0:0:0:
256,192,407584,1,0,0:0:0:0:
256,192,407659,1,0,0:0:0:0:
256,192,407734,1,8,0:0:0:0:
256,192,407884,1,8,0:0:0:0:
256,192,408034,1,0,0:0:0:0:
256,192,408184,1,8,0:0:0:0:
256,192,408334,1,0,0:0:0:0:
256,192,408484,1,8,0:0:0:0:
256,192,408634,1,8,0:0:0:0:
256,192,408709,1,8,0:0:0:0:
256,192,408784,1,0,0:0:0:0:
256,192,408934,1,0,0:0:0:0:
256,192,409084,1,8,0:0:0:0:
256,192,409159,1,8,0:0:0:0:
256,192,409234,1,8,0:0:0:0:
256,192,409309,1,8,0:0:0:0:
256,192,409384,1,0,0:0:0:0:
256,192,409534,1,8,0:0:0:0:
256,192,409609,1,0,0:0:0:0:
256,192,409684,1,8,0:0:0:0:
256,192,409834,1,0,0:0:0:0:
256,192,409909,1,0,0:0:0:0:
256,192,409984,1,0,0:0:0:0:
256,192,410059,1,8,0:0:0:0:
256,192,410134,1,8,0:0:0:0:
256,192,410209,1,0,0:0:0:0:
256,192,410284,1,8,0:0:0:0:
256,192,410359,1,0,0:0:0:0:
256,192,410434,1,8,0:0:0:0:
256,192,410509,1,8,0:0:0:0:
256,192,410584,1,0,0:0:0:0:
256,192,410659,1,0,0:0:0:0:
256,192,410734,1,8,0:0:0:0:
256,192,410809,1,8,0:0:0:0:
256,192,410884,1,0,0:0:0:0:
256,192,410959,1,8,0:0:0:0:
256,192,411034,1,8,0:0:0:0:
256,192,411109,1,0,0:0:0:0:
256,192,411184,1,0,0:0:0:0:
256,192,411259,1,8,0:0:0:0:
256,192,411334,1,8,0:0:0:0:
256,192,411409,1,8,0:0:0:0:
256,192,411484,1,0,0:0:0:0:
256,192,411559,1,0,0:0:0:0:
256,192,411634,1,8,0:0:0:0:
256,192,411784,1,8,0:0:0:0:
256,192,411934,1,0,0:0:0:0:
256,192,412084,1,8,0:0:0:0:
256,192,412159,1,8,0:0:0:0:
256,192,412234,1,0,0:0:0:0:
256,192,412384,1,8,0:0:0:0:
256,192,412534,1,0,0:0:0:0:
256,192,412609,1,0,0:0:0:0:
256,192,412684,1,8,0:0:0:0:
256,192,412834,1,0,0:0:0:0:
256,192,412984,1,8,0:0:0:0:
256,192,413134,1,0,0:0:0:0:
256,192,413209,1,0,0:0:0:0:
256,192,413284,1,8,0:0:0:0:
256,192,413434,1,0,0:0:0:0:
256,192,413584,1,8,0:0:0:0:
256,192,413659,1,0,0:0:0:0:
256,192,413734,1,8,0:0:0:0:
256,192,413809,1,8,0:0:0:0:
256,192,413884,1,8,0:0:0:0:
256,192,413959,1,0,0:0:0:0:
256,192,414034,1,8,0:0:0:0:
256,192,414109,1,0,0:0:0:0:
256,192,414184,1,0,0:0:0:0:
256,192,414259,1,0,0:0:0:0:
256,192,414334,1,8,0:0:0:0:
256,192,414409,1,0,0:0:0:0:
256,192,414484,1,0,0:0:0:0:
256,192,414559,1,0,0:0:0:0:
256,192,414634,1,8,0:0:0:0:
256,192,414709,1,0,0:0:0:0:
256,192,414784,1,8,0:0:0:0:
256,192,414859,1,0,0:0:0:0:
256,192,414934,1,0,0:0:0:0:
256,192,415009,1,0,0:0:0:0:
256,192,415084,1,8,0:0:0:0:
256,192,415159,1,8,0:0:0:0:
256,192,415234,1,0,0:0:0:0:
256,192,415309,1,0,0:0:0:0:
256,192,415384,1,8,0:0:0:0:
256,192,415459,1,0,0:0:0:0:
256,192,415534,1,0,0:0:0:0:
256,192,415609,1,0,0:0:0:0:
256,192,415684,1,8,0:0:0:0:
256,192,415759,1,8,0:0:0:0:
256,192,415834,1,0,0:0:0:0:
256,192,415909,1,0,0:0:0:0:
256,192,415984,1,8,0:0:0:0:
256,192,416059,1,0,0:0:0:0:
256,192,416134,1,0,0:0:0:0:
256,192,416209,1,0,0:0:0:0:
256,192,416284,1,8,0:0:0:0:
256,192,416359,1,8,0:0:0:0:
256,192,416434,1,0,0:0:0:0:
256,192,416509,1,0,0:0:0:0:
256,192,416584,1,8,0:0:0:0:
256,192,416659,1,0,0:0:0:0:
256,192,416734,1,8,0:0:0:0:
256,192,416809,1,8,0:0:0:0:
256,192,416884,1,0,0:0:0:0:
256,192,416959,1,0,0:0:0:0:
256,192,417034,1,8,0:0:0:0:
256,192,417109,1,0,0:0:0:0:
256,192,417184,1,0,0:0:0:0:
256,192,417259,1,8,0:0:0:0:
256,192,417334,1,8,0:0:0:0:
256,192,417409,1,0,0:0:0:0:
256,192,417484,1,8,0:0:0:0:
256,192,417559,1,0,0:0:0:0:
256,192,417634,1,8,0:0:0:0:
256,192,417709,1,0,0:0:0:0:
256,192,417784,1,0,0:0:0:0:
256,192,417859,1,8,0:0:0:0:
256,192,417934,1,8,0:0:0:0:
256,192,418009,1,0,0:0:0:0:
256,192,418084,1,8,0:0:0:0:
256,192,418159,1,0,0:0:0:0:
256,192,418234,1,8,0:0:0:0:
256,192,418309,1,8,0:0:0:0:
256,192,418384,1,8,0:0:0:0:
256,192,418459,1,8,0:0:0:0:
256,192,418534,1,0,0:0:0:0:
256,192,418609,1,0,0:0:0:0:
256,192,418684,1,8,0:0:0:0:
256,192,418759,1,0,0:0:0:0:
256,192,418834,1,8,0:0:0:0:
256,192,418909,1,8,0:0:0:0:
256,192,418984,1,0,0:0:0:0:
256,192,419059,1,0,0:0:0:0:
256,192,419134,1,8,0:0:0:0:
256,192,419209,1,8,0:0:0:0:
256,192,419284,1,0,0:0:0:0:
256,192,419434,1,12,0:0:0:0:
256,192,419884,1,0,0:0:0:0:
256,192,420334,1,0,0:0:0:0:
256,192,420634,1,8,0:0:0:0:
256,192,421084,1,0,0:0:0:0:
256,192,421534,1,0,0:0:0:0:
256,192,421834,1,8,0:0:0:0:
256,192,422284,1,8,0:0:0:0:
256,192,422734,1,0,0:0:0:0:
256,192,423034,1,8,0:0:0:0:
256,192,423634,1,12,0:0:0:0:
256,192,423934,1,4,0:0:0:0:
256,192,424234,1,12,0:0:0:0:
256,192,424684,1,0,0:0:0:0:
256,192,424834,1,8,0:0:0:0:
256,192,425134,1,0,0:0:0:0:
256,192,425284,1,8,0:0:0:0:
256,192,425434,1,8,0:0:0:0:
256,192,425584,1,0,0:0:0:0:
256,192,425734,1,0,0:0:0:0:
256,192,426034,1,8,0:0:0:0:
256,192,426334,1,0,0:0:0:0:
256,192,426484,1,8,0:0:0:0:
256,192,426634,1,0,0:0:0:0:
256,192,426934,1,0,0:0:0:0:
256,192,427084,1,0,0:0:0:0:
256,192,427234,1,8,0:0:0:0:
256,192,427534,1,0,0:0:0:0:
256,192,427684,1,8,0:0:0:0:
256,192,427834,1,0,0:0:0:0:
256,192,427984,1,8,0:0:0:0:
256,192,428134,1,8,0:0:0:0:
256,192,428284,1,0,0:0:0:0:
256,192,428434,1,8,0:0:0:0:
256,192,428509,1,8,0:0:0:0:
256,192,428584,1,0,0:0:0:0:
256,192,428659,1,0,0:0:0:0:
256,192,428734,1,8,0:0:0:0:
256,192,428809,1,0,0:0:0:0:
256,192,428884,1,0,0:0:0:0:
256,192,428959,1,0,0:0:0:0:
256,192,429034,1,8,0:0:0:0:
256,192,429334,1,8,0:0:0:0:
256,192,429484,1,0,0:0:0:0:
256,192,429634,1,8,0:0:0:0:
256,192,429934,1,0,0:0:0:0:
256,192,430084,1,8,0:0:0:0:
256,192,430234,1,8,0:0:0:0:
256,192,430384,1,0,0:0:0:0:
256,192,430534,1,8,0:0:0:0:
256,192,430834,1,8,0:0:0:0:
256,192,431134,1,0,0:0:0:0:
256,192,431284,1,8,0:0:0:0:
256,192,431434,1,4,0:0:0:0:
256,192,431734,1,8,0:0:0:0:
256,192,431884,1,0,0:0:0:0:
256,192,432034,1,12,0:0:0:0:
256,192,432334,1,8,0:0:0:0:
256,192,432484,1,0,0:0:0:0:
256,192,432634,1,0,0:0:0:0:
256,192,432709,1,8,0:0:0:0:
256,192,432784,1,8,0:0:0:0:
256,192,432859,1,0,0:0:0:0:
256,192,432934,1,8,0:0:0:0:
256,192,433009,1,8,0:0:0:0:
256,192,433084,1,0,0:0:0:0:
256,192,433159,1,0,0:0:0:0:
256,192,433234,1,8,0:0:0:0:
256,192,433309,1,8,0:0:0:0:
256,192,433384,1,8,0:0:0:0:
256,192,433459,1,0,0:0:0:0:
256,192,433534,1,8,0:0:0:0:
256,192,433609,1,8,0:0:0:0:
256,192,433684,1,8,0:0:0:0:
256,192,433759,1,8,0:0:0:0:
256,192,433834,1,0,0:0:0:0:
256,192,433909,1,0,0:0:0:0:
256,192,433984,1,8,0:0:0:0:
256,192,434059,1,0,0:0:0:0:
256,192,434134,1,0,0:0:0:0:
256,192,434209,1,0,0:0:0:0:
256,192,434284,1,8,0:0:0:0:
256,192,434359,1,0,0:0:0:0:
256,192,434434,1,0,0:0:0:0:
256,192,434509,1,0,0:0:0:0:
256,192,434584,1,8,0:0:0:0:
256,192,434659,1,8,0:0:0:0:
256,192,434734,1,0,0:0:0:0:
256,192,434809,1,0,0:0:0:0:
256,192,434884,1,8,0:0:0:0:
256,192,434959,1,0,0:0:0:0:
256,192,435034,1,0,0:0:0:0:
256,192,435109,1,0,0:0:0:0:
256,192,435184,1,8,0:0:0:0:
256,192,435259,1,0,0:0:0:0:
256,192,435334,1,0,0:0:0:0:
256,192,435409,1,0,0:0:0:0:
256,192,435484,1,8,0:0:0:0:
256,192,435559,1,0,0:0:0:0:
256,192,435634,1,0,0:0:0:0:
256,192,435709,1,0,0:0:0:0:
256,192,435784,1,8,0:0:0:0:
256,192,435859,1,8,0:0:0:0:
256,192,435934,1,0,0:0:0:0:
256,192,436009,1,0,0:0:0:0:
256,192,436084,1,8,0:0:0:0:
256,192,436159,1,0,0:0:0:0:
256,192,436234,1,8,0:0:0:0:
256,192,436309,1,8,0:0:0:0:
256,192,436384,1,0,0:0:0:0:
256,192,436459,1,0,0:0:0:0:
256,192,436534,1,8,0:0:0:0:
256,192,436609,1,0,0:0:0:0:
256,192,436684,1,8,0:0:0:0:
256,192,436759,1,0,0:0:0:0:
256,192,436834,1,8,0:0:0:0:
256,192,436909,1,8,0:0:0:0:
256,192,436984,1,0,0:0:0:0:
256,192,437059,1,0,0:0:0:0:
256,192,437134,1,8,0:0:0:0:
256,192,437209,1,8,0:0:0:0:
256,192,437284,1,8,0:0:0:0:
256,192,437359,1,0,0:0:0:0:
256,192,437434,1,8,0:0:0:0:
256,192,437584,1,0,0:0:0:0:
256,192,437734,1,8,0:0:0:0:
256,192,437809,1,8,0:0:0:0:
256,192,437884,1,8,0:0:0:0:
256,192,437959,1,8,0:0:0:0:
256,192,438034,1,0,0:0:0:0:
256,192,438109,1,0,0:0:0:0:
256,192,438184,1,0,0:0:0:0:
256,192,438259,1,0,0:0:0:0:
256,192,438334,1,8,0:0:0:0:
256,192,438409,1,8,0:0:0:0:
256,192,438484,1,8,0:0:0:0:
256,192,438559,1,8,0:0:0:0:
256,192,438634,1,0,0:0:0:0:
256,192,438709,1,0,0:0:0:0:
256,192,438784,1,8,0:0:0:0:
256,192,438859,1,0,0:0:0:0:
256,192,438934,1,0,0:0:0:0:
256,192,439009,1,0,0:0:0:0:
256,192,439084,1,8,0:0:0:0:
256,192,439159,1,0,0:0:0:0:
256,192,439234,1,0,0:0:0:0:
256,192,439309,1,0,0:0:0:0:
256,192,439384,1,8,0:0:0:0:
256,192,439459,1,0,0:0:0:0:
256,192,439534,1,0,0:0:0:0:
256,192,439609,1,0,0:0:0:0:
256,192,439684,1,8,0:0:0:0:
256,192,439759,1,0,0:0:0:0:
256,192,439834,1,8,0:0:0:0:
256,192,439909,1,8,0:0:0:0:
256,192,439984,1,8,0:0:0:0:
256,192,440059,1,8,0:0:0:0:
256,192,440134,1,0,0:0:0:0:
256,192,440209,1,0,0:0:0:0:
256,192,440284,1,8,0:0:0:0:
256,192,440359,1,0,0:0:0:0:
256,192,440434,1,8,0:0:0:0:
256,192,440509,1,8,0:0:0:0:
256,192,440584,1,0,0:0:0:0:
256,192,440659,1,0,0:0:0:0:
256,192,440734,1,8,0:0:0:0:
256,192,440809,1,8,0:0:0:0:
256,192,440884,1,0,0:0:0:0:
256,192,440959,1,0,0:0:0:0:
256,192,441034,1,8,0:0:0:0:
256,192,441109,1,0,0:0:0:0:
256,192,441184,1,8,0:0:0:0:
256,192,441259,1,0,0:0:0:0:
256,192,441334,1,8,0:0:0:0:
256,192,441409,1,0,0:0:0:0:
256,192,441484,1,8,0:0:0:0:
256,192,441559,1,0,0:0:0:0:
256,192,441634,1,8,0:0:0:0:
256,192,441709,1,0,0:0:0:0:
256,192,441784,1,8,0:0:0:0:
256,192,441859,1,0,0:0:0:0:
256,192,441934,1,8,0:0:0:0:
256,192,442009,1,0,0:0:0:0:
256,192,442084,1,8,0:0:0:0:
256,192,442159,1,0,0:0:0:0:
256,192,442234,1,8,0:0:0:0:
256,192,442309,1,8,0:0:0:0:
256,192,442384,1,8,0:0:0:0:
256,192,442459,1,8,0:0:0:0:
256,192,442534,1,0,0:0:0:0:
256,192,442609,1,0,0:0:0:0:
256,192,442684,1,8,0:0:0:0:
256,192,442759,1,0,0:0:0:0:
256,192,442834,1,8,0:0:0:0:
256,192,442909,1,8,0:0:0:0:
256,192,442984,1,8,0:0:0:0:
256,192,443059,1,0,0:0:0:0:
256,192,443134,1,8,0:0:0:0:
256,192,443209,1,8,0:0:0:0:
256,192,443284,1,0,0:0:0:0:
256,192,443359,1,0,0:0:0:0:
256,192,443434,1,8,0:0:0:0:
256,192,448234,5,4,0:0:0:0:
256,192,450634,1,8,0:0:0:0:
256,192,450709,1,8,0:0:0:0:
256,192,450784,1,0,0:0:0:0:
256,192,450859,1,0,0:0:0:0:
256,192,450934,1,8,0:0:0:0:
256,192,451009,1,0,0:0:0:0:
256,192,451084,1,8,0:0:0:0:
256,192,451159,1,0,0:0:0:0:
256,192,451234,1,8,0:0:0:0:
256,192,451309,1,0,0:0:0:0:
256,192,451384,1,8,0:0:0:0:
256,192,451459,1,0,0:0:0:0:
256,192,451534,1,8,0:0:0:0:
256,192,451609,1,8,0:0:0:0:
256,192,451684,1,0,0:0:0:0:
256,192,451759,1,0,0:0:0:0:
256,192,451834,1,8,0:0:0:0:
256,192,451909,1,8,0:0:0:0:
256,192,451984,1,0,0:0:0:0:
256,192,452059,1,0,0:0:0:0:
256,192,452134,1,8,0:0:0:0:
256,192,452209,1,0,0:0:0:0:
256,192,452284,1,8,0:0:0:0:
256,192,452359,1,8,0:0:0:0:
256,192,452434,1,0,0:0:0:0:
256,192,452509,1,0,0:0:0:0:
256,192,452584,1,8,0:0:0:0:
256,192,452659,1,0,0:0:0:0:
256,192,452734,1,8,0:0:0:0:
256,192,452809,1,0,0:0:0:0:
256,192,452884,1,8,0:0:0:0:
256,192,452959,1,0,0:0:0:0:
256,192,453034,1,8,0:0:0:0:
256,192,453109,1,8,0:0:0:0:
256,192,453184,1,0,0:0:0:0:
256,192,453259,1,0,0:0:0:0:
256,192,453334,1,8,0:0:0:0:
256,192,453409,1,0,0:0:0:0:
256,192,453484,1,8,0:0:0:0:
256,192,453559,1,0,0:0:0:0:
256,192,453634,1,8,0:0:0:0:
256,192,453709,1,0,0:0:0:0:
256,192,453784,1,8,0:0:0:0:
256,192,453859,1,0,0:0:0:0:
256,192,453934,1,8,0:0:0:0:
256,192,454009,1,8,0:0:0:0:
256,192,454084,1,0,0:0:0:0:
256,192,454159,1,0,0:0:0:0:
256,192,454234,1,8,0:0:0:0:
256,192,454309,1,8,0:0:0:0:
256,192,454384,1,8,0:0:0:0:
256,192,454459,1,0,0:0:0:0:
256,192,454534,1,8,0:0:0:0:
256,192,454609,1,8,0:0:0:0:
256,192,454684,1,8,0:0:0:0:
256,192,454759,1,0,0:0:0:0:
256,192,454834,1,8,0:0:0:0:
256,192,454909,1,8,0:0:0:0:
256,192,454984,1,0,0:0:0:0:
256,192,455059,1,0,0:0:0:0:
256,192,455134,1,8,0:0:0:0:
256,192,455209,1,8,0:0:0:0:
256,192,455284,1,0,0:0:0:0:
256,192,455434,1,12,0:0:0:0:
256,192,456034,1,4,0:0:0:0:
256,192,456634,1,12,0:0:0:0:
256,192,457234,1,4,0:0:0:0:
256,192,457834,1,12,0:0:0:0:
256,192,458434,1,4,0:0:0:0:
256,192,459034,1,4,0:0:0:0:
256,192,459109,12,0,464884,0:0:0:0:
256,192,465034,5,4,0:0:0:0:
256,192,465184,1,4,0:0:0:0:
256,192,465334,1,4,0:0:0:0:
