osu file format v14

[General]
AudioFilename: dooganfurce.mp3
AudioLeadIn: 1500
PreviewTime: 163922
Countdown: 0
SampleSet: Normal
StackLeniency: 0.7
Mode: 1
LetterboxInBreaks: 0
WidescreenStoryboard: 0

[Editor]
DistanceSpacing: 1
BeatDivisor: 4
GridSize: 8
TimelineZoom: 4.599998

[Metadata]
Title:Revolution Deathsquad
TitleUnicode:Revolution Deathsquad
Artist:DragonForce
ArtistUnicode:DragonForce
Creator:MMzz
Version:Tatsujin
Source:
Tags:speedmetal powermetal power speed metal Inhuman Rampage
BeatmapID:295715
BeatmapSetID:114142

[Difficulty]
HPDrainRate:4
CircleSize:4
OverallDifficulty:6
ApproachRate:5
SliderMultiplier:1.4
SliderTickRate:1

[Events]
//Background and Video events
0,0,"Blue___Green_Vector_Wallpaper_by_firetongue8.jpg",0,0
//Break Periods
//Storyboard Layer 0 (Background)
//Storyboard Layer 1 (Fail)
//Storyboard Layer 2 (Pass)
//Storyboard Layer 3 (Foreground)
//Storyboard Sound Samples

[TimingPoints]
236,240,4,1,0,80,1,0
7436,-100,4,1,0,50,0,0
9122,300,4,1,0,80,1,0
83522,-100,4,1,0,80,0,1
100322,-100,4,1,0,80,0,0
102722,-100,4,1,0,80,0,1
112322,-100,4,1,0,80,0,0
163922,-100,4,1,0,80,0,1
180722,-100,4,1,0,80,0,0
183122,-100,4,1,0,80,0,1
192722,-100,4,1,0,80,0,0
294722,-100,4,1,0,80,0,1
304322,-100,4,1,0,80,0,0
313922,-100,4,1,0,80,0,1
323522,-100,4,1,0,80,0,0
433922,-100,4,1,0,80,0,1
450722,-100,4,1,0,80,0,0
453122,-100,4,1,0,80,0,1
460322,-100,4,1,0,80,0,0
465122,-100,4,1,0,80,0,1
467522,-100,4,1,0,80,0,0

[Colours]
Combo1 : 255,255,255
Combo2 : 53,53,189
Combo3 : 0,83,83
Combo4 : 0,193,193

[HitObjects]
256,192,236,5,4,0:0:0:0:
232,128,356,1,0,0:0:0:0:
232,128,476,1,8,0:0:0:0:
232,128,596,1,8,0:0:0:0:
232,128,716,1,0,0:0:0:0:
232,128,836,1,0,0:0:0:0:
232,128,956,1,8,0:0:0:0:
232,128,1076,1,8,0:0:0:0:
232,128,1196,1,0,0:0:0:0:
232,128,1316,1,0,0:0:0:0:
232,128,1436,1,8,0:0:0:0:
232,128,1556,1,8,0:0:0:0:
232,128,1676,1,0,0:0:0:0:
232,128,1796,1,0,0:0:0:0:
256,192,1916,1,4,0:0:0:0:
256,192,2036,1,12,0:0:0:0:
232,56,2276,1,8,0:0:0:0:
240,128,2396,1,0,0:0:0:0:
240,56,2516,1,0,0:0:0:0:
240,128,2636,1,8,0:0:0:0:
240,56,2756,1,8,0:0:0:0:
240,128,2876,1,0,0:0:0:0:
240,56,2996,1,0,0:0:0:0:
232,128,3116,1,8,0:0:0:0:
232,128,3196,1,0,0:0:0:0:
232,128,3276,1,0,0:0:0:0:
232,128,3356,1,8,0:0:0:0:
232,128,3436,1,0,0:0:0:0:
232,128,3516,1,0,0:0:0:0:
232,128,3596,1,8,0:0:0:0:
232,128,3676,1,0,0:0:0:0:
232,128,3756,1,0,0:0:0:0:
232,128,3836,1,8,0:0:0:0:
208,48,3956,1,4,0:0:0:0:
224,184,4196,1,0,0:0:0:0:
200,120,4316,1,8,0:0:0:0:
224,184,4436,1,8,0:0:0:0:
200,120,4556,1,0,0:0:0:0:
232,184,4676,1,0,0:0:0:0:
200,120,4796,1,8,0:0:0:0:
232,184,4916,1,8,0:0:0:0:
200,120,5036,1,0,0:0:0:0:
232,184,5156,1,0,0:0:0:0:
200,120,5276,1,8,0:0:0:0:
232,184,5396,1,8,0:0:0:0:
200,120,5516,1,0,0:0:0:0:
232,184,5636,1,0,0:0:0:0:
224,120,5756,1,0,0:0:0:0:
224,120,5876,1,12,0:0:0:0:
224,120,6116,1,8,0:0:0:0:
224,120,6236,1,8,0:0:0:0:
224,120,6356,1,8,0:0:0:0:
224,120,6476,1,8,0:0:0:0:
224,120,6596,1,8,0:0:0:0:
224,120,6716,1,8,0:0:0:0:
224,120,6836,1,4,0:0:0:0:
224,120,7076,1,4,0:0:0:0:
224,120,7316,1,4,0:0:0:0:
256,192,7436,12,0,8876,0:0:0:0:
192,144,9122,5,0,0:0:0:0:
168,120,9197,1,0,0:0:0:0:
168,120,9272,1,8,0:0:0:0:
168,120,9347,1,0,0:0:0:0:
168,120,9422,1,0,0:0:0:0:
168,120,9497,1,0,0:0:0:0:
168,120,9572,1,8,0:0:0:0:
168,120,9647,1,0,0:0:0:0:
168,120,9722,1,0,0:0:0:0:
168,120,9797,1,0,0:0:0:0:
168,120,9872,1,8,0:0:0:0:
168,120,9947,1,0,0:0:0:0:
168,120,10022,1,0,0:0:0:0:
168,120,10097,1,0,0:0:0:0:
192,144,10172,1,8,0:0:0:0:
200,112,10247,1,8,0:0:0:0:
200,112,10322,1,0,0:0:0:0:
200,112,10397,1,0,0:0:0:0:
328,176,10472,1,8,0:0:0:0:
200,112,10547,1,8,0:0:0:0:
200,112,10622,1,0,0:0:0:0:
200,112,10697,1,0,0:0:0:0:
208,152,10772,1,8,0:0:0:0:
200,112,10847,1,8,0:0:0:0:
200,112,10922,1,0,0:0:0:0:
200,112,10997,1,0,0:0:0:0:
208,152,11072,1,8,0:0:0:0:
168,120,11147,1,0,0:0:0:0:
168,120,11222,1,0,0:0:0:0:
168,120,11297,1,0,0:0:0:0:
208,152,11372,1,8,0:0:0:0:
240,160,11522,1,0,0:0:0:0:
240,160,11672,1,8,0:0:0:0:
240,160,11822,1,0,0:0:0:0:
240,160,11897,1,0,0:0:0:0:
240,160,11972,1,8,0:0:0:0:
240,160,12122,1,0,0:0:0:0:
240,160,12272,1,8,0:0:0:0:
240,160,12422,1,0,0:0:0:0:
240,160,12497,1,0,0:0:0:0:
240,160,12572,1,8,0:0:0:0:
200,104,12722,1,0,0:0:0:0:
240,160,12872,1,8,0:0:0:0:
216,128,12947,1,8,0:0:0:0:
240,152,13022,1,0,0:0:0:0:
240,152,13172,1,8,0:0:0:0:
240,152,13322,1,8,0:0:0:0:
216,128,13472,1,0,0:0:0:0:
216,128,13622,1,8,0:0:0:0:
216,128,13697,1,8,0:0:0:0:
216,128,13772,1,8,0:0:0:0:
216,128,13847,1,8,0:0:0:0:
192,144,13922,5,0,0:0:0:0:
168,120,13997,1,0,0:0:0:0:
168,120,14072,1,8,0:0:0:0:
168,120,14147,1,0,0:0:0:0:
168,120,14222,1,0,0:0:0:0:
168,120,14297,1,0,0:0:0:0:
168,120,14372,1,8,0:0:0:0:
168,120,14447,1,0,0:0:0:0:
168,120,14522,1,0,0:0:0:0:
168,120,14597,1,0,0:0:0:0:
168,120,14672,1,8,0:0:0:0:
168,120,14747,1,0,0:0:0:0:
168,120,14822,1,0,0:0:0:0:
168,120,14897,1,0,0:0:0:0:
192,144,14972,1,8,0:0:0:0:
200,112,15047,1,8,0:0:0:0:
200,112,15122,1,0,0:0:0:0:
200,112,15197,1,0,0:0:0:0:
328,176,15272,1,8,0:0:0:0:
200,112,15347,1,8,0:0:0:0:
200,112,15422,1,0,0:0:0:0:
200,112,15497,1,0,0:0:0:0:
208,152,15572,1,8,0:0:0:0:
200,112,15647,1,8,0:0:0:0:
200,112,15722,1,0,0:0:0:0:
200,112,15797,1,0,0:0:0:0:
208,152,15872,1,8,0:0:0:0:
168,120,15947,1,0,0:0:0:0:
168,120,16022,1,0,0:0:0:0:
168,120,16097,1,0,0:0:0:0:
208,152,16172,1,8,0:0:0:0:
248,96,16322,1,0,0:0:0:0:
208,152,16472,1,8,0:0:0:0:
248,96,16622,1,0,0:0:0:0:
224,120,16697,1,0,0:0:0:0:
224,120,16772,1,8,0:0:0:0:
224,120,16922,1,0,0:0:0:0:
224,120,17072,1,8,0:0:0:0:
224,120,17222,1,8,0:0:0:0:
224,120,17372,1,0,0:0:0:0:
224,120,17522,1,8,0:0:0:0:
224,120,17597,1,8,0:0:0:0:
224,120,17672,1,8,0:0:0:0:
224,120,17747,1,8,0:0:0:0:
224,120,17822,1,0,0:0:0:0:
224,120,17897,1,0,0:0:0:0:
224,120,17972,1,8,0:0:0:0:
224,120,18047,1,8,0:0:0:0:
224,120,18122,1,8,0:0:0:0:
224,120,18197,1,8,0:0:0:0:
224,120,18272,1,0,0:0:0:0:
224,120,18347,1,0,0:0:0:0:
224,120,18422,1,8,0:0:0:0:
224,120,18497,1,8,0:0:0:0:
224,120,18572,1,0,0:0:0:0:
224,120,18647,1,8,0:0:0:0:
192,144,18722,5,0,0:0:0:0:
168,120,18797,1,0,0:0:0:0:
168,120,18872,1,8,0:0:0:0:
168,120,18947,1,0,0:0:0:0:
168,120,19022,1,0,0:0:0:0:
168,120,19097,1,0,0:0:0:0:
168,120,19172,1,8,0:0:0:0:
168,120,19247,1,0,0:0:0:0:
168,120,19322,1,0,0:0:0:0:
168,120,19397,1,0,0:0:0:0:
168,120,19472,1,8,0:0:0:0:
168,120,19547,1,0,0:0:0:0:
168,120,19622,1,0,0:0:0:0:
168,120,19697,1,0,0:0:0:0:
192,144,19772,1,8,0:0:0:0:
200,112,19847,1,8,0:0:0:0:
200,112,19922,1,0,0:0:0:0:
200,112,19997,1,0,0:0:0:0:
328,176,20072,1,8,0:0:0:0:
200,112,20147,1,8,0:0:0:0:
200,112,20222,1,0,0:0:0:0:
200,112,20297,1,0,0:0:0:0:
208,152,20372,1,8,0:0:0:0:
200,112,20447,1,8,0:0:0:0:
200,112,20522,1,0,0:0:0:0:
200,112,20597,1,0,0:0:0:0:
208,152,20672,1,8,0:0:0:0:
168,120,20747,1,0,0:0:0:0:
168,120,20822,1,0,0:0:0:0:
168,120,20897,1,0,0:0:0:0:
208,152,20972,1,8,0:0:0:0:
160,200,21122,1,0,0:0:0:0:
160,200,21272,1,8,0:0:0:0:
160,200,21422,1,0,0:0:0:0:
160,200,21497,1,0,0:0:0:0:
160,200,21572,1,8,0:0:0:0:
160,200,21722,1,0,0:0:0:0:
160,200,21872,1,8,0:0:0:0:
160,200,22022,1,0,0:0:0:0:
160,200,22097,1,0,0:0:0:0:
160,200,22172,1,8,0:0:0:0:
160,200,22322,1,8,0:0:0:0:
160,200,22397,1,8,0:0:0:0:
160,200,22472,1,8,0:0:0:0:
160,200,22547,1,8,0:0:0:0:
160,200,22622,1,0,0:0:0:0:
160,200,22697,1,0,0:0:0:0:
160,200,22772,1,0,0:0:0:0:
160,200,22847,1,0,0:0:0:0:
160,200,22922,1,8,0:0:0:0:
160,200,22997,1,8,0:0:0:0:
160,200,23072,1,8,0:0:0:0:
160,200,23147,1,8,0:0:0:0:
160,200,23222,1,0,0:0:0:0:
160,200,23297,1,0,0:0:0:0:
160,200,23372,1,8,0:0:0:0:
160,200,23447,1,8,0:0:0:0:
192,144,23522,5,0,0:0:0:0:
168,120,23597,1,0,0:0:0:0:
168,120,23672,1,8,0:0:0:0:
168,120,23747,1,0,0:0:0:0:
168,120,23822,1,0,0:0:0:0:
168,120,23897,1,0,0:0:0:0:
168,120,23972,1,8,0:0:0:0:
168,120,24047,1,0,0:0:0:0:
168,120,24122,1,0,0:0:0:0:
168,120,24197,1,0,0:0:0:0:
168,120,24272,1,8,0:0:0:0:
168,120,24347,1,0,0:0:0:0:
168,120,24422,1,0,0:0:0:0:
168,120,24497,1,0,0:0:0:0:
192,144,24572,1,8,0:0:0:0:
200,112,24647,1,8,0:0:0:0:
200,112,24722,1,0,0:0:0:0:
200,112,24797,1,0,0:0:0:0:
328,176,24872,1,8,0:0:0:0:
200,112,24947,1,8,0:0:0:0:
200,112,25022,1,0,0:0:0:0:
200,112,25097,1,0,0:0:0:0:
208,152,25172,1,8,0:0:0:0:
200,112,25247,1,8,0:0:0:0:
200,112,25322,1,0,0:0:0:0:
200,112,25397,1,0,0:0:0:0:
208,152,25472,1,8,0:0:0:0:
168,120,25547,1,0,0:0:0:0:
168,120,25622,1,8,0:0:0:0:
168,120,25697,1,8,0:0:0:0:
208,152,25772,1,0,0:0:0:0:
200,112,25922,1,8,0:0:0:0:
232,96,25997,1,0,0:0:0:0:
232,96,26072,1,0,0:0:0:0:
232,96,26147,1,0,0:0:0:0:
232,96,26222,1,8,0:0:0:0:
232,96,26297,1,0,0:0:0:0:
232,96,26372,1,0,0:0:0:0:
232,96,26447,1,0,0:0:0:0:
232,96,26522,1,8,0:0:0:0:
232,96,26597,1,0,0:0:0:0:
232,96,26672,1,0,0:0:0:0:
232,96,26747,1,0,0:0:0:0:
232,96,26822,1,8,0:0:0:0:
232,96,26897,1,8,0:0:0:0:
232,96,26972,1,0,0:0:0:0:
232,96,27047,1,0,0:0:0:0:
272,128,27122,1,8,0:0:0:0:
272,128,27197,1,0,0:0:0:0:
272,128,27272,1,8,0:0:0:0:
272,128,27347,1,8,0:0:0:0:
272,128,27422,1,0,0:0:0:0:
272,128,27497,1,8,0:0:0:0:
272,128,27572,1,0,0:0:0:0:
272,128,27647,1,0,0:0:0:0:
272,128,27722,1,8,0:0:0:0:
272,128,27797,1,0,0:0:0:0:
272,128,27872,1,8,0:0:0:0:
272,128,27947,1,8,0:0:0:0:
272,128,28022,1,0,0:0:0:0:
272,128,28097,1,8,0:0:0:0:
272,128,28172,1,0,0:0:0:0:
272,128,28247,1,0,0:0:0:0:
232,96,28322,1,8,0:0:0:0:
240,112,29522,1,4,0:0:0:0:
240,112,29822,1,12,0:0:0:0:
120,176,30122,1,0,0:0:0:0:
120,176,30197,1,0,0:0:0:0:
120,176,30272,1,8,0:0:0:0:
120,176,30347,1,0,0:0:0:0:
120,176,30422,1,8,0:0:0:0:
120,176,30497,1,8,0:0:0:0:
120,176,30572,1,8,0:0:0:0:
240,112,30722,1,4,0:0:0:0:
240,112,30872,1,4,0:0:0:0:
240,112,31172,1,4,0:0:0:0:
240,112,31322,1,4,0:0:0:0:
104,144,31622,1,8,0:0:0:0:
104,144,31697,1,8,0:0:0:0:
104,144,31772,1,8,0:0:0:0:
240,112,31922,1,4,0:0:0:0:
240,112,32072,1,4,0:0:0:0:
240,112,32372,1,4,0:0:0:0:
240,112,32522,1,4,0:0:0:0:
344,208,32822,1,8,0:0:0:0:
320,184,32897,1,8,0:0:0:0:
296,160,32972,1,8,0:0:0:0:
232,120,33122,1,8,0:0:0:0:
264,128,33197,1,8,0:0:0:0:
264,128,33272,1,0,0:0:0:0:
240,112,33347,1,0,0:0:0:0:
232,120,33422,1,8,0:0:0:0:
232,120,33497,1,8,0:0:0:0:
208,8,33572,1,0,0:0:0:0:
216,40,33647,1,8,0:0:0:0:
232,72,33722,1,0,0:0:0:0:
232,72,33797,1,0,0:0:0:0:
232,72,33872,1,8,0:0:0:0:
232,72,33947,1,8,0:0:0:0:
232,72,34022,1,0,0:0:0:0:
232,72,34097,1,0,0:0:0:0:
232,72,34172,1,8,0:0:0:0:
232,72,34247,1,0,0:0:0:0:
240,192,34322,1,8,0:0:0:0:
240,192,35522,1,4,0:0:0:0:
240,192,35672,1,8,0:0:0:0:
240,192,35822,1,0,0:0:0:0:
240,192,35897,1,0,0:0:0:0:
240,192,35972,1,8,0:0:0:0:
240,192,36122,1,0,0:0:0:0:
240,192,36272,1,8,0:0:0:0:
240,192,36347,1,8,0:0:0:0:
240,192,36422,1,0,0:0:0:0:
240,192,36572,1,8,0:0:0:0:
240,192,36722,1,0,0:0:0:0:
240,192,36872,1,8,0:0:0:0:
240,192,37172,1,8,0:0:0:0:
240,192,37322,1,0,0:0:0:0:
240,192,37472,1,0,0:0:0:0:
240,192,37622,1,8,0:0:0:0:
240,192,37772,1,0,0:0:0:0:
240,192,37922,1,0,0:0:0:0:
240,192,38072,1,8,0:0:0:0:
240,192,38222,1,0,0:0:0:0:
240,192,38297,1,0,0:0:0:0:
240,192,38372,1,8,0:0:0:0:
240,192,38522,1,0,0:0:0:0:
240,192,38672,1,8,0:0:0:0:
240,192,38747,1,8,0:0:0:0:
240,192,38822,1,0,0:0:0:0:
240,192,38972,1,8,0:0:0:0:
240,192,39122,1,0,0:0:0:0:
240,192,39272,1,8,0:0:0:0:
240,192,39572,1,8,0:0:0:0:
240,192,39722,1,0,0:0:0:0:
240,192,39797,1,0,0:0:0:0:
240,192,39872,1,0,0:0:0:0:
240,192,40022,1,8,0:0:0:0:
240,192,40172,1,0,0:0:0:0:
336,72,40322,2,0,B|112:168|112:168|120:352,1,420
184,224,41522,1,0,0:0:0:0:
224,168,41672,1,8,0:0:0:0:
224,168,41822,1,8,0:0:0:0:
224,168,41972,1,0,0:0:0:0:
224,168,42122,1,8,0:0:0:0:
224,168,42197,1,8,0:0:0:0:
224,168,42272,1,8,0:0:0:0:
224,168,42422,1,0,0:0:0:0:
224,168,42572,1,8,0:0:0:0:
224,168,42722,1,0,0:0:0:0:
224,168,42872,1,8,0:0:0:0:
224,168,43022,1,0,0:0:0:0:
224,168,43097,1,0,0:0:0:0:
224,168,43172,1,8,0:0:0:0:
184,112,43322,1,0,0:0:0:0:
184,112,43397,1,0,0:0:0:0:
184,112,43472,1,8,0:0:0:0:
184,112,43622,1,0,0:0:0:0:
184,112,43772,1,8,0:0:0:0:
224,168,43922,1,8,0:0:0:0:
200,144,43997,1,0,0:0:0:0:
200,144,44072,1,0,0:0:0:0:
200,144,44147,1,0,0:0:0:0:
200,32,44222,1,8,0:0:0:0:
208,64,44297,1,0,0:0:0:0:
208,96,44372,1,8,0:0:0:0:
216,128,44447,1,8,0:0:0:0:
216,128,44522,1,0,0:0:0:0:
216,128,44597,1,8,0:0:0:0:
216,128,44672,1,8,0:0:0:0:
216,128,44747,1,0,0:0:0:0:
216,128,44822,1,8,0:0:0:0:
216,128,44897,1,0,0:0:0:0:
216,128,44972,1,8,0:0:0:0:
216,128,45047,1,8,0:0:0:0:
216,128,45122,1,0,0:0:0:0:
208,96,45197,1,0,0:0:0:0:
208,96,45272,1,8,0:0:0:0:
208,96,45347,1,0,0:0:0:0:
208,96,45422,1,0,0:0:0:0:
208,96,45497,1,0,0:0:0:0:
208,96,45572,1,8,0:0:0:0:
208,96,45647,1,0,0:0:0:0:
208,96,45722,1,0,0:0:0:0:
208,96,45797,1,0,0:0:0:0:
208,96,45872,1,8,0:0:0:0:
208,96,45947,1,8,0:0:0:0:
208,96,46022,1,0,0:0:0:0:
208,96,46097,1,0,0:0:0:0:
208,96,46172,1,8,0:0:0:0:
208,96,46247,1,8,0:0:0:0:
208,96,46322,1,0,0:0:0:0:
208,96,46472,1,8,0:0:0:0:
176,104,46547,1,8,0:0:0:0:
176,104,46622,1,0,0:0:0:0:
208,96,46772,1,8,0:0:0:0:
208,96,46922,1,0,0:0:0:0:
208,96,46997,1,0,0:0:0:0:
208,96,47072,1,0,0:0:0:0:
208,96,47222,1,8,0:0:0:0:
208,96,47372,1,0,0:0:0:0:
216,128,47522,1,0,0:0:0:0:
208,96,47597,1,0,0:0:0:0:
208,96,47672,1,8,0:0:0:0:
208,96,47747,1,0,0:0:0:0:
208,96,47822,1,0,0:0:0:0:
208,96,47897,1,0,0:0:0:0:
208,96,47972,1,8,0:0:0:0:
208,96,48047,1,0,0:0:0:0:
208,96,48122,1,0,0:0:0:0:
208,96,48197,1,0,0:0:0:0:
208,96,48272,1,8,0:0:0:0:
208,96,48347,1,8,0:0:0:0:
208,96,48422,1,0,0:0:0:0:
208,96,48497,1,0,0:0:0:0:
208,96,48572,1,8,0:0:0:0:
208,96,48647,1,8,0:0:0:0:
208,96,48722,1,0,0:0:0:0:
144,72,48872,1,0,0:0:0:0:
80,48,49022,1,8,0:0:0:0:
88,120,49172,1,0,0:0:0:0:
80,48,49322,1,8,0:0:0:0:
88,80,49397,1,8,0:0:0:0:
88,80,49472,1,8,0:0:0:0:
88,80,49547,1,8,0:0:0:0:
88,80,49622,1,0,0:0:0:0:
88,80,49697,1,0,0:0:0:0:
88,80,49772,1,0,0:0:0:0:
336,64,49922,6,0,B|96:192|96:192|88:344,1,420
152,216,51122,1,0,0:0:0:0:
160,144,51272,1,8,0:0:0:0:
152,216,51422,1,8,0:0:0:0:
176,152,51572,1,0,0:0:0:0:
192,88,51722,1,8,0:0:0:0:
184,120,51797,1,8,0:0:0:0:
184,120,51872,1,8,0:0:0:0:
184,120,52022,1,0,0:0:0:0:
184,120,52172,1,8,0:0:0:0:
208,120,52322,1,0,0:0:0:0:
208,120,52397,1,0,0:0:0:0:
208,120,52472,1,8,0:0:0:0:
208,120,52547,1,0,0:0:0:0:
208,120,52622,1,8,0:0:0:0:
208,120,52697,1,8,0:0:0:0:
208,120,52772,1,0,0:0:0:0:
208,120,52847,1,0,0:0:0:0:
208,120,52922,1,8,0:0:0:0:
208,120,52997,1,8,0:0:0:0:
208,120,53072,1,8,0:0:0:0:
208,120,53147,1,8,0:0:0:0:
208,120,53222,1,0,0:0:0:0:
208,120,53297,1,0,0:0:0:0:
208,120,53372,1,8,0:0:0:0:
136,104,53522,1,0,0:0:0:0:
168,104,53597,1,0,0:0:0:0:
168,104,53672,1,0,0:0:0:0:
168,104,53822,1,0,0:0:0:0:
168,104,53897,1,0,0:0:0:0:
168,104,53972,1,0,0:0:0:0:
168,104,54122,1,0,0:0:0:0:
168,104,54197,1,0,0:0:0:0:
168,104,54272,1,0,0:0:0:0:
168,104,54422,1,8,0:0:0:0:
168,104,54722,1,4,0:0:0:0:
200,168,54872,1,8,0:0:0:0:
176,104,55022,1,0,0:0:0:0:
192,136,55097,1,0,0:0:0:0:
192,136,55172,1,8,0:0:0:0:
192,136,55322,1,0,0:0:0:0:
192,136,55472,1,8,0:0:0:0:
192,136,55622,1,8,0:0:0:0:
192,136,55697,1,8,0:0:0:0:
192,136,55772,1,0,0:0:0:0:
192,136,55922,1,0,0:0:0:0:
192,136,56072,1,8,0:0:0:0:
192,136,56222,1,0,0:0:0:0:
192,136,56297,1,0,0:0:0:0:
192,136,56372,1,8,0:0:0:0:
192,136,56522,1,0,0:0:0:0:
200,64,56672,1,8,0:0:0:0:
200,96,56747,1,8,0:0:0:0:
200,96,56822,1,0,0:0:0:0:
200,96,56897,1,8,0:0:0:0:
200,96,56972,1,0,0:0:0:0:
232,104,57122,1,8,0:0:0:0:
232,104,57197,1,8,0:0:0:0:
232,104,57272,1,0,0:0:0:0:
232,104,57347,1,0,0:0:0:0:
232,104,57422,1,8,0:0:0:0:
232,104,57497,1,8,0:0:0:0:
232,104,57572,1,0,0:0:0:0:
232,104,57647,1,0,0:0:0:0:
232,104,57722,1,8,0:0:0:0:
232,104,57797,1,0,0:0:0:0:
232,104,57872,1,8,0:0:0:0:
232,104,57947,1,8,0:0:0:0:
232,104,58022,1,0,0:0:0:0:
232,104,58097,1,0,0:0:0:0:
232,104,58172,1,8,0:0:0:0:
232,104,58247,1,8,0:0:0:0:
232,104,58322,1,0,0:0:0:0:
232,104,58397,1,0,0:0:0:0:
232,104,58472,1,8,0:0:0:0:
232,104,58547,1,0,0:0:0:0:
232,104,58622,1,8,0:0:0:0:
232,104,58697,1,8,0:0:0:0:
232,104,58772,1,0,0:0:0:0:
232,104,58847,1,0,0:0:0:0:
264,128,58922,1,8,0:0:0:0:
264,128,58997,1,8,0:0:0:0:
264,128,59072,1,8,0:0:0:0:
264,128,59147,1,8,0:0:0:0:
264,128,59222,1,0,0:0:0:0:
264,128,59297,1,0,0:0:0:0:
264,128,59372,1,0,0:0:0:0:
184,144,59447,1,0,0:0:0:0:
192,144,59522,1,8,0:0:0:0:
256,128,59672,1,8,0:0:0:0:
184,144,59822,1,0,0:0:0:0:
216,136,59897,1,0,0:0:0:0:
216,136,59972,1,0,0:0:0:0:
216,136,60047,1,0,0:0:0:0:
184,136,60122,1,8,0:0:0:0:
184,136,60272,1,8,0:0:0:0:
184,136,60422,1,0,0:0:0:0:
184,136,60497,1,0,0:0:0:0:
184,136,60572,1,8,0:0:0:0:
184,136,60647,1,0,0:0:0:0:
184,136,60722,1,8,0:0:0:0:
184,136,60872,1,8,0:0:0:0:
184,136,61022,1,0,0:0:0:0:
184,136,61097,1,0,0:0:0:0:
184,136,61172,1,8,0:0:0:0:
184,136,61247,1,0,0:0:0:0:
184,136,61322,1,0,0:0:0:0:
184,136,61472,1,8,0:0:0:0:
184,136,61622,1,0,0:0:0:0:
184,136,61697,1,0,0:0:0:0:
184,136,61772,1,8,0:0:0:0:
192,144,61922,2,0,B|328:288|344:280|472:40,1,420
216,152,63122,1,8,0:0:0:0:
216,152,63197,1,8,0:0:0:0:
216,152,63272,1,0,0:0:0:0:
184,136,63347,1,0,0:0:0:0:
216,152,63422,1,8,0:0:0:0:
216,152,63497,1,0,0:0:0:0:
216,152,63572,1,0,0:0:0:0:
216,152,63647,1,8,0:0:0:0:
216,152,63722,1,0,0:0:0:0:
216,152,63797,1,0,0:0:0:0:
216,152,63872,1,8,0:0:0:0:
216,152,63947,1,0,0:0:0:0:
216,152,64022,1,8,0:0:0:0:
216,152,64172,1,8,0:0:0:0:
184,136,64322,1,4,0:0:0:0:
184,136,64472,1,8,0:0:0:0:
184,136,64622,1,0,0:0:0:0:
184,136,64697,1,0,0:0:0:0:
184,136,64772,1,8,0:0:0:0:
184,136,64922,1,0,0:0:0:0:
184,136,65072,1,8,0:0:0:0:
184,136,65222,1,0,0:0:0:0:
184,136,65297,1,0,0:0:0:0:
184,136,65372,1,8,0:0:0:0:
184,136,65522,1,0,0:0:0:0:
184,136,65672,1,8,0:0:0:0:
184,136,65747,1,8,0:0:0:0:
184,136,65822,1,0,0:0:0:0:
184,136,65972,1,8,0:0:0:0:
184,136,66122,1,0,0:0:0:0:
184,136,66272,1,8,0:0:0:0:
184,136,66422,1,8,0:0:0:0:
184,136,66497,1,8,0:0:0:0:
184,136,66572,1,0,0:0:0:0:
224,152,66722,1,12,0:0:0:0:
224,152,67022,1,4,0:0:0:0:
224,152,67322,1,12,0:0:0:0:
224,152,67472,1,12,0:0:0:0:
224,152,67772,1,4,0:0:0:0:
224,152,68072,1,0,0:0:0:0:
224,152,68147,1,0,0:0:0:0:
224,152,68222,1,8,0:0:0:0:
224,152,68297,1,8,0:0:0:0:
224,152,68372,1,8,0:0:0:0:
224,152,68447,1,8,0:0:0:0:
224,152,68522,1,0,0:0:0:0:
224,152,68597,1,0,0:0:0:0:
224,152,68672,1,0,0:0:0:0:
224,152,68747,1,0,0:0:0:0:
224,152,68822,1,8,0:0:0:0:
224,152,68897,1,8,0:0:0:0:
224,152,68972,1,0,0:0:0:0:
224,152,69122,1,8,0:0:0:0:
208,120,69197,1,0,0:0:0:0:
208,120,69272,1,0,0:0:0:0:
208,120,69347,1,0,0:0:0:0:
224,152,69422,1,8,0:0:0:0:
208,120,69497,1,0,0:0:0:0:
208,120,69572,1,0,0:0:0:0:
208,120,69647,1,0,0:0:0:0:
224,152,69722,1,8,0:0:0:0:
208,120,69797,1,0,0:0:0:0:
208,120,69872,1,0,0:0:0:0:
208,120,69947,1,0,0:0:0:0:
224,152,70022,1,8,0:0:0:0:
208,120,70097,1,0,0:0:0:0:
208,120,70172,1,0,0:0:0:0:
208,120,70247,1,0,0:0:0:0:
224,152,70322,1,8,0:0:0:0:
224,152,70397,1,8,0:0:0:0:
208,120,70472,1,0,0:0:0:0:
208,120,70547,1,0,0:0:0:0:
224,152,70622,1,8,0:0:0:0:
224,152,70697,1,8,0:0:0:0:
208,120,70772,1,0,0:0:0:0:
208,120,70847,1,0,0:0:0:0:
224,152,70922,1,8,0:0:0:0:
224,152,70997,1,8,0:0:0:0:
208,120,71072,1,0,0:0:0:0:
208,120,71147,1,0,0:0:0:0:
224,152,71222,1,8,0:0:0:0:
224,152,71297,1,8,0:0:0:0:
208,120,71372,1,0,0:0:0:0:
208,120,71447,1,0,0:0:0:0:
208,144,71522,1,8,0:0:0:0:
224,152,71597,1,8,0:0:0:0:
224,152,71672,1,8,0:0:0:0:
224,152,71747,1,8,0:0:0:0:
224,152,71822,1,0,0:0:0:0:
224,152,71897,1,0,0:0:0:0:
224,152,71972,1,8,0:0:0:0:
224,152,72047,1,8,0:0:0:0:
224,152,72122,1,8,0:0:0:0:
224,152,72197,1,8,0:0:0:0:
224,152,72272,1,0,0:0:0:0:
224,152,72347,1,0,0:0:0:0:
224,152,72422,1,8,0:0:0:0:
224,152,72497,1,8,0:0:0:0:
224,152,72572,1,8,0:0:0:0:
224,152,72647,1,8,0:0:0:0:
224,152,72722,1,0,0:0:0:0:
224,152,72797,1,0,0:0:0:0:
224,152,72872,1,0,0:0:0:0:
208,144,72947,1,0,0:0:0:0:
224,152,73022,1,8,0:0:0:0:
240,160,73097,1,0,0:0:0:0:
240,160,73172,1,8,0:0:0:0:
224,152,73247,1,8,0:0:0:0:
224,152,73322,1,0,0:0:0:0:
224,152,73397,1,8,0:0:0:0:
224,152,73472,1,8,0:0:0:0:
224,152,73547,1,0,0:0:0:0:
224,152,73622,1,8,0:0:0:0:
224,152,73697,1,0,0:0:0:0:
224,152,73772,1,0,0:0:0:0:
224,152,73847,1,0,0:0:0:0:
240,160,73922,1,8,0:0:0:0:
240,160,75047,1,8,0:0:0:0:
240,160,76322,1,8,0:0:0:0:
184,120,76472,1,0,0:0:0:0:
216,136,76547,1,0,0:0:0:0:
216,136,76622,1,0,0:0:0:0:
216,136,76772,1,8,0:0:0:0:
216,136,76922,1,0,0:0:0:0:
216,136,76997,1,0,0:0:0:0:
216,136,77072,1,0,0:0:0:0:
216,136,77147,1,0,0:0:0:0:
216,136,77222,1,8,0:0:0:0:
216,136,77372,1,0,0:0:0:0:
216,136,77522,1,8,0:0:0:0:
216,136,77672,1,0,0:0:0:0:
216,136,77747,1,0,0:0:0:0:
216,136,77822,1,0,0:0:0:0:
216,136,77972,1,8,0:0:0:0:
216,136,78122,1,0,0:0:0:0:
216,136,78197,1,0,0:0:0:0:
216,136,78272,1,0,0:0:0:0:
216,136,78347,1,0,0:0:0:0:
216,136,78422,1,8,0:0:0:0:
272,88,78572,1,0,0:0:0:0:
248,96,78622,1,0,0:0:0:0:
232,112,78672,1,0,0:0:0:0:
232,112,78722,1,8,0:0:0:0:
160,112,78872,1,0,0:0:0:0:
232,112,79022,1,0,0:0:0:0:
160,112,79172,1,8,0:0:0:0:
232,112,79322,1,0,0:0:0:0:
160,112,79397,1,0,0:0:0:0:
160,112,79472,1,0,0:0:0:0:
232,112,79622,1,8,0:0:0:0:
288,160,79772,1,0,0:0:0:0:
288,160,79847,1,0,0:0:0:0:
288,160,79922,1,8,0:0:0:0:
232,120,80072,1,0,0:0:0:0:
168,88,80222,1,0,0:0:0:0:
232,120,80372,1,8,0:0:0:0:
168,88,80522,1,0,0:0:0:0:
200,104,80597,1,0,0:0:0:0:
200,104,80672,1,0,0:0:0:0:
200,104,80822,1,8,0:0:0:0:
272,144,80972,1,0,0:0:0:0:
272,144,81047,1,0,0:0:0:0:
272,144,81122,1,8,0:0:0:0:
272,144,81197,1,0,0:0:0:0:
272,144,81272,1,0,0:0:0:0:
272,144,81347,1,0,0:0:0:0:
272,144,81422,1,8,0:0:0:0:
272,144,81497,1,8,0:0:0:0:
272,144,81572,1,0,0:0:0:0:
272,144,81647,1,0,0:0:0:0:
272,144,81722,1,8,0:0:0:0:
272,144,81797,1,8,0:0:0:0:
272,144,81872,1,0,0:0:0:0:
240,120,81947,1,0,0:0:0:0:
208,104,82022,1,8,0:0:0:0:
208,104,82097,1,0,0:0:0:0:
208,104,82172,1,8,0:0:0:0:
240,160,82322,5,4,0:0:0:0:
240,160,82622,1,12,0:0:0:0:
240,160,82922,1,4,0:0:0:0:
240,160,83222,1,12,0:0:0:0:
104,128,83522,1,4,0:0:0:0:
176,128,83672,1,8,0:0:0:0:
248,128,83822,1,0,0:0:0:0:
216,128,83897,1,0,0:0:0:0:
184,128,83972,1,8,0:0:0:0:
176,128,84122,1,0,0:0:0:0:
176,128,84272,1,8,0:0:0:0:
176,128,84347,1,8,0:0:0:0:
176,128,84422,1,0,0:0:0:0:
176,128,84497,1,0,0:0:0:0:
176,128,84572,1,8,0:0:0:0:
176,128,84722,1,0,0:0:0:0:
176,128,84872,1,8,0:0:0:0:
176,128,85022,1,0,0:0:0:0:
176,128,85097,1,0,0:0:0:0:
176,128,85172,1,8,0:0:0:0:
184,128,85322,1,0,0:0:0:0:
176,128,85397,1,0,0:0:0:0:
184,128,85472,1,8,0:0:0:0:
184,128,85547,1,8,0:0:0:0:
176,128,85622,1,0,0:0:0:0:
176,128,85772,1,0,0:0:0:0:
224,176,85922,1,8,0:0:0:0:
208,144,85997,1,0,0:0:0:0:
208,144,86072,1,0,0:0:0:0:
208,144,86147,1,0,0:0:0:0:
176,136,86222,1,0,0:0:0:0:
176,136,86297,1,0,0:0:0:0:
208,144,86372,1,8,0:0:0:0:
176,136,86447,1,0,0:0:0:0:
176,136,86522,1,0,0:0:0:0:
176,136,86597,1,0,0:0:0:0:
176,136,86672,1,0,0:0:0:0:
176,136,86747,1,0,0:0:0:0:
8,72,86822,1,8,0:0:0:0:
40,80,86897,1,0,0:0:0:0:
72,96,86972,1,0,0:0:0:0:
104,104,87047,1,0,0:0:0:0:
224,144,87122,1,8,0:0:0:0:
224,144,87197,1,8,0:0:0:0:
224,144,87272,1,0,0:0:0:0:
224,144,87347,1,0,0:0:0:0:
224,144,87422,1,8,0:0:0:0:
224,144,87497,1,8,0:0:0:0:
224,144,87572,1,0,0:0:0:0:
224,144,87647,1,0,0:0:0:0:
224,144,87722,1,8,0:0:0:0:
224,144,87797,1,8,0:0:0:0:
224,144,87872,1,0,0:0:0:0:
224,144,87947,1,0,0:0:0:0:
192,128,88022,1,8,0:0:0:0:
192,128,88097,1,8,0:0:0:0:
192,128,88172,1,8,0:0:0:0:
192,128,88247,1,8,0:0:0:0:
224,120,88322,1,0,0:0:0:0:
256,96,88397,1,0,0:0:0:0:
232,120,88472,1,8,0:0:0:0:
232,120,88547,1,0,0:0:0:0:
232,120,88622,1,8,0:0:0:0:
232,120,88697,1,8,0:0:0:0:
232,120,88772,1,0,0:0:0:0:
232,120,88847,1,8,0:0:0:0:
232,120,88922,1,0,0:0:0:0:
232,120,88997,1,0,0:0:0:0:
232,120,89072,1,8,0:0:0:0:
232,120,89147,1,0,0:0:0:0:
232,120,89222,1,8,0:0:0:0:
232,120,89297,1,8,0:0:0:0:
232,120,89372,1,0,0:0:0:0:
232,120,89447,1,8,0:0:0:0:
224,120,89522,1,0,0:0:0:0:
256,96,89597,1,0,0:0:0:0:
232,120,89672,1,8,0:0:0:0:
232,120,89747,1,0,0:0:0:0:
232,120,89822,1,8,0:0:0:0:
232,120,89897,1,8,0:0:0:0:
232,120,89972,1,0,0:0:0:0:
232,120,90047,1,8,0:0:0:0:
232,120,90122,1,0,0:0:0:0:
232,120,90197,1,0,0:0:0:0:
232,120,90272,1,8,0:0:0:0:
232,120,90347,1,0,0:0:0:0:
232,120,90422,1,8,0:0:0:0:
232,120,90497,1,8,0:0:0:0:
232,120,90572,1,0,0:0:0:0:
232,120,90647,1,8,0:0:0:0:
200,120,90722,1,0,0:0:0:0:
200,120,90872,1,8,0:0:0:0:
232,120,91022,1,0,0:0:0:0:
224,120,91097,1,0,0:0:0:0:
232,120,91172,1,8,0:0:0:0:
232,120,91322,1,0,0:0:0:0:
232,120,91472,1,8,0:0:0:0:
200,120,91547,1,0,0:0:0:0:
136,136,91697,1,0,0:0:0:0:
200,120,91772,1,8,0:0:0:0:
176,56,91922,1,8,0:0:0:0:
184,88,91997,1,8,0:0:0:0:
200,120,92072,1,0,0:0:0:0:
200,120,92147,1,0,0:0:0:0:
184,88,92222,1,8,0:0:0:0:
184,88,92297,1,8,0:0:0:0:
184,88,92372,1,8,0:0:0:0:
184,88,92447,1,8,0:0:0:0:
216,96,92522,1,0,0:0:0:0:
184,88,92597,1,0,0:0:0:0:
184,88,92672,1,8,0:0:0:0:
184,88,92747,1,0,0:0:0:0:
184,88,92822,1,8,0:0:0:0:
184,88,92897,1,8,0:0:0:0:
184,88,92972,1,8,0:0:0:0:
184,88,93047,1,8,0:0:0:0:
224,120,93122,1,0,0:0:0:0:
256,96,93197,1,0,0:0:0:0:
232,120,93272,1,8,0:0:0:0:
232,120,93347,1,0,0:0:0:0:
232,120,93422,1,8,0:0:0:0:
232,120,93497,1,8,0:0:0:0:
232,120,93572,1,0,0:0:0:0:
232,120,93647,1,8,0:0:0:0:
232,120,93722,1,0,0:0:0:0:
232,120,93797,1,0,0:0:0:0:
232,120,93872,1,8,0:0:0:0:
232,120,93947,1,0,0:0:0:0:
232,120,94022,1,8,0:0:0:0:
232,120,94097,1,8,0:0:0:0:
232,120,94172,1,0,0:0:0:0:
232,120,94247,1,8,0:0:0:0:
224,120,94322,1,0,0:0:0:0:
256,96,94397,1,0,0:0:0:0:
232,120,94472,1,8,0:0:0:0:
232,120,94547,1,0,0:0:0:0:
232,120,94622,1,8,0:0:0:0:
232,120,94697,1,8,0:0:0:0:
232,120,94772,1,0,0:0:0:0:
232,120,94847,1,8,0:0:0:0:
232,120,94922,1,0,0:0:0:0:
232,120,94997,1,0,0:0:0:0:
232,120,95072,1,8,0:0:0:0:
232,120,95147,1,0,0:0:0:0:
232,120,95222,1,8,0:0:0:0:
232,120,95297,1,8,0:0:0:0:
232,120,95372,1,0,0:0:0:0:
232,120,95447,1,8,0:0:0:0:
200,120,95522,1,0,0:0:0:0:
224,120,95672,1,8,0:0:0:0:
224,120,95822,1,0,0:0:0:0:
224,120,95897,1,0,0:0:0:0:
200,120,95972,1,8,0:0:0:0:
200,120,96122,1,0,0:0:0:0:
200,120,96272,1,8,0:0:0:0:
200,120,96347,1,0,0:0:0:0:
200,120,96497,1,0,0:0:0:0:
200,120,96572,1,8,0:0:0:0:
200,120,96722,1,0,0:0:0:0:
200,120,96872,1,8,0:0:0:0:
200,120,97022,1,0,0:0:0:0:
200,120,97097,1,0,0:0:0:0:
200,120,97172,1,8,0:0:0:0:
200,120,97322,1,0,0:0:0:0:
200,120,97472,1,8,0:0:0:0:
168,120,97547,1,8,0:0:0:0:
200,120,97622,1,0,0:0:0:0:
200,120,97697,1,8,0:0:0:0:
200,120,97772,1,0,0:0:0:0:
224,96,97922,1,8,0:0:0:0:
192,96,97997,1,0,0:0:0:0:
192,96,98072,1,0,0:0:0:0:
192,96,98147,1,0,0:0:0:0:
192,96,98222,1,0,0:0:0:0:
192,96,98297,1,0,0:0:0:0:
24,96,98372,1,8,0:0:0:0:
192,96,98447,1,0,0:0:0:0:
192,96,98522,1,0,0:0:0:0:
192,96,98597,1,0,0:0:0:0:
192,96,98672,1,0,0:0:0:0:
192,96,98747,1,0,0:0:0:0:
240,96,98822,1,8,0:0:0:0:
192,96,98897,1,0,0:0:0:0:
192,96,98972,1,0,0:0:0:0:
192,96,99047,1,0,0:0:0:0:
112,96,99122,1,8,0:0:0:0:
192,96,99197,1,0,0:0:0:0:
192,96,99272,1,0,0:0:0:0:
192,96,99347,1,0,0:0:0:0:
192,96,99422,1,0,0:0:0:0:
208,64,99497,1,0,0:0:0:0:
208,64,99572,1,8,0:0:0:0:
208,64,99647,1,0,0:0:0:0:
208,64,99722,1,0,0:0:0:0:
208,64,99797,1,0,0:0:0:0:
208,64,99872,1,0,0:0:0:0:
208,64,99947,1,0,0:0:0:0:
104,96,100022,1,8,0:0:0:0:
136,80,100097,1,0,0:0:0:0:
168,64,100172,1,0,0:0:0:0:
168,64,100247,1,0,0:0:0:0:
240,96,100322,1,8,0:0:0:0:
240,96,100397,1,8,0:0:0:0:
240,96,100472,1,8,0:0:0:0:
208,80,100547,1,8,0:0:0:0:
224,232,100622,1,0,0:0:0:0:
168,64,100697,1,0,0:0:0:0:
168,64,100772,1,8,0:0:0:0:
168,64,100847,1,8,0:0:0:0:
168,64,100922,1,8,0:0:0:0:
168,64,100997,1,8,0:0:0:0:
192,96,101072,1,0,0:0:0:0:
168,64,101147,1,0,0:0:0:0:
168,64,101222,1,8,0:0:0:0:
168,64,101297,1,8,0:0:0:0:
168,64,101372,1,0,0:0:0:0:
168,64,101447,1,0,0:0:0:0:
240,96,101522,1,8,0:0:0:0:
248,128,101597,1,8,0:0:0:0:
248,128,101672,1,0,0:0:0:0:
248,128,101747,1,0,0:0:0:0:
248,128,101822,1,8,0:0:0:0:
248,128,101897,1,0,0:0:0:0:
248,128,101972,1,0,0:0:0:0:
248,128,102047,1,0,0:0:0:0:
248,128,102122,1,8,0:0:0:0:
248,128,102197,1,0,0:0:0:0:
248,128,102272,1,0,0:0:0:0:
248,128,102347,1,0,0:0:0:0:
248,128,102422,1,8,0:0:0:0:
248,128,102497,1,8,0:0:0:0:
248,128,102572,1,8,0:0:0:0:
248,128,102647,1,8,0:0:0:0:
248,128,102722,1,0,0:0:0:0:
248,128,102797,1,0,0:0:0:0:
248,128,102872,1,8,0:0:0:0:
248,128,102947,1,0,0:0:0:0:
248,128,103022,1,8,0:0:0:0:
248,128,103097,1,8,0:0:0:0:
248,128,103172,1,0,0:0:0:0:
248,128,103247,1,8,0:0:0:0:
248,128,103322,1,0,0:0:0:0:
248,128,103397,1,0,0:0:0:0:
248,128,103472,1,8,0:0:0:0:
248,128,103547,1,0,0:0:0:0:
248,128,103622,1,8,0:0:0:0:
248,128,103697,1,8,0:0:0:0:
248,128,103772,1,0,0:0:0:0:
248,128,103847,1,8,0:0:0:0:
248,128,103922,1,0,0:0:0:0:
248,128,103997,1,0,0:0:0:0:
248,128,104072,1,8,0:0:0:0:
248,128,104147,1,0,0:0:0:0:
248,128,104222,1,8,0:0:0:0:
248,128,104297,1,8,0:0:0:0:
248,128,104372,1,0,0:0:0:0:
248,128,104447,1,0,0:0:0:0:
240,96,104522,1,8,0:0:0:0:
200,152,104672,1,8,0:0:0:0:
224,88,104822,1,0,0:0:0:0:
216,120,104897,1,0,0:0:0:0:
216,120,104972,1,8,0:0:0:0:
216,120,105047,1,8,0:0:0:0:
248,128,105122,1,0,0:0:0:0:
248,128,105197,1,0,0:0:0:0:
248,128,105272,1,8,0:0:0:0:
248,128,105347,1,0,0:0:0:0:
248,128,105422,1,8,0:0:0:0:
248,128,105497,1,8,0:0:0:0:
248,128,105572,1,0,0:0:0:0:
248,128,105647,1,8,0:0:0:0:
248,128,105722,1,0,0:0:0:0:
248,128,105797,1,0,0:0:0:0:
248,128,105872,1,8,0:0:0:0:
248,128,105947,1,0,0:0:0:0:
248,128,106022,1,8,0:0:0:0:
248,128,106097,1,8,0:0:0:0:
248,128,106172,1,0,0:0:0:0:
248,128,106247,1,8,0:0:0:0:
216,112,106322,1,0,0:0:0:0:
184,96,106397,1,0,0:0:0:0:
184,96,106472,1,8,0:0:0:0:
184,96,106547,1,8,0:0:0:0:
184,96,106622,1,0,0:0:0:0:
184,96,106697,1,0,0:0:0:0:
184,96,106772,1,8,0:0:0:0:
184,96,106847,1,8,0:0:0:0:
184,96,106922,1,0,0:0:0:0:
184,96,106997,1,0,0:0:0:0:
184,96,107072,1,8,0:0:0:0:
184,96,107147,1,0,0:0:0:0:
184,96,107222,1,8,0:0:0:0:
184,96,107522,1,4,0:0:0:0:
232,48,107672,1,0,0:0:0:0:
184,96,107822,1,8,0:0:0:0:
184,96,107897,1,8,0:0:0:0:
184,96,107972,1,0,0:0:0:0:
184,96,108122,1,0,0:0:0:0:
184,96,108272,1,0,0:0:0:0:
184,96,108422,1,8,0:0:0:0:
184,96,108497,1,8,0:0:0:0:
184,96,108572,1,0,0:0:0:0:
160,32,108722,1,0,0:0:0:0:
184,96,108872,1,0,0:0:0:0:
160,32,109022,1,8,0:0:0:0:
176,64,109097,1,8,0:0:0:0:
176,64,109172,1,0,0:0:0:0:
176,64,109322,1,0,0:0:0:0:
176,64,109397,1,0,0:0:0:0:
176,64,109472,1,8,0:0:0:0:
176,64,109547,1,0,0:0:0:0:
176,64,109622,1,8,0:0:0:0:
176,64,109697,1,8,0:0:0:0:
176,64,109772,1,8,0:0:0:0:
176,64,109922,1,4,0:0:0:0:
200,128,110072,1,8,0:0:0:0:
256,168,110222,1,0,0:0:0:0:
240,136,110297,1,0,0:0:0:0:
240,136,110372,1,8,0:0:0:0:
240,136,110522,1,0,0:0:0:0:
240,136,110672,1,8,0:0:0:0:
240,136,110747,1,8,0:0:0:0:
240,136,110822,1,0,0:0:0:0:
240,136,110972,1,8,0:0:0:0:
240,136,111122,1,0,0:0:0:0:
240,136,111197,1,0,0:0:0:0:
240,136,111272,1,8,0:0:0:0:
240,136,111422,1,0,0:0:0:0:
240,136,111572,1,8,0:0:0:0:
240,136,111722,1,0,0:0:0:0:
240,136,111797,1,0,0:0:0:0:
240,136,111872,1,0,0:0:0:0:
240,136,112022,1,8,0:0:0:0:
240,136,112172,1,0,0:0:0:0:
240,136,112322,1,12,0:0:0:0:
200,56,113672,1,12,0:0:0:0:
200,56,113822,1,4,0:0:0:0:
200,56,113972,1,4,0:0:0:0:
200,56,114122,1,4,0:0:0:0:
200,56,114272,1,12,0:0:0:0:
200,56,114422,1,12,0:0:0:0:
64,72,114722,1,4,0:0:0:0:
256,192,114872,12,0,115622,0:0:0:0:
240,192,115922,5,4,0:0:0:0:
240,192,116072,1,8,0:0:0:0:
240,192,116222,1,0,0:0:0:0:
240,192,116297,1,0,0:0:0:0:
240,192,116372,1,8,0:0:0:0:
240,192,116522,1,0,0:0:0:0:
240,192,116672,1,8,0:0:0:0:
240,192,116747,1,8,0:0:0:0:
240,192,116822,1,0,0:0:0:0:
240,192,116972,1,8,0:0:0:0:
240,192,117122,1,0,0:0:0:0:
240,192,117272,1,8,0:0:0:0:
240,192,117572,1,8,0:0:0:0:
240,192,117722,1,0,0:0:0:0:
240,192,117872,1,0,0:0:0:0:
240,192,118022,1,8,0:0:0:0:
240,192,118172,1,0,0:0:0:0:
240,192,118322,1,0,0:0:0:0:
240,192,118472,1,8,0:0:0:0:
240,192,118622,1,0,0:0:0:0:
240,192,118697,1,0,0:0:0:0:
240,192,118772,1,8,0:0:0:0:
240,192,118922,1,0,0:0:0:0:
240,192,119072,1,8,0:0:0:0:
240,192,119147,1,8,0:0:0:0:
240,192,119222,1,0,0:0:0:0:
240,192,119372,1,8,0:0:0:0:
240,192,119522,1,0,0:0:0:0:
240,192,119672,1,8,0:0:0:0:
272,176,119747,1,8,0:0:0:0:
272,176,119822,1,0,0:0:0:0:
240,192,119972,1,8,0:0:0:0:
240,192,120122,1,0,0:0:0:0:
240,192,120197,1,0,0:0:0:0:
240,192,120272,1,0,0:0:0:0:
240,192,120422,1,8,0:0:0:0:
240,192,120572,1,0,0:0:0:0:
336,72,120722,2,0,B|112:168|112:168|120:352,1,420
184,224,121922,1,0,0:0:0:0:
224,168,122072,1,8,0:0:0:0:
224,168,122222,1,8,0:0:0:0:
224,168,122372,1,0,0:0:0:0:
224,168,122522,1,8,0:0:0:0:
224,168,122597,1,8,0:0:0:0:
224,168,122672,1,8,0:0:0:0:
224,168,122822,1,0,0:0:0:0:
224,168,122972,1,8,0:0:0:0:
224,168,123122,1,0,0:0:0:0:
224,168,123272,1,8,0:0:0:0:
224,168,123422,1,0,0:0:0:0:
224,168,123497,1,0,0:0:0:0:
224,168,123572,1,8,0:0:0:0:
184,112,123722,1,0,0:0:0:0:
184,112,123797,1,0,0:0:0:0:
184,112,123872,1,8,0:0:0:0:
184,112,124022,1,0,0:0:0:0:
184,112,124172,1,8,0:0:0:0:
224,168,124322,1,8,0:0:0:0:
200,144,124397,1,0,0:0:0:0:
200,144,124472,1,0,0:0:0:0:
200,144,124547,1,0,0:0:0:0:
200,32,124622,1,8,0:0:0:0:
208,64,124697,1,0,0:0:0:0:
208,96,124772,1,8,0:0:0:0:
216,128,124847,1,8,0:0:0:0:
216,128,124922,1,0,0:0:0:0:
216,128,124997,1,8,0:0:0:0:
216,128,125072,1,8,0:0:0:0:
216,128,125147,1,0,0:0:0:0:
216,128,125222,1,8,0:0:0:0:
216,128,125297,1,0,0:0:0:0:
216,128,125372,1,8,0:0:0:0:
216,128,125447,1,8,0:0:0:0:
216,128,125522,1,0,0:0:0:0:
208,96,125597,1,0,0:0:0:0:
208,96,125672,1,8,0:0:0:0:
208,96,125747,1,0,0:0:0:0:
208,96,125822,1,0,0:0:0:0:
208,96,125897,1,0,0:0:0:0:
208,96,125972,1,8,0:0:0:0:
208,96,126047,1,0,0:0:0:0:
208,96,126122,1,0,0:0:0:0:
208,96,126197,1,0,0:0:0:0:
208,96,126272,1,8,0:0:0:0:
208,96,126347,1,8,0:0:0:0:
208,96,126422,1,0,0:0:0:0:
208,96,126497,1,0,0:0:0:0:
208,96,126572,1,8,0:0:0:0:
208,96,126647,1,8,0:0:0:0:
208,96,126722,1,0,0:0:0:0:
208,96,126872,1,8,0:0:0:0:
176,104,126947,1,8,0:0:0:0:
176,104,127022,1,0,0:0:0:0:
208,96,127172,1,8,0:0:0:0:
208,96,127322,1,0,0:0:0:0:
208,96,127397,1,0,0:0:0:0:
208,96,127472,1,0,0:0:0:0:
208,96,127622,1,8,0:0:0:0:
208,96,127772,1,0,0:0:0:0:
216,128,127922,1,0,0:0:0:0:
208,96,127997,1,0,0:0:0:0:
208,96,128072,1,8,0:0:0:0:
208,96,128147,1,0,0:0:0:0:
208,96,128222,1,0,0:0:0:0:
208,96,128297,1,0,0:0:0:0:
208,96,128372,1,8,0:0:0:0:
208,96,128447,1,0,0:0:0:0:
208,96,128522,1,0,0:0:0:0:
208,96,128597,1,0,0:0:0:0:
208,96,128672,1,8,0:0:0:0:
208,96,128747,1,8,0:0:0:0:
208,96,128822,1,0,0:0:0:0:
208,96,128897,1,0,0:0:0:0:
208,96,128972,1,8,0:0:0:0:
208,96,129047,1,8,0:0:0:0:
208,96,129122,1,0,0:0:0:0:
144,72,129272,1,8,0:0:0:0:
80,48,129422,1,8,0:0:0:0:
88,120,129572,1,0,0:0:0:0:
80,48,129722,1,8,0:0:0:0:
88,80,129797,1,0,0:0:0:0:
88,80,129872,1,8,0:0:0:0:
88,80,129947,1,8,0:0:0:0:
88,80,130022,1,0,0:0:0:0:
88,80,130097,1,8,0:0:0:0:
88,80,130172,1,0,0:0:0:0:
336,64,130322,6,0,B|96:192|96:192|88:344,1,420
152,216,131522,1,0,0:0:0:0:
160,144,131672,1,8,0:0:0:0:
152,216,131822,1,8,0:0:0:0:
176,152,131972,1,0,0:0:0:0:
192,88,132122,1,8,0:0:0:0:
184,120,132197,1,8,0:0:0:0:
184,120,132272,1,8,0:0:0:0:
184,120,132422,1,0,0:0:0:0:
184,120,132572,1,8,0:0:0:0:
208,120,132722,1,8,0:0:0:0:
208,120,132797,1,0,0:0:0:0:
208,120,132872,1,0,0:0:0:0:
208,120,132947,1,0,0:0:0:0:
208,120,133022,1,8,0:0:0:0:
208,120,133097,1,8,0:0:0:0:
208,120,133172,1,0,0:0:0:0:
208,120,133247,1,0,0:0:0:0:
208,120,133322,1,8,0:0:0:0:
208,120,133397,1,0,0:0:0:0:
208,120,133472,1,8,0:0:0:0:
208,120,133547,1,8,0:0:0:0:
208,120,133622,1,0,0:0:0:0:
208,120,133697,1,0,0:0:0:0:
208,120,133772,1,8,0:0:0:0:
136,104,133922,1,0,0:0:0:0:
168,104,133997,1,0,0:0:0:0:
168,104,134072,1,0,0:0:0:0:
184,120,134147,1,0,0:0:0:0:
168,104,134222,1,8,0:0:0:0:
168,104,134297,1,0,0:0:0:0:
168,104,134372,1,8,0:0:0:0:
136,104,134447,1,8,0:0:0:0:
168,104,134522,1,0,0:0:0:0:
168,104,134597,1,0,0:0:0:0:
168,104,134672,1,0,0:0:0:0:
176,72,134747,1,0,0:0:0:0:
168,104,134822,1,8,0:0:0:0:
168,72,134897,1,8,0:0:0:0:
160,40,134972,1,8,0:0:0:0:
168,104,135122,1,4,0:0:0:0:
200,168,135272,1,8,0:0:0:0:
176,104,135422,1,0,0:0:0:0:
192,136,135497,1,0,0:0:0:0:
192,136,135572,1,8,0:0:0:0:
192,136,135722,1,0,0:0:0:0:
192,136,135872,1,8,0:0:0:0:
192,136,136022,1,8,0:0:0:0:
192,136,136097,1,8,0:0:0:0:
192,136,136172,1,0,0:0:0:0:
192,136,136322,1,0,0:0:0:0:
192,136,136472,1,8,0:0:0:0:
192,136,136622,1,0,0:0:0:0:
192,136,136697,1,0,0:0:0:0:
192,136,136772,1,8,0:0:0:0:
192,136,136922,1,0,0:0:0:0:
200,64,137072,1,8,0:0:0:0:
200,96,137147,1,8,0:0:0:0:
200,96,137222,1,0,0:0:0:0:
200,96,137297,1,8,0:0:0:0:
200,96,137372,1,0,0:0:0:0:
232,104,137522,1,8,0:0:0:0:
232,104,137597,1,8,0:0:0:0:
232,104,137672,1,0,0:0:0:0:
232,104,137747,1,0,0:0:0:0:
232,104,137822,1,8,0:0:0:0:
232,104,137897,1,8,0:0:0:0:
232,104,137972,1,0,0:0:0:0:
232,104,138047,1,0,0:0:0:0:
232,104,138122,1,8,0:0:0:0:
232,104,138197,1,0,0:0:0:0:
232,104,138272,1,8,0:0:0:0:
232,104,138347,1,8,0:0:0:0:
232,104,138422,1,0,0:0:0:0:
232,104,138497,1,0,0:0:0:0:
232,104,138572,1,8,0:0:0:0:
232,104,138647,1,8,0:0:0:0:
232,104,138722,1,0,0:0:0:0:
232,104,138797,1,0,0:0:0:0:
232,104,138872,1,8,0:0:0:0:
232,104,138947,1,0,0:0:0:0:
232,104,139022,1,8,0:0:0:0:
232,104,139097,1,8,0:0:0:0:
232,104,139172,1,0,0:0:0:0:
232,104,139247,1,0,0:0:0:0:
264,128,139322,1,8,0:0:0:0:
264,128,139397,1,8,0:0:0:0:
264,128,139472,1,8,0:0:0:0:
264,128,139547,1,8,0:0:0:0:
264,128,139622,1,0,0:0:0:0:
264,128,139697,1,0,0:0:0:0:
264,128,139772,1,0,0:0:0:0:
184,144,139847,1,0,0:0:0:0:
192,144,139922,1,8,0:0:0:0:
256,128,140072,1,8,0:0:0:0:
184,144,140222,1,0,0:0:0:0:
216,136,140297,1,0,0:0:0:0:
216,136,140372,1,0,0:0:0:0:
216,136,140447,1,0,0:0:0:0:
184,136,140522,1,8,0:0:0:0:
184,136,140672,1,8,0:0:0:0:
184,136,140822,1,0,0:0:0:0:
184,136,140897,1,0,0:0:0:0:
184,136,140972,1,8,0:0:0:0:
184,136,141047,1,0,0:0:0:0:
184,136,141122,1,8,0:0:0:0:
184,136,141272,1,8,0:0:0:0:
184,136,141422,1,0,0:0:0:0:
184,136,141497,1,0,0:0:0:0:
184,136,141572,1,8,0:0:0:0:
184,136,141647,1,0,0:0:0:0:
184,136,141722,1,0,0:0:0:0:
184,136,141872,1,8,0:0:0:0:
184,136,142022,1,0,0:0:0:0:
184,136,142097,1,0,0:0:0:0:
184,136,142172,1,8,0:0:0:0:
192,144,142322,2,0,B|328:288|344:280|472:40,1,420
216,152,143522,1,8,0:0:0:0:
216,152,143597,1,8,0:0:0:0:
216,152,143672,1,0,0:0:0:0:
184,136,143747,1,0,0:0:0:0:
216,152,143822,1,8,0:0:0:0:
216,152,143897,1,0,0:0:0:0:
216,152,143972,1,0,0:0:0:0:
216,152,144047,1,8,0:0:0:0:
216,152,144122,1,0,0:0:0:0:
216,152,144197,1,0,0:0:0:0:
216,152,144272,1,8,0:0:0:0:
216,152,144347,1,0,0:0:0:0:
216,152,144422,1,8,0:0:0:0:
216,152,144572,1,8,0:0:0:0:
160,112,144722,1,0,0:0:0:0:
136,88,144797,1,0,0:0:0:0:
112,64,144872,1,8,0:0:0:0:
112,64,144947,1,0,0:0:0:0:
112,64,145022,1,0,0:0:0:0:
112,64,145097,1,0,0:0:0:0:
112,64,145172,1,8,0:0:0:0:
112,64,145247,1,8,0:0:0:0:
112,64,145322,1,0,0:0:0:0:
112,64,145397,1,0,0:0:0:0:
112,64,145472,1,8,0:0:0:0:
112,64,145547,1,0,0:0:0:0:
112,64,145622,1,0,0:0:0:0:
112,64,145697,1,0,0:0:0:0:
112,64,145772,1,8,0:0:0:0:
112,64,145847,1,8,0:0:0:0:
136,88,145922,1,0,0:0:0:0:
136,88,145997,1,0,0:0:0:0:
136,88,146072,1,8,0:0:0:0:
136,88,146147,1,8,0:0:0:0:
136,88,146222,1,0,0:0:0:0:
136,88,146297,1,0,0:0:0:0:
136,88,146372,1,8,0:0:0:0:
136,88,146447,1,8,0:0:0:0:
136,88,146522,1,0,0:0:0:0:
136,88,146597,1,0,0:0:0:0:
136,88,146672,1,8,0:0:0:0:
136,88,146747,1,0,0:0:0:0:
136,88,146822,1,8,0:0:0:0:
224,152,146897,1,8,0:0:0:0:
224,152,146972,1,0,0:0:0:0:
224,152,147122,1,12,0:0:0:0:
224,152,147422,1,4,0:0:0:0:
224,152,147722,1,12,0:0:0:0:
224,152,147872,1,12,0:0:0:0:
224,152,148172,1,4,0:0:0:0:
224,152,148472,1,0,0:0:0:0:
224,152,148547,1,0,0:0:0:0:
224,152,148622,1,8,0:0:0:0:
224,152,148697,1,8,0:0:0:0:
224,152,148772,1,8,0:0:0:0:
224,152,148847,1,8,0:0:0:0:
224,152,148922,1,0,0:0:0:0:
224,152,148997,1,0,0:0:0:0:
224,152,149072,1,0,0:0:0:0:
224,152,149147,1,0,0:0:0:0:
224,152,149222,1,8,0:0:0:0:
224,152,149297,1,8,0:0:0:0:
224,152,149372,1,0,0:0:0:0:
224,152,149522,1,8,0:0:0:0:
208,120,149597,1,0,0:0:0:0:
208,120,149672,1,0,0:0:0:0:
208,120,149747,1,0,0:0:0:0:
224,152,149822,1,8,0:0:0:0:
208,120,149897,1,0,0:0:0:0:
208,120,149972,1,0,0:0:0:0:
208,120,150047,1,0,0:0:0:0:
224,152,150122,1,8,0:0:0:0:
208,120,150197,1,0,0:0:0:0:
208,120,150272,1,0,0:0:0:0:
208,120,150347,1,0,0:0:0:0:
224,152,150422,1,8,0:0:0:0:
208,120,150497,1,0,0:0:0:0:
208,120,150572,1,0,0:0:0:0:
208,120,150647,1,0,0:0:0:0:
224,152,150722,1,8,0:0:0:0:
224,152,150797,1,8,0:0:0:0:
208,120,150872,1,0,0:0:0:0:
208,120,150947,1,0,0:0:0:0:
224,152,151022,1,8,0:0:0:0:
224,152,151097,1,8,0:0:0:0:
208,120,151172,1,0,0:0:0:0:
208,120,151247,1,0,0:0:0:0:
224,152,151322,1,8,0:0:0:0:
224,152,151397,1,8,0:0:0:0:
208,120,151472,1,0,0:0:0:0:
208,120,151547,1,0,0:0:0:0:
224,152,151622,1,8,0:0:0:0:
224,152,151697,1,8,0:0:0:0:
208,120,151772,1,0,0:0:0:0:
208,120,151847,1,0,0:0:0:0:
232,96,151922,1,8,0:0:0:0:
208,120,151997,1,8,0:0:0:0:
208,120,152072,1,0,0:0:0:0:
208,120,152147,1,0,0:0:0:0:
208,120,152222,1,8,0:0:0:0:
208,120,152297,1,8,0:0:0:0:
208,120,152372,1,8,0:0:0:0:
208,120,152447,1,8,0:0:0:0:
208,120,152522,1,0,0:0:0:0:
208,120,152597,1,0,0:0:0:0:
208,120,152672,1,8,0:0:0:0:
208,120,152747,1,8,0:0:0:0:
208,120,152822,1,0,0:0:0:0:
208,120,152897,1,0,0:0:0:0:
208,120,152972,1,0,0:0:0:0:
208,120,153047,1,0,0:0:0:0:
208,120,153122,1,8,0:0:0:0:
208,120,153197,1,0,0:0:0:0:
208,120,153272,1,8,0:0:0:0:
208,120,153347,1,8,0:0:0:0:
208,120,153422,1,0,0:0:0:0:
208,120,153497,1,0,0:0:0:0:
208,120,153572,1,8,0:0:0:0:
208,120,153647,1,0,0:0:0:0:
208,120,153722,1,8,0:0:0:0:
208,120,153797,1,8,0:0:0:0:
208,120,153872,1,0,0:0:0:0:
208,120,153947,1,0,0:0:0:0:
208,120,154022,1,8,0:0:0:0:
240,120,154097,1,0,0:0:0:0:
240,120,154172,1,8,0:0:0:0:
240,120,154247,1,8,0:0:0:0:
240,120,154322,1,0,0:0:0:0:
240,160,155372,1,8,0:0:0:0:
240,160,156722,1,8,0:0:0:0:
264,136,156797,1,0,0:0:0:0:
240,160,156872,1,8,0:0:0:0:
240,160,156947,1,0,0:0:0:0:
240,160,157022,1,8,0:0:0:0:
240,160,157097,1,0,0:0:0:0:
240,160,157172,1,8,0:0:0:0:
240,160,157247,1,0,0:0:0:0:
240,160,157322,1,8,0:0:0:0:
240,160,157397,1,0,0:0:0:0:
240,160,157472,1,8,0:0:0:0:
264,136,157547,1,0,0:0:0:0:
240,160,157622,1,8,0:0:0:0:
240,160,157697,1,8,0:0:0:0:
240,160,157772,1,0,0:0:0:0:
240,160,157847,1,0,0:0:0:0:
240,160,157922,1,8,0:0:0:0:
240,160,157997,1,0,0:0:0:0:
240,160,158072,1,8,0:0:0:0:
240,160,158147,1,0,0:0:0:0:
240,160,158222,1,8,0:0:0:0:
264,136,158297,1,0,0:0:0:0:
240,160,158372,1,8,0:0:0:0:
240,160,158447,1,0,0:0:0:0:
240,160,158522,1,8,0:0:0:0:
240,160,158597,1,0,0:0:0:0:
240,160,158672,1,8,0:0:0:0:
240,160,158747,1,0,0:0:0:0:
240,160,158822,1,8,0:0:0:0:
240,160,158897,1,8,0:0:0:0:
240,160,158972,1,0,0:0:0:0:
240,160,159047,1,0,0:0:0:0:
232,112,159122,1,8,0:0:0:0:
200,96,159197,1,8,0:0:0:0:
200,96,159272,1,8,0:0:0:0:
200,96,159347,1,8,0:0:0:0:
200,96,159422,1,0,0:0:0:0:
200,96,159497,1,0,0:0:0:0:
200,96,159572,1,8,0:0:0:0:
200,96,159647,1,8,0:0:0:0:
200,96,159722,1,8,0:0:0:0:
200,96,159797,1,8,0:0:0:0:
200,96,159872,1,0,0:0:0:0:
200,96,159947,1,0,0:0:0:0:
208,64,160022,1,8,0:0:0:0:
208,64,160097,1,8,0:0:0:0:
208,64,160172,1,0,0:0:0:0:
208,64,160247,1,0,0:0:0:0:
208,64,160322,1,8,0:0:0:0:
208,64,160397,1,0,0:0:0:0:
208,64,160472,1,0,0:0:0:0:
176,64,160547,1,0,0:0:0:0:
176,64,160622,1,8,0:0:0:0:
176,64,160697,1,0,0:0:0:0:
176,64,160772,1,0,0:0:0:0:
176,64,160847,1,0,0:0:0:0:
176,64,160922,1,8,0:0:0:0:
176,64,160997,1,8,0:0:0:0:
176,64,161072,1,0,0:0:0:0:
176,64,161147,1,0,0:0:0:0:
176,64,161222,1,8,0:0:0:0:
176,64,161297,1,8,0:0:0:0:
176,64,161372,1,0,0:0:0:0:
176,64,161447,1,8,0:0:0:0:
168,88,161522,1,0,0:0:0:0:
104,128,163922,1,4,0:0:0:0:
176,128,164072,1,8,0:0:0:0:
248,128,164222,1,0,0:0:0:0:
216,128,164297,1,0,0:0:0:0:
184,128,164372,1,8,0:0:0:0:
176,128,164522,1,0,0:0:0:0:
176,128,164672,1,8,0:0:0:0:
176,128,164747,1,8,0:0:0:0:
176,128,164822,1,0,0:0:0:0:
176,128,164897,1,0,0:0:0:0:
176,128,164972,1,8,0:0:0:0:
176,128,165122,1,0,0:0:0:0:
176,128,165272,1,8,0:0:0:0:
176,128,165422,1,0,0:0:0:0:
176,128,165497,1,0,0:0:0:0:
176,128,165572,1,8,0:0:0:0:
184,128,165722,1,0,0:0:0:0:
176,128,165797,1,0,0:0:0:0:
184,128,165872,1,8,0:0:0:0:
184,128,165947,1,8,0:0:0:0:
176,128,166022,1,0,0:0:0:0:
176,128,166172,1,0,0:0:0:0:
224,176,166322,1,8,0:0:0:0:
208,144,166397,1,0,0:0:0:0:
208,144,166472,1,0,0:0:0:0:
208,144,166547,1,0,0:0:0:0:
176,136,166622,1,0,0:0:0:0:
176,136,166697,1,0,0:0:0:0:
208,144,166772,1,8,0:0:0:0:
176,136,166847,1,0,0:0:0:0:
176,136,166922,1,0,0:0:0:0:
176,136,166997,1,0,0:0:0:0:
176,136,167072,1,0,0:0:0:0:
176,136,167147,1,0,0:0:0:0:
8,72,167222,1,8,0:0:0:0:
40,80,167297,1,0,0:0:0:0:
72,96,167372,1,0,0:0:0:0:
104,104,167447,1,0,0:0:0:0:
224,144,167522,1,8,0:0:0:0:
224,144,167597,1,8,0:0:0:0:
224,144,167672,1,0,0:0:0:0:
224,144,167747,1,0,0:0:0:0:
224,144,167822,1,8,0:0:0:0:
224,144,167897,1,8,0:0:0:0:
224,144,167972,1,0,0:0:0:0:
224,144,168047,1,0,0:0:0:0:
224,144,168122,1,8,0:0:0:0:
224,144,168197,1,8,0:0:0:0:
224,144,168272,1,0,0:0:0:0:
224,144,168347,1,0,0:0:0:0:
192,128,168422,1,8,0:0:0:0:
192,128,168497,1,8,0:0:0:0:
192,128,168572,1,8,0:0:0:0:
192,128,168647,1,8,0:0:0:0:
224,120,168722,1,0,0:0:0:0:
256,96,168797,1,0,0:0:0:0:
232,120,168872,1,8,0:0:0:0:
232,120,168947,1,0,0:0:0:0:
232,120,169022,1,8,0:0:0:0:
232,120,169097,1,8,0:0:0:0:
232,120,169172,1,0,0:0:0:0:
232,120,169247,1,8,0:0:0:0:
232,120,169322,1,0,0:0:0:0:
232,120,169397,1,0,0:0:0:0:
232,120,169472,1,8,0:0:0:0:
232,120,169547,1,0,0:0:0:0:
232,120,169622,1,8,0:0:0:0:
232,120,169697,1,8,0:0:0:0:
232,120,169772,1,0,0:0:0:0:
232,120,169847,1,8,0:0:0:0:
224,120,169922,1,0,0:0:0:0:
256,96,169997,1,0,0:0:0:0:
232,120,170072,1,8,0:0:0:0:
232,120,170147,1,0,0:0:0:0:
232,120,170222,1,8,0:0:0:0:
232,120,170297,1,8,0:0:0:0:
232,120,170372,1,0,0:0:0:0:
232,120,170447,1,8,0:0:0:0:
232,120,170522,1,0,0:0:0:0:
232,120,170597,1,0,0:0:0:0:
232,120,170672,1,8,0:0:0:0:
232,120,170747,1,0,0:0:0:0:
232,120,170822,1,8,0:0:0:0:
232,120,170897,1,8,0:0:0:0:
232,120,170972,1,0,0:0:0:0:
232,120,171047,1,8,0:0:0:0:
200,120,171122,1,0,0:0:0:0:
200,120,171272,1,8,0:0:0:0:
232,120,171422,1,0,0:0:0:0:
224,120,171497,1,0,0:0:0:0:
232,120,171572,1,8,0:0:0:0:
232,120,171722,1,0,0:0:0:0:
160,112,171872,1,8,0:0:0:0:
128,104,171947,1,0,0:0:0:0:
200,120,172097,1,0,0:0:0:0:
200,120,172172,1,8,0:0:0:0:
176,56,172322,1,8,0:0:0:0:
184,88,172397,1,8,0:0:0:0:
200,120,172472,1,0,0:0:0:0:
200,120,172547,1,0,0:0:0:0:
184,88,172622,1,8,0:0:0:0:
184,88,172697,1,8,0:0:0:0:
184,88,172772,1,8,0:0:0:0:
184,88,172847,1,8,0:0:0:0:
216,96,172922,1,0,0:0:0:0:
184,88,172997,1,0,0:0:0:0:
184,88,173072,1,8,0:0:0:0:
184,88,173147,1,0,0:0:0:0:
184,88,173222,1,8,0:0:0:0:
184,88,173297,1,8,0:0:0:0:
184,88,173372,1,8,0:0:0:0:
184,88,173447,1,8,0:0:0:0:
224,120,173522,1,0,0:0:0:0:
256,96,173597,1,0,0:0:0:0:
232,120,173672,1,8,0:0:0:0:
232,120,173747,1,0,0:0:0:0:
232,120,173822,1,8,0:0:0:0:
232,120,173897,1,8,0:0:0:0:
232,120,173972,1,0,0:0:0:0:
232,120,174047,1,8,0:0:0:0:
232,120,174122,1,0,0:0:0:0:
232,120,174197,1,0,0:0:0:0:
232,120,174272,1,8,0:0:0:0:
232,120,174347,1,0,0:0:0:0:
232,120,174422,1,8,0:0:0:0:
232,120,174497,1,8,0:0:0:0:
232,120,174572,1,0,0:0:0:0:
232,120,174647,1,8,0:0:0:0:
224,120,174722,1,0,0:0:0:0:
256,96,174797,1,0,0:0:0:0:
232,120,174872,1,8,0:0:0:0:
232,120,174947,1,0,0:0:0:0:
232,120,175022,1,8,0:0:0:0:
232,120,175097,1,8,0:0:0:0:
232,120,175172,1,0,0:0:0:0:
232,120,175247,1,8,0:0:0:0:
232,120,175322,1,0,0:0:0:0:
232,120,175397,1,0,0:0:0:0:
232,120,175472,1,8,0:0:0:0:
232,120,175547,1,0,0:0:0:0:
232,120,175622,1,8,0:0:0:0:
232,120,175697,1,8,0:0:0:0:
232,120,175772,1,0,0:0:0:0:
232,120,175847,1,8,0:0:0:0:
200,120,175922,1,0,0:0:0:0:
224,120,176072,1,8,0:0:0:0:
224,120,176222,1,0,0:0:0:0:
224,120,176297,1,0,0:0:0:0:
200,120,176372,1,8,0:0:0:0:
200,120,176522,1,0,0:0:0:0:
200,120,176672,1,8,0:0:0:0:
200,120,176747,1,0,0:0:0:0:
200,120,176897,1,0,0:0:0:0:
200,120,176972,1,8,0:0:0:0:
200,120,177122,1,0,0:0:0:0:
200,120,177272,1,8,0:0:0:0:
200,120,177422,1,0,0:0:0:0:
200,120,177497,1,0,0:0:0:0:
200,120,177572,1,8,0:0:0:0:
200,120,177722,1,0,0:0:0:0:
200,120,177872,1,8,0:0:0:0:
192,96,177947,1,8,0:0:0:0:
200,120,178022,1,0,0:0:0:0:
200,120,178097,1,8,0:0:0:0:
200,120,178172,1,0,0:0:0:0:
224,96,178322,1,8,0:0:0:0:
192,96,178397,1,0,0:0:0:0:
192,96,178472,1,0,0:0:0:0:
192,96,178547,1,0,0:0:0:0:
192,96,178622,1,0,0:0:0:0:
192,96,178697,1,0,0:0:0:0:
24,96,178772,1,8,0:0:0:0:
192,96,178847,1,0,0:0:0:0:
192,96,178922,1,0,0:0:0:0:
192,96,178997,1,0,0:0:0:0:
192,96,179072,1,0,0:0:0:0:
192,96,179147,1,0,0:0:0:0:
240,96,179222,1,8,0:0:0:0:
192,96,179297,1,0,0:0:0:0:
192,96,179372,1,0,0:0:0:0:
192,96,179447,1,0,0:0:0:0:
112,96,179522,1,8,0:0:0:0:
192,96,179597,1,0,0:0:0:0:
192,96,179672,1,0,0:0:0:0:
192,96,179747,1,0,0:0:0:0:
192,96,179822,1,0,0:0:0:0:
208,64,179897,1,0,0:0:0:0:
208,64,179972,1,8,0:0:0:0:
208,64,180047,1,0,0:0:0:0:
208,64,180122,1,0,0:0:0:0:
208,64,180197,1,0,0:0:0:0:
208,64,180272,1,0,0:0:0:0:
208,64,180347,1,0,0:0:0:0:
104,96,180422,1,8,0:0:0:0:
136,80,180497,1,0,0:0:0:0:
168,64,180572,1,0,0:0:0:0:
168,64,180647,1,0,0:0:0:0:
192,88,180722,1,8,0:0:0:0:
224,104,180797,1,8,0:0:0:0:
208,136,180872,1,0,0:0:0:0:
192,168,180947,1,0,0:0:0:0:
192,168,181022,1,8,0:0:0:0:
192,168,181097,1,8,0:0:0:0:
192,168,181172,1,8,0:0:0:0:
192,168,181247,1,8,0:0:0:0:
192,168,181322,1,0,0:0:0:0:
192,168,181397,1,0,0:0:0:0:
192,168,181472,1,8,0:0:0:0:
192,168,181547,1,8,0:0:0:0:
192,168,181622,1,0,0:0:0:0:
192,168,181697,1,0,0:0:0:0:
192,168,181772,1,8,0:0:0:0:
192,168,181847,1,0,0:0:0:0:
224,152,181922,1,8,0:0:0:0:
224,152,181997,1,8,0:0:0:0:
224,152,182072,1,8,0:0:0:0:
224,152,182147,1,8,0:0:0:0:
208,136,182222,1,0,0:0:0:0:
208,136,182297,1,0,0:0:0:0:
208,136,182372,1,0,0:0:0:0:
208,136,182447,1,0,0:0:0:0:
248,128,182522,1,8,0:0:0:0:
248,128,182597,1,8,0:0:0:0:
248,128,182672,1,8,0:0:0:0:
248,128,182747,1,8,0:0:0:0:
248,128,182822,1,0,0:0:0:0:
248,128,182897,1,0,0:0:0:0:
248,128,182972,1,8,0:0:0:0:
248,128,183047,1,8,0:0:0:0:
248,128,183122,1,0,0:0:0:0:
248,128,183197,1,0,0:0:0:0:
248,128,183272,1,8,0:0:0:0:
248,128,183347,1,0,0:0:0:0:
248,128,183422,1,8,0:0:0:0:
248,128,183497,1,8,0:0:0:0:
248,128,183572,1,0,0:0:0:0:
248,128,183647,1,8,0:0:0:0:
248,128,183722,1,0,0:0:0:0:
248,128,183797,1,0,0:0:0:0:
248,128,183872,1,8,0:0:0:0:
248,128,183947,1,0,0:0:0:0:
248,128,184022,1,8,0:0:0:0:
248,128,184097,1,8,0:0:0:0:
248,128,184172,1,0,0:0:0:0:
248,128,184247,1,8,0:0:0:0:
248,128,184322,1,0,0:0:0:0:
248,128,184397,1,0,0:0:0:0:
248,128,184472,1,8,0:0:0:0:
248,128,184547,1,0,0:0:0:0:
248,128,184622,1,8,0:0:0:0:
248,128,184697,1,8,0:0:0:0:
248,128,184772,1,8,0:0:0:0:
248,128,184847,1,8,0:0:0:0:
240,96,184922,1,0,0:0:0:0:
248,128,184997,1,0,0:0:0:0:
200,152,185072,1,8,0:0:0:0:
248,128,185147,1,8,0:0:0:0:
224,88,185222,1,0,0:0:0:0:
216,120,185297,1,0,0:0:0:0:
216,120,185372,1,8,0:0:0:0:
216,120,185447,1,8,0:0:0:0:
248,128,185522,1,0,0:0:0:0:
248,128,185597,1,0,0:0:0:0:
248,128,185672,1,8,0:0:0:0:
248,128,185747,1,0,0:0:0:0:
248,128,185822,1,8,0:0:0:0:
248,128,185897,1,8,0:0:0:0:
248,128,185972,1,0,0:0:0:0:
248,128,186047,1,8,0:0:0:0:
248,128,186122,1,0,0:0:0:0:
248,128,186197,1,0,0:0:0:0:
248,128,186272,1,8,0:0:0:0:
248,128,186347,1,0,0:0:0:0:
248,128,186422,1,8,0:0:0:0:
248,128,186497,1,8,0:0:0:0:
248,128,186572,1,0,0:0:0:0:
248,128,186647,1,8,0:0:0:0:
248,96,186722,1,0,0:0:0:0:
248,96,186797,1,0,0:0:0:0:
248,96,186872,1,0,0:0:0:0:
248,96,186947,1,0,0:0:0:0:
248,96,187022,1,8,0:0:0:0:
248,96,187097,1,8,0:0:0:0:
248,96,187172,1,8,0:0:0:0:
248,96,187247,1,8,0:0:0:0:
216,112,187322,1,0,0:0:0:0:
216,112,187397,1,8,0:0:0:0:
216,112,187472,1,0,0:0:0:0:
216,112,187547,1,0,0:0:0:0:
216,112,187622,1,8,0:0:0:0:
184,96,187922,1,4,0:0:0:0:
232,48,188072,1,0,0:0:0:0:
184,96,188222,1,8,0:0:0:0:
184,96,188297,1,8,0:0:0:0:
184,96,188372,1,0,0:0:0:0:
184,96,188522,1,0,0:0:0:0:
184,96,188672,1,0,0:0:0:0:
184,96,188822,1,8,0:0:0:0:
184,96,188897,1,8,0:0:0:0:
184,96,188972,1,0,0:0:0:0:
160,32,189122,1,0,0:0:0:0:
184,96,189272,1,0,0:0:0:0:
160,32,189422,1,8,0:0:0:0:
176,64,189497,1,8,0:0:0:0:
176,64,189572,1,0,0:0:0:0:
176,64,189722,1,0,0:0:0:0:
176,64,189797,1,0,0:0:0:0:
176,64,189872,1,8,0:0:0:0:
176,64,189947,1,0,0:0:0:0:
176,64,190022,1,8,0:0:0:0:
176,64,190097,1,8,0:0:0:0:
176,64,190172,1,8,0:0:0:0:
176,64,190322,1,4,0:0:0:0:
200,128,190472,1,8,0:0:0:0:
256,168,190622,1,0,0:0:0:0:
240,136,190697,1,0,0:0:0:0:
240,136,190772,1,8,0:0:0:0:
240,136,190922,1,0,0:0:0:0:
240,136,191072,1,8,0:0:0:0:
240,136,191147,1,8,0:0:0:0:
240,136,191222,1,0,0:0:0:0:
240,136,191372,1,8,0:0:0:0:
240,136,191522,1,0,0:0:0:0:
240,136,191597,1,0,0:0:0:0:
240,136,191672,1,8,0:0:0:0:
240,136,191822,1,0,0:0:0:0:
240,136,191972,1,8,0:0:0:0:
240,136,192122,1,0,0:0:0:0:
240,136,192197,1,0,0:0:0:0:
240,136,192272,1,0,0:0:0:0:
240,136,192422,1,8,0:0:0:0:
240,136,192572,1,0,0:0:0:0:
240,136,192722,1,8,0:0:0:0:
200,56,193922,1,12,0:0:0:0:
200,56,194222,1,4,0:0:0:0:
200,56,194522,1,12,0:0:0:0:
200,56,194822,1,12,0:0:0:0:
64,72,195122,1,4,0:0:0:0:
200,88,195422,1,8,0:0:0:0:
264,120,195572,1,0,0:0:0:0:
336,136,195722,1,0,0:0:0:0:
264,120,195872,1,8,0:0:0:0:
336,136,196022,1,0,0:0:0:0:
400,152,196172,1,0,0:0:0:0:
328,144,196322,1,8,0:0:0:0:
256,136,196472,1,8,0:0:0:0:
184,128,196622,1,0,0:0:0:0:
184,128,196772,1,0,0:0:0:0:
184,128,196922,1,8,0:0:0:0:
256,144,197072,1,0,0:0:0:0:
256,144,197147,1,0,0:0:0:0:
256,144,197222,1,8,0:0:0:0:
120,104,197522,1,0,0:0:0:0:
128,176,197672,1,0,0:0:0:0:
136,208,197747,1,0,0:0:0:0:
128,176,197822,1,8,0:0:0:0:
128,176,197972,1,0,0:0:0:0:
128,176,198272,1,0,0:0:0:0:
128,176,198347,1,0,0:0:0:0:
128,176,198422,1,8,0:0:0:0:
128,176,198722,1,0,0:0:0:0:
128,176,198872,1,0,0:0:0:0:
128,176,198947,1,0,0:0:0:0:
128,176,199022,1,8,0:0:0:0:
128,176,199172,1,0,0:0:0:0:
128,176,199472,1,0,0:0:0:0:
128,176,199547,1,0,0:0:0:0:
128,176,199622,1,8,0:0:0:0:
128,176,199772,1,0,0:0:0:0:
96,112,199922,2,0,B|408:104|408:104|296:56,1,428.75
152,240,200972,2,4,P|264:336|488:144,1,490
352,136,202322,1,8,0:0:0:0:
280,120,202472,1,8,0:0:0:0:
280,120,202547,1,8,0:0:0:0:
280,120,202622,1,0,0:0:0:0:
280,120,202772,1,8,0:0:0:0:
280,120,203072,1,0,0:0:0:0:
280,120,203222,1,8,0:0:0:0:
280,120,203522,1,8,0:0:0:0:
280,120,203672,1,8,0:0:0:0:
280,120,203747,1,8,0:0:0:0:
280,120,203822,1,0,0:0:0:0:
280,120,203972,1,8,0:0:0:0:
280,120,204272,1,0,0:0:0:0:
280,120,204347,1,0,0:0:0:0:
280,120,204422,1,8,0:0:0:0:
248,128,204497,1,8,0:0:0:0:
280,120,204572,1,0,0:0:0:0:
208,128,204722,2,0,P|184:272|96:120,1,428.75
288,304,205772,1,0,0:0:0:0:
312,280,205847,1,0,0:0:0:0:
264,224,205922,1,8,0:0:0:0:
264,224,205997,1,8,0:0:0:0:
264,224,206072,1,8,0:0:0:0:
264,224,206147,1,8,0:0:0:0:
224,128,206222,1,0,0:0:0:0:
240,160,206297,1,0,0:0:0:0:
256,192,206372,1,8,0:0:0:0:
264,224,206447,1,8,0:0:0:0:
264,224,206522,1,0,0:0:0:0:
264,224,206597,1,0,0:0:0:0:
296,208,206672,1,8,0:0:0:0:
320,184,206747,1,8,0:0:0:0:
320,184,206822,1,8,0:0:0:0:
288,192,206897,1,8,0:0:0:0:
288,192,206972,1,8,0:0:0:0:
288,192,207047,1,8,0:0:0:0:
120,104,207122,1,0,0:0:0:0:
128,176,207272,1,0,0:0:0:0:
136,208,207347,1,0,0:0:0:0:
128,176,207422,1,8,0:0:0:0:
128,176,207572,1,0,0:0:0:0:
128,176,207872,1,0,0:0:0:0:
128,176,207947,1,0,0:0:0:0:
128,176,208022,1,8,0:0:0:0:
128,176,208322,1,0,0:0:0:0:
128,176,208472,1,0,0:0:0:0:
128,176,208547,1,0,0:0:0:0:
128,176,208622,1,8,0:0:0:0:
128,176,208772,1,0,0:0:0:0:
128,176,209072,1,0,0:0:0:0:
128,176,209147,1,0,0:0:0:0:
128,176,209222,1,8,0:0:0:0:
128,176,209372,1,0,0:0:0:0:
112,112,209522,2,0,B|384:112|384:112|232:152,1,428.75
152,240,210572,2,4,P|264:336|488:144,1,490
352,136,211922,1,8,0:0:0:0:
280,120,212072,1,8,0:0:0:0:
280,120,212147,1,8,0:0:0:0:
280,120,212222,1,0,0:0:0:0:
280,120,212372,1,8,0:0:0:0:
280,120,212672,1,0,0:0:0:0:
280,120,212822,1,8,0:0:0:0:
280,120,213122,1,8,0:0:0:0:
280,120,213272,1,8,0:0:0:0:
280,120,213347,1,8,0:0:0:0:
280,120,213422,1,0,0:0:0:0:
280,120,213572,1,8,0:0:0:0:
280,120,213872,1,0,0:0:0:0:
280,120,213947,1,0,0:0:0:0:
280,120,214022,1,8,0:0:0:0:
280,120,214172,1,0,0:0:0:0:
208,136,214322,2,0,B|464:248|464:248|352:144,1,428.75
248,280,215372,1,0,0:0:0:0:
248,248,215447,1,0,0:0:0:0:
248,216,215522,1,8,0:0:0:0:
248,184,215597,1,0,0:0:0:0:
248,184,215672,1,0,0:0:0:0:
248,184,215747,1,0,0:0:0:0:
248,184,215822,1,8,0:0:0:0:
248,184,215897,1,0,0:0:0:0:
248,184,215972,1,0,0:0:0:0:
248,184,216047,1,0,0:0:0:0:
248,184,216122,1,8,0:0:0:0:
248,184,216197,1,8,0:0:0:0:
248,184,216272,1,0,0:0:0:0:
248,184,216347,1,0,0:0:0:0:
248,184,216422,1,8,0:0:0:0:
248,184,216497,1,8,0:0:0:0:
248,184,216572,1,0,0:0:0:0:
248,184,216647,1,0,0:0:0:0:
248,184,216722,1,8,0:0:0:0:
240,192,219122,1,4,0:0:0:0:
232,200,220922,5,0,0:0:0:0:
232,200,221072,1,12,0:0:0:0:
232,200,221372,1,12,0:0:0:0:
232,200,221522,1,4,0:0:0:0:
184,168,223622,5,8,0:0:0:0:
184,168,223772,1,4,0:0:0:0:
320,176,224072,1,0,0:0:0:0:
248,168,224222,1,8,0:0:0:0:
176,176,224372,1,0,0:0:0:0:
248,160,224522,1,8,0:0:0:0:
216,168,224597,1,8,0:0:0:0:
216,168,224672,1,0,0:0:0:0:
216,168,224747,1,0,0:0:0:0:
216,168,224822,1,0,0:0:0:0:
184,168,224972,1,12,0:0:0:0:
216,168,225272,1,0,0:0:0:0:
216,168,225422,1,8,0:0:0:0:
216,168,225572,1,0,0:0:0:0:
216,168,225722,1,8,0:0:0:0:
216,168,225797,1,0,0:0:0:0:
216,168,225872,1,0,0:0:0:0:
216,168,225947,1,0,0:0:0:0:
216,168,226022,1,8,0:0:0:0:
184,168,226172,1,4,0:0:0:0:
176,32,226472,1,0,0:0:0:0:
184,104,226622,1,8,0:0:0:0:
184,104,226772,1,8,0:0:0:0:
232,152,226922,1,0,0:0:0:0:
184,104,227072,1,0,0:0:0:0:
232,152,227222,1,8,0:0:0:0:
184,104,227372,1,0,0:0:0:0:
240,192,227672,1,0,0:0:0:0:
200,136,227822,1,8,0:0:0:0:
200,136,227972,1,0,0:0:0:0:
200,136,228122,1,8,0:0:0:0:
128,152,228272,1,8,0:0:0:0:
200,168,228422,1,0,0:0:0:0:
144,128,228572,1,0,0:0:0:0:
200,168,228722,1,8,0:0:0:0:
144,128,228872,1,0,0:0:0:0:
200,168,229022,1,8,0:0:0:0:
144,128,229172,1,8,0:0:0:0:
216,144,229322,1,0,0:0:0:0:
216,144,229472,1,0,0:0:0:0:
216,144,229622,1,8,0:0:0:0:
216,144,229772,1,0,0:0:0:0:
216,144,229922,1,8,0:0:0:0:
216,144,230072,1,8,0:0:0:0:
216,144,230147,1,8,0:0:0:0:
216,144,230222,1,0,0:0:0:0:
216,144,230372,1,8,0:0:0:0:
216,144,230447,1,8,0:0:0:0:
216,144,230522,1,0,0:0:0:0:
216,144,230672,1,0,0:0:0:0:
216,144,230747,1,0,0:0:0:0:
216,144,230822,1,8,0:0:0:0:
216,144,230972,1,8,0:0:0:0:
216,144,231122,1,4,0:0:0:0:
176,32,231272,1,0,0:0:0:0:
184,104,231422,1,8,0:0:0:0:
184,104,231572,1,8,0:0:0:0:
232,152,231722,1,0,0:0:0:0:
184,104,231872,1,0,0:0:0:0:
232,152,232022,1,8,0:0:0:0:
184,104,232172,1,0,0:0:0:0:
240,192,232472,1,0,0:0:0:0:
200,136,232622,1,8,0:0:0:0:
200,136,232772,1,0,0:0:0:0:
200,136,232922,1,8,0:0:0:0:
128,152,233072,1,8,0:0:0:0:
200,168,233222,1,0,0:0:0:0:
144,128,233372,1,0,0:0:0:0:
200,168,233522,1,8,0:0:0:0:
144,128,233672,1,0,0:0:0:0:
200,168,233822,1,8,0:0:0:0:
144,128,233972,1,8,0:0:0:0:
216,144,234122,1,0,0:0:0:0:
216,144,234272,1,0,0:0:0:0:
216,144,234422,1,8,0:0:0:0:
216,144,234572,1,0,0:0:0:0:
160,104,234722,1,8,0:0:0:0:
160,104,234797,1,0,0:0:0:0:
160,104,234872,1,0,0:0:0:0:
160,104,234947,1,0,0:0:0:0:
160,104,235022,1,8,0:0:0:0:
160,104,235097,1,0,0:0:0:0:
160,104,235172,1,0,0:0:0:0:
160,104,235247,1,0,0:0:0:0:
160,104,235322,1,8,0:0:0:0:
160,104,235397,1,8,0:0:0:0:
160,104,235472,1,0,0:0:0:0:
160,104,235547,1,0,0:0:0:0:
160,104,235622,1,8,0:0:0:0:
160,104,235697,1,0,0:0:0:0:
160,104,235772,1,8,0:0:0:0:
160,104,235922,1,4,0:0:0:0:
176,32,236072,1,0,0:0:0:0:
184,104,236222,1,8,0:0:0:0:
184,104,236372,1,8,0:0:0:0:
232,152,236522,1,0,0:0:0:0:
184,104,236672,1,0,0:0:0:0:
232,152,236822,1,8,0:0:0:0:
184,104,236972,1,0,0:0:0:0:
240,192,237272,1,0,0:0:0:0:
200,136,237422,1,8,0:0:0:0:
200,136,237572,1,0,0:0:0:0:
200,136,237722,1,8,0:0:0:0:
128,152,237872,1,8,0:0:0:0:
200,168,238022,1,0,0:0:0:0:
144,128,238172,1,0,0:0:0:0:
200,168,238322,1,8,0:0:0:0:
144,128,238472,1,0,0:0:0:0:
200,168,238622,1,8,0:0:0:0:
144,128,238772,1,0,0:0:0:0:
216,144,238922,1,8,0:0:0:0:
200,112,238997,1,0,0:0:0:0:
216,144,239072,1,0,0:0:0:0:
184,120,239147,1,0,0:0:0:0:
216,144,239222,1,8,0:0:0:0:
184,120,239297,1,8,0:0:0:0:
216,144,239372,1,0,0:0:0:0:
216,144,239522,1,8,0:0:0:0:
216,144,239597,1,8,0:0:0:0:
216,144,239672,1,0,0:0:0:0:
216,144,239822,1,8,0:0:0:0:
216,144,239972,1,8,0:0:0:0:
216,144,240047,1,8,0:0:0:0:
216,144,240122,1,0,0:0:0:0:
216,144,240272,1,0,0:0:0:0:
216,144,240347,1,0,0:0:0:0:
216,144,240422,1,8,0:0:0:0:
216,144,240572,1,8,0:0:0:0:
216,144,240722,1,4,0:0:0:0:
176,32,240872,1,0,0:0:0:0:
184,104,241022,1,8,0:0:0:0:
184,104,241172,1,8,0:0:0:0:
232,152,241322,1,0,0:0:0:0:
184,104,241472,1,0,0:0:0:0:
232,152,241622,1,8,0:0:0:0:
184,104,241772,1,0,0:0:0:0:
240,192,242072,1,0,0:0:0:0:
200,136,242222,1,8,0:0:0:0:
200,136,242372,1,0,0:0:0:0:
200,136,242522,1,8,0:0:0:0:
128,152,242672,1,8,0:0:0:0:
200,168,242822,1,0,0:0:0:0:
144,128,242972,1,0,0:0:0:0:
200,168,243122,1,8,0:0:0:0:
144,128,243272,1,8,0:0:0:0:
200,168,243422,1,0,0:0:0:0:
144,128,243572,1,0,0:0:0:0:
216,144,243722,1,8,0:0:0:0:
216,144,243872,1,8,0:0:0:0:
216,144,244022,1,0,0:0:0:0:
216,144,244172,1,0,0:0:0:0:
216,144,244322,1,8,0:0:0:0:
192,120,244397,1,0,0:0:0:0:
168,88,244472,1,0,0:0:0:0:
168,88,244547,1,8,0:0:0:0:
168,88,244622,1,0,0:0:0:0:
168,88,244697,1,0,0:0:0:0:
168,88,244772,1,8,0:0:0:0:
168,88,244847,1,0,0:0:0:0:
168,88,244922,1,8,0:0:0:0:
168,88,244997,1,0,0:0:0:0:
168,88,245072,1,0,0:0:0:0:
168,88,245147,1,0,0:0:0:0:
168,88,245222,1,8,0:0:0:0:
168,88,245372,1,8,0:0:0:0:
112,128,245522,1,4,0:0:0:0:
216,144,245672,1,0,0:0:0:0:
216,144,245822,1,8,0:0:0:0:
216,144,245972,1,0,0:0:0:0:
216,144,246122,1,8,0:0:0:0:
216,144,246197,1,8,0:0:0:0:
216,144,246272,1,0,0:0:0:0:
216,144,246422,1,0,0:0:0:0:
208,184,246572,1,8,0:0:0:0:
280,64,246872,1,0,0:0:0:0:
240,120,247022,1,8,0:0:0:0:
168,128,247172,1,8,0:0:0:0:
240,120,247322,1,0,0:0:0:0:
208,128,247397,1,0,0:0:0:0:
208,128,247472,1,0,0:0:0:0:
208,184,247622,1,8,0:0:0:0:
208,128,247922,1,0,0:0:0:0:
208,128,248222,1,8,0:0:0:0:
208,128,248522,1,0,0:0:0:0:
208,128,248672,1,0,0:0:0:0:
208,128,248822,1,8,0:0:0:0:
208,128,248972,1,0,0:0:0:0:
208,128,249122,1,8,0:0:0:0:
208,128,249272,1,8,0:0:0:0:
208,128,249347,1,8,0:0:0:0:
208,128,249422,1,0,0:0:0:0:
208,128,249572,1,8,0:0:0:0:
208,128,249722,1,8,0:0:0:0:
208,128,249797,1,8,0:0:0:0:
208,128,249872,1,0,0:0:0:0:
208,184,250022,5,8,0:0:0:0:
208,128,250322,1,0,0:0:0:0:
208,128,250472,1,0,0:0:0:0:
208,128,250622,1,8,0:0:0:0:
136,120,250772,1,0,0:0:0:0:
168,120,250847,1,0,0:0:0:0:
208,128,250922,1,8,0:0:0:0:
208,128,251072,1,0,0:0:0:0:
208,128,251222,1,8,0:0:0:0:
168,120,251372,1,0,0:0:0:0:
168,120,251447,1,0,0:0:0:0:
208,128,251522,1,8,0:0:0:0:
208,128,251672,1,0,0:0:0:0:
208,128,251822,1,0,0:0:0:0:
208,128,251972,1,8,0:0:0:0:
208,128,252122,1,0,0:0:0:0:
208,128,252272,1,8,0:0:0:0:
208,184,252422,1,8,0:0:0:0:
208,184,252572,1,0,0:0:0:0:
208,136,252722,5,8,0:0:0:0:
208,136,252797,1,0,0:0:0:0:
208,136,252872,1,0,0:0:0:0:
208,136,252947,1,0,0:0:0:0:
208,136,253022,1,0,0:0:0:0:
208,136,253172,1,8,0:0:0:0:
208,136,253247,1,8,0:0:0:0:
208,136,253322,1,0,0:0:0:0:
208,136,253397,1,0,0:0:0:0:
208,136,253472,1,0,0:0:0:0:
208,136,253622,1,8,0:0:0:0:
208,136,253697,1,0,0:0:0:0:
192,104,253772,1,0,0:0:0:0:
192,104,253847,1,0,0:0:0:0:
208,136,253922,1,8,0:0:0:0:
208,136,253997,1,0,0:0:0:0:
208,136,254072,1,0,0:0:0:0:
208,136,254147,1,8,0:0:0:0:
208,136,254222,1,0,0:0:0:0:
208,136,254297,1,0,0:0:0:0:
208,136,254372,1,8,0:0:0:0:
208,136,254447,1,0,0:0:0:0:
208,136,254522,1,8,0:0:0:0:
208,136,254597,1,0,0:0:0:0:
208,136,254672,1,0,0:0:0:0:
208,136,254747,1,8,0:0:0:0:
208,136,254822,1,0,0:0:0:0:
208,136,254897,1,0,0:0:0:0:
208,136,254972,1,8,0:0:0:0:
277,143,255122,1,4,0:0:0:0:
277,143,255272,1,0,0:0:0:0:
277,143,255422,1,0,0:0:0:0:
277,143,255572,1,0,0:0:0:0:
277,143,255722,1,8,0:0:0:0:
153,76,256022,1,0,0:0:0:0:
277,143,256322,1,8,0:0:0:0:
277,143,256472,1,8,0:0:0:0:
277,143,256622,1,0,0:0:0:0:
277,143,256772,1,0,0:0:0:0:
277,143,256922,1,8,0:0:0:0:
1,94,257522,1,0,0:0:0:0:
69,106,257672,1,0,0:0:0:0:
138,115,257822,1,0,0:0:0:0:
207,125,257972,1,0,0:0:0:0:
207,125,258122,1,8,0:0:0:0:
179,262,258422,1,0,0:0:0:0:
202,123,258722,1,8,0:0:0:0:
191,192,258872,1,0,0:0:0:0:
202,122,259022,1,8,0:0:0:0:
192,191,259172,1,8,0:0:0:0:
197,156,259322,1,0,0:0:0:0:
171,90,259472,1,0,0:0:0:0:
142,153,259622,1,8,0:0:0:0:
171,90,259922,1,4,0:0:0:0:
230,127,260072,1,0,0:0:0:0:
202,191,260222,1,0,0:0:0:0:
237,130,260372,1,0,0:0:0:0:
237,130,260522,1,8,0:0:0:0:
97,143,260822,1,0,0:0:0:0:
236,127,261122,1,8,0:0:0:0:
166,135,261272,1,8,0:0:0:0:
166,135,261422,1,0,0:0:0:0:
166,135,261572,1,0,0:0:0:0:
166,135,261722,1,8,0:0:0:0:
167,135,262322,1,0,0:0:0:0:
198,72,262472,1,0,0:0:0:0:
198,72,262622,1,0,0:0:0:0:
198,72,262772,1,0,0:0:0:0:
198,72,262922,1,8,0:0:0:0:
198,72,263222,1,0,0:0:0:0:
416,168,263522,5,8,0:0:0:0:
384,160,263597,1,8,0:0:0:0:
352,160,263672,1,0,0:0:0:0:
352,160,263747,1,0,0:0:0:0:
352,160,263822,1,8,0:0:0:0:
352,160,263897,1,8,0:0:0:0:
352,160,263972,1,0,0:0:0:0:
352,160,264047,1,0,0:0:0:0:
352,160,264122,1,8,0:0:0:0:
352,160,264197,1,0,0:0:0:0:
352,160,264272,1,8,0:0:0:0:
352,160,264347,1,0,0:0:0:0:
352,160,264422,1,8,0:0:0:0:
216,192,264722,1,4,0:0:0:0:
176,32,264872,1,0,0:0:0:0:
184,104,265022,1,8,0:0:0:0:
184,104,265172,1,8,0:0:0:0:
232,152,265322,1,0,0:0:0:0:
184,104,265472,1,0,0:0:0:0:
232,152,265622,1,8,0:0:0:0:
184,104,265772,1,0,0:0:0:0:
240,192,266072,1,0,0:0:0:0:
200,136,266222,1,8,0:0:0:0:
200,136,266372,1,0,0:0:0:0:
200,136,266522,1,8,0:0:0:0:
128,152,266672,1,8,0:0:0:0:
200,168,266822,1,0,0:0:0:0:
144,128,266972,1,0,0:0:0:0:
200,168,267122,1,8,0:0:0:0:
144,128,267272,1,0,0:0:0:0:
200,168,267422,1,8,0:0:0:0:
144,128,267572,1,8,0:0:0:0:
216,144,267722,1,0,0:0:0:0:
216,144,267872,1,0,0:0:0:0:
216,144,268022,1,8,0:0:0:0:
216,144,268172,1,0,0:0:0:0:
216,144,268322,1,8,0:0:0:0:
216,144,268472,1,8,0:0:0:0:
216,144,268547,1,8,0:0:0:0:
216,144,268622,1,0,0:0:0:0:
216,144,268772,1,8,0:0:0:0:
216,144,268847,1,8,0:0:0:0:
216,144,268922,1,0,0:0:0:0:
216,144,269072,1,0,0:0:0:0:
216,144,269147,1,0,0:0:0:0:
216,144,269222,1,8,0:0:0:0:
216,144,269372,1,8,0:0:0:0:
216,144,269522,1,0,0:0:0:0:
176,32,269672,1,0,0:0:0:0:
184,104,269822,1,8,0:0:0:0:
184,104,269972,1,8,0:0:0:0:
232,152,270122,1,0,0:0:0:0:
184,104,270272,1,0,0:0:0:0:
232,152,270422,1,8,0:0:0:0:
184,104,270572,1,0,0:0:0:0:
240,192,270872,1,0,0:0:0:0:
200,136,271022,1,8,0:0:0:0:
200,136,271172,1,0,0:0:0:0:
200,136,271322,1,8,0:0:0:0:
128,152,271472,1,8,0:0:0:0:
200,168,271622,1,0,0:0:0:0:
144,128,271772,1,0,0:0:0:0:
200,168,271922,1,8,0:0:0:0:
144,128,272072,1,0,0:0:0:0:
176,144,272147,1,0,0:0:0:0:
200,168,272222,1,8,0:0:0:0:
144,128,272372,1,8,0:0:0:0:
216,144,272522,1,0,0:0:0:0:
216,144,272672,1,0,0:0:0:0:
216,144,272822,1,8,0:0:0:0:
216,144,272972,1,0,0:0:0:0:
184,80,273122,1,8,0:0:0:0:
184,80,273197,1,8,0:0:0:0:
184,80,273272,1,8,0:0:0:0:
184,80,273347,1,8,0:0:0:0:
184,80,273422,1,0,0:0:0:0:
184,80,273497,1,0,0:0:0:0:
184,80,273572,1,8,0:0:0:0:
184,80,273647,1,8,0:0:0:0:
184,80,273722,1,8,0:0:0:0:
184,80,273797,1,8,0:0:0:0:
184,80,273872,1,0,0:0:0:0:
184,80,273947,1,0,0:0:0:0:
160,104,274022,1,8,0:0:0:0:
160,104,274097,1,8,0:0:0:0:
160,104,274172,1,8,0:0:0:0:
160,104,274322,1,4,0:0:0:0:
176,32,274472,1,0,0:0:0:0:
184,104,274622,1,8,0:0:0:0:
184,104,274772,1,8,0:0:0:0:
232,152,274922,1,0,0:0:0:0:
184,104,275072,1,0,0:0:0:0:
232,152,275222,1,8,0:0:0:0:
184,104,275372,1,0,0:0:0:0:
240,192,275672,1,0,0:0:0:0:
200,136,275822,1,8,0:0:0:0:
200,136,275972,1,0,0:0:0:0:
200,136,276122,1,8,0:0:0:0:
128,152,276272,1,8,0:0:0:0:
200,168,276422,1,0,0:0:0:0:
144,128,276572,1,0,0:0:0:0:
200,168,276722,1,8,0:0:0:0:
144,128,276872,1,0,0:0:0:0:
200,168,277022,1,8,0:0:0:0:
144,128,277172,1,0,0:0:0:0:
216,144,277322,1,8,0:0:0:0:
200,112,277397,1,0,0:0:0:0:
216,144,277472,1,0,0:0:0:0:
184,120,277547,1,0,0:0:0:0:
216,144,277622,1,8,0:0:0:0:
184,120,277697,1,8,0:0:0:0:
216,144,277772,1,0,0:0:0:0:
216,144,277922,1,8,0:0:0:0:
216,144,278072,1,8,0:0:0:0:
216,144,278147,1,8,0:0:0:0:
216,144,278222,1,0,0:0:0:0:
216,144,278372,1,8,0:0:0:0:
184,120,278447,1,8,0:0:0:0:
216,144,278522,1,0,0:0:0:0:
216,144,278672,1,0,0:0:0:0:
216,144,278747,1,0,0:0:0:0:
216,144,278822,1,8,0:0:0:0:
216,144,278972,1,8,0:0:0:0:
216,144,279122,1,4,0:0:0:0:
176,32,279272,1,0,0:0:0:0:
184,104,279422,1,8,0:0:0:0:
184,104,279572,1,8,0:0:0:0:
232,152,279722,1,0,0:0:0:0:
184,104,279872,1,0,0:0:0:0:
232,152,280022,1,8,0:0:0:0:
184,104,280172,1,0,0:0:0:0:
240,192,280472,1,0,0:0:0:0:
200,136,280622,1,8,0:0:0:0:
200,136,280772,1,0,0:0:0:0:
200,136,280922,1,8,0:0:0:0:
128,152,281072,1,8,0:0:0:0:
200,168,281222,1,0,0:0:0:0:
144,128,281372,1,0,0:0:0:0:
200,168,281522,1,8,0:0:0:0:
144,128,281672,1,8,0:0:0:0:
200,168,281822,1,0,0:0:0:0:
144,128,281972,1,0,0:0:0:0:
216,144,282122,1,8,0:0:0:0:
216,144,282272,1,8,0:0:0:0:
216,144,282422,1,0,0:0:0:0:
216,144,282572,1,0,0:0:0:0:
216,144,282722,1,8,0:0:0:0:
192,120,282797,1,0,0:0:0:0:
168,88,282872,1,0,0:0:0:0:
168,88,282947,1,8,0:0:0:0:
168,88,283022,1,0,0:0:0:0:
168,88,283097,1,0,0:0:0:0:
168,88,283172,1,8,0:0:0:0:
168,88,283247,1,0,0:0:0:0:
168,88,283322,1,8,0:0:0:0:
168,88,283397,1,0,0:0:0:0:
168,88,283472,1,0,0:0:0:0:
168,88,283547,1,0,0:0:0:0:
168,88,283622,1,8,0:0:0:0:
168,88,283697,1,0,0:0:0:0:
168,88,283772,1,8,0:0:0:0:
104,112,283922,1,4,0:0:0:0:
192,120,284072,1,0,0:0:0:0:
192,120,284147,1,0,0:0:0:0:
192,120,284222,1,0,0:0:0:0:
192,120,284372,1,0,0:0:0:0:
192,120,284522,1,0,0:0:0:0:
192,120,284597,1,0,0:0:0:0:
192,120,284672,1,0,0:0:0:0:
192,120,284822,1,0,0:0:0:0:
136,72,284972,1,12,0:0:0:0:
240,168,285272,1,0,0:0:0:0:
192,120,285422,1,8,0:0:0:0:
192,120,285497,1,8,0:0:0:0:
192,120,285572,1,0,0:0:0:0:
192,120,285722,1,8,0:0:0:0:
192,120,285797,1,8,0:0:0:0:
192,120,285872,1,0,0:0:0:0:
192,120,286022,1,8,0:0:0:0:
192,120,286097,1,8,0:0:0:0:
192,120,286172,1,0,0:0:0:0:
104,112,286322,1,4,0:0:0:0:
192,120,286472,1,0,0:0:0:0:
192,120,286547,1,0,0:0:0:0:
192,120,286622,1,0,0:0:0:0:
192,120,286772,1,0,0:0:0:0:
192,120,286922,1,0,0:0:0:0:
192,120,286997,1,0,0:0:0:0:
192,120,287072,1,0,0:0:0:0:
192,120,287222,1,0,0:0:0:0:
192,120,287297,1,0,0:0:0:0:
192,120,287372,1,0,0:0:0:0:
192,120,287522,1,12,0:0:0:0:
192,120,287747,1,4,0:0:0:0:
192,120,287972,1,12,0:0:0:0:
192,120,288272,1,0,0:0:0:0:
192,120,288422,1,8,0:0:0:0:
104,112,288722,1,4,0:0:0:0:
192,120,288872,1,0,0:0:0:0:
192,120,288947,1,0,0:0:0:0:
192,120,289022,1,0,0:0:0:0:
192,120,289172,1,0,0:0:0:0:
192,120,289322,1,0,0:0:0:0:
192,120,289397,1,0,0:0:0:0:
192,120,289472,1,0,0:0:0:0:
192,120,289622,1,0,0:0:0:0:
136,72,289772,1,12,0:0:0:0:
240,168,290072,1,0,0:0:0:0:
192,120,290222,1,8,0:0:0:0:
192,120,290297,1,8,0:0:0:0:
192,120,290372,1,0,0:0:0:0:
192,120,290522,1,8,0:0:0:0:
192,120,290597,1,8,0:0:0:0:
192,120,290672,1,0,0:0:0:0:
192,120,290822,1,8,0:0:0:0:
192,120,290897,1,8,0:0:0:0:
192,120,290972,1,0,0:0:0:0:
104,112,291122,1,4,0:0:0:0:
192,120,291272,1,0,0:0:0:0:
192,120,291347,1,0,0:0:0:0:
192,120,291422,1,0,0:0:0:0:
192,120,291572,1,0,0:0:0:0:
192,120,291722,1,0,0:0:0:0:
192,120,291797,1,0,0:0:0:0:
192,120,291872,1,0,0:0:0:0:
192,120,292022,1,0,0:0:0:0:
192,120,292097,1,0,0:0:0:0:
192,120,292172,1,0,0:0:0:0:
192,120,292322,1,12,0:0:0:0:
192,120,292547,1,4,0:0:0:0:
192,120,292772,1,12,0:0:0:0:
320,56,293072,1,0,0:0:0:0:
288,72,293147,1,0,0:0:0:0:
256,88,293222,1,8,0:0:0:0:
224,104,293297,1,8,0:0:0:0:
224,104,293372,1,0,0:0:0:0:
224,104,293522,1,12,0:0:0:0:
224,104,294122,1,12,0:0:0:0:
210,123,294722,1,8,0:0:0:0:
210,123,294797,1,0,0:0:0:0:
210,123,294872,1,8,0:0:0:0:
210,123,294947,1,8,0:0:0:0:
210,123,295022,1,0,0:0:0:0:
210,123,295097,1,0,0:0:0:0:
210,123,295172,1,8,0:0:0:0:
210,123,295247,1,0,0:0:0:0:
214,158,295322,1,8,0:0:0:0:
214,158,295397,1,8,0:0:0:0:
214,158,295472,1,0,0:0:0:0:
214,158,295547,1,0,0:0:0:0:
214,158,295622,1,8,0:0:0:0:
214,158,295697,1,8,0:0:0:0:
210,123,295772,1,0,0:0:0:0:
210,123,295847,1,0,0:0:0:0:
210,123,295922,1,8,0:0:0:0:
210,123,295997,1,0,0:0:0:0:
210,123,296072,1,8,0:0:0:0:
210,123,296147,1,8,0:0:0:0:
210,123,296222,1,0,0:0:0:0:
210,123,296297,1,0,0:0:0:0:
210,123,296372,1,8,0:0:0:0:
210,123,296447,1,0,0:0:0:0:
210,123,296522,1,8,0:0:0:0:
210,123,296597,1,8,0:0:0:0:
210,123,296672,1,8,0:0:0:0:
210,123,296747,1,8,0:0:0:0:
210,123,296822,1,0,0:0:0:0:
210,123,296897,1,0,0:0:0:0:
210,123,296972,1,0,0:0:0:0:
210,123,297047,1,0,0:0:0:0:
210,123,297122,1,8,0:0:0:0:
210,123,297197,1,0,0:0:0:0:
210,123,297272,1,8,0:0:0:0:
210,123,297347,1,8,0:0:0:0:
210,123,297422,1,0,0:0:0:0:
210,123,297497,1,0,0:0:0:0:
210,123,297572,1,8,0:0:0:0:
210,123,297647,1,0,0:0:0:0:
214,158,297722,1,8,0:0:0:0:
214,158,297797,1,8,0:0:0:0:
214,158,297872,1,0,0:0:0:0:
214,158,297947,1,0,0:0:0:0:
214,158,298022,1,8,0:0:0:0:
214,158,298097,1,8,0:0:0:0:
210,123,298172,1,0,0:0:0:0:
210,123,298247,1,0,0:0:0:0:
240,140,298322,1,8,0:0:0:0:
240,140,298397,1,0,0:0:0:0:
240,140,298472,1,8,0:0:0:0:
240,140,298547,1,0,0:0:0:0:
240,140,298622,1,8,0:0:0:0:
240,140,298697,1,8,0:0:0:0:
240,140,298772,1,0,0:0:0:0:
240,140,298847,1,0,0:0:0:0:
245,105,298922,1,8,0:0:0:0:
245,105,298997,1,8,0:0:0:0:
245,105,299072,1,8,0:0:0:0:
245,105,299147,1,8,0:0:0:0:
245,105,299222,1,0,0:0:0:0:
245,105,299297,1,0,0:0:0:0:
245,105,299372,1,0,0:0:0:0:
245,105,299447,1,0,0:0:0:0:
171,98,299522,5,8,0:0:0:0:
171,98,299597,1,8,0:0:0:0:
171,98,299672,1,0,0:0:0:0:
171,98,299747,1,0,0:0:0:0:
171,98,299822,1,8,0:0:0:0:
171,98,299897,1,8,0:0:0:0:
171,98,299972,1,0,0:0:0:0:
171,98,300047,1,0,0:0:0:0:
171,98,300122,1,8,0:0:0:0:
171,98,300197,1,0,0:0:0:0:
171,98,300272,1,8,0:0:0:0:
171,98,300347,1,0,0:0:0:0:
185,129,300422,1,8,0:0:0:0:
185,129,300497,1,8,0:0:0:0:
185,129,300572,1,0,0:0:0:0:
185,129,300647,1,0,0:0:0:0:
171,98,300722,1,8,0:0:0:0:
171,98,300797,1,0,0:0:0:0:
171,98,300872,1,8,0:0:0:0:
171,98,300947,1,8,0:0:0:0:
171,98,301022,1,0,0:0:0:0:
171,98,301097,1,0,0:0:0:0:
171,98,301172,1,0,0:0:0:0:
171,98,301247,1,0,0:0:0:0:
171,98,301322,1,8,0:0:0:0:
171,98,301397,1,8,0:0:0:0:
171,98,301472,1,8,0:0:0:0:
171,98,301547,1,0,0:0:0:0:
171,98,301622,1,8,0:0:0:0:
248,120,301922,5,8,0:0:0:0:
216,128,301997,1,0,0:0:0:0:
216,128,302072,1,8,0:0:0:0:
216,128,302147,1,8,0:0:0:0:
216,128,302222,1,0,0:0:0:0:
216,128,302297,1,0,0:0:0:0:
216,128,302372,1,8,0:0:0:0:
216,128,302447,1,0,0:0:0:0:
216,128,302522,1,8,0:0:0:0:
216,104,302597,1,8,0:0:0:0:
240,128,302672,1,0,0:0:0:0:
240,128,302747,1,0,0:0:0:0:
248,120,302822,1,8,0:0:0:0:
248,120,302897,1,8,0:0:0:0:
248,120,302972,1,0,0:0:0:0:
248,120,303047,1,0,0:0:0:0:
248,120,303122,1,8,0:0:0:0:
248,120,303197,1,8,0:0:0:0:
248,120,303272,1,8,0:0:0:0:
248,120,303347,1,8,0:0:0:0:
248,120,303422,1,0,0:0:0:0:
248,120,303497,1,0,0:0:0:0:
248,120,303572,1,0,0:0:0:0:
248,120,303647,1,0,0:0:0:0:
248,120,303722,1,8,0:0:0:0:
248,120,303797,1,0,0:0:0:0:
248,120,303872,1,0,0:0:0:0:
248,120,303947,1,0,0:0:0:0:
248,120,304022,1,8,0:0:0:0:
296,248,304322,1,8,0:0:0:0:
272,184,304472,1,8,0:0:0:0:
272,184,304622,1,8,0:0:0:0:
272,184,304697,1,8,0:0:0:0:
272,184,304772,1,0,0:0:0:0:
272,184,304847,1,0,0:0:0:0:
272,184,304922,1,8,0:0:0:0:
272,184,305072,1,8,0:0:0:0:
272,184,305222,1,8,0:0:0:0:
272,184,305297,1,8,0:0:0:0:
272,184,305372,1,0,0:0:0:0:
272,184,305447,1,0,0:0:0:0:
240,168,305522,1,8,0:0:0:0:
240,168,305672,1,8,0:0:0:0:
240,168,305822,1,8,0:0:0:0:
240,168,305897,1,0,0:0:0:0:
240,168,305972,1,8,0:0:0:0:
240,168,306047,1,8,0:0:0:0:
240,168,306122,1,0,0:0:0:0:
240,168,306197,1,0,0:0:0:0:
240,168,306272,1,8,0:0:0:0:
240,168,306347,1,8,0:0:0:0:
240,168,306422,1,0,0:0:0:0:
296,248,306722,1,8,0:0:0:0:
272,184,306872,1,8,0:0:0:0:
272,184,307022,1,8,0:0:0:0:
272,184,307097,1,8,0:0:0:0:
272,184,307172,1,0,0:0:0:0:
272,184,307247,1,0,0:0:0:0:
272,184,307322,1,8,0:0:0:0:
272,184,307472,1,8,0:0:0:0:
272,184,307622,1,8,0:0:0:0:
272,184,307697,1,8,0:0:0:0:
272,184,307772,1,0,0:0:0:0:
272,184,307847,1,0,0:0:0:0:
240,168,307922,1,8,0:0:0:0:
240,168,307997,1,0,0:0:0:0:
240,168,308072,1,8,0:0:0:0:
240,168,308147,1,8,0:0:0:0:
240,168,308222,1,0,0:0:0:0:
240,168,308297,1,0,0:0:0:0:
240,168,308372,1,8,0:0:0:0:
240,168,308447,1,0,0:0:0:0:
240,168,308522,1,8,0:0:0:0:
240,168,308597,1,8,0:0:0:0:
240,168,308672,1,8,0:0:0:0:
232,136,308747,1,8,0:0:0:0:
232,136,308822,1,0,0:0:0:0:
232,136,308897,1,0,0:0:0:0:
232,136,308972,1,8,0:0:0:0:
232,136,309047,1,0,0:0:0:0:
296,248,309122,1,8,0:0:0:0:
272,184,309272,1,8,0:0:0:0:
272,184,309422,1,8,0:0:0:0:
272,184,309497,1,8,0:0:0:0:
272,184,309572,1,0,0:0:0:0:
272,184,309647,1,0,0:0:0:0:
272,184,309722,1,8,0:0:0:0:
272,184,309872,1,8,0:0:0:0:
272,184,310022,1,8,0:0:0:0:
272,184,310097,1,8,0:0:0:0:
272,184,310172,1,0,0:0:0:0:
272,184,310247,1,0,0:0:0:0:
240,168,310322,1,8,0:0:0:0:
240,168,310472,1,8,0:0:0:0:
240,168,310622,1,8,0:0:0:0:
240,168,310697,1,0,0:0:0:0:
240,168,310772,1,8,0:0:0:0:
240,168,310847,1,8,0:0:0:0:
240,168,310922,1,0,0:0:0:0:
240,168,310997,1,0,0:0:0:0:
240,168,311072,1,8,0:0:0:0:
240,168,311147,1,8,0:0:0:0:
240,168,311222,1,0,0:0:0:0:
296,248,311522,1,8,0:0:0:0:
272,184,311672,1,8,0:0:0:0:
272,184,311822,1,8,0:0:0:0:
272,184,311897,1,8,0:0:0:0:
272,184,311972,1,0,0:0:0:0:
272,184,312047,1,0,0:0:0:0:
272,184,312122,1,8,0:0:0:0:
272,184,312272,1,8,0:0:0:0:
272,184,312422,1,8,0:0:0:0:
272,184,312497,1,8,0:0:0:0:
272,184,312572,1,0,0:0:0:0:
272,184,312647,1,0,0:0:0:0:
240,168,312722,1,8,0:0:0:0:
168,96,312797,1,8,0:0:0:0:
168,96,312872,1,8,0:0:0:0:
168,96,312947,1,8,0:0:0:0:
168,96,313022,1,0,0:0:0:0:
168,96,313097,1,0,0:0:0:0:
168,96,313172,1,0,0:0:0:0:
168,96,313247,1,0,0:0:0:0:
168,96,313322,1,8,0:0:0:0:
168,96,313397,1,8,0:0:0:0:
168,96,313472,1,0,0:0:0:0:
168,96,313547,1,0,0:0:0:0:
168,96,313622,1,8,0:0:0:0:
210,123,313922,1,8,0:0:0:0:
210,123,313997,1,0,0:0:0:0:
210,123,314072,1,8,0:0:0:0:
210,123,314147,1,8,0:0:0:0:
210,123,314222,1,0,0:0:0:0:
210,123,314297,1,0,0:0:0:0:
210,123,314372,1,8,0:0:0:0:
210,123,314447,1,0,0:0:0:0:
214,158,314522,1,8,0:0:0:0:
214,158,314597,1,8,0:0:0:0:
214,158,314672,1,0,0:0:0:0:
214,158,314747,1,0,0:0:0:0:
214,158,314822,1,8,0:0:0:0:
214,158,314897,1,8,0:0:0:0:
210,123,314972,1,0,0:0:0:0:
210,123,315047,1,0,0:0:0:0:
210,123,315122,1,8,0:0:0:0:
210,123,315197,1,0,0:0:0:0:
210,123,315272,1,8,0:0:0:0:
210,123,315347,1,8,0:0:0:0:
210,123,315422,1,0,0:0:0:0:
210,123,315497,1,0,0:0:0:0:
210,123,315572,1,8,0:0:0:0:
210,123,315647,1,0,0:0:0:0:
210,123,315722,1,8,0:0:0:0:
210,123,315797,1,8,0:0:0:0:
210,123,315872,1,8,0:0:0:0:
210,123,315947,1,8,0:0:0:0:
210,123,316022,1,0,0:0:0:0:
210,123,316097,1,0,0:0:0:0:
210,123,316172,1,0,0:0:0:0:
210,123,316247,1,0,0:0:0:0:
210,123,316322,1,8,0:0:0:0:
210,123,316397,1,0,0:0:0:0:
210,123,316472,1,8,0:0:0:0:
210,123,316547,1,8,0:0:0:0:
210,123,316622,1,0,0:0:0:0:
210,123,316697,1,0,0:0:0:0:
210,123,316772,1,8,0:0:0:0:
210,123,316847,1,0,0:0:0:0:
214,158,316922,1,8,0:0:0:0:
214,158,316997,1,8,0:0:0:0:
214,158,317072,1,0,0:0:0:0:
214,158,317147,1,0,0:0:0:0:
214,158,317222,1,8,0:0:0:0:
214,158,317297,1,8,0:0:0:0:
210,123,317372,1,0,0:0:0:0:
210,123,317447,1,0,0:0:0:0:
240,140,317522,1,8,0:0:0:0:
240,140,317597,1,8,0:0:0:0:
240,140,317672,1,8,0:0:0:0:
240,140,317747,1,8,0:0:0:0:
240,140,317822,1,0,0:0:0:0:
240,140,317897,1,0,0:0:0:0:
240,140,317972,1,8,0:0:0:0:
240,140,318047,1,8,0:0:0:0:
245,105,318122,1,8,0:0:0:0:
245,105,318197,1,8,0:0:0:0:
245,105,318272,1,0,0:0:0:0:
245,105,318347,1,0,0:0:0:0:
245,105,318422,1,8,0:0:0:0:
245,105,318497,1,0,0:0:0:0:
245,105,318572,1,0,0:0:0:0:
245,105,318647,1,0,0:0:0:0:
171,98,318722,5,8,0:0:0:0:
171,98,318797,1,8,0:0:0:0:
171,98,318872,1,0,0:0:0:0:
171,98,318947,1,0,0:0:0:0:
171,98,319022,1,8,0:0:0:0:
171,98,319097,1,8,0:0:0:0:
171,98,319172,1,0,0:0:0:0:
171,98,319247,1,0,0:0:0:0:
171,98,319322,1,8,0:0:0:0:
171,98,319397,1,0,0:0:0:0:
171,98,319472,1,8,0:0:0:0:
171,98,319547,1,0,0:0:0:0:
185,129,319622,1,8,0:0:0:0:
185,129,319697,1,8,0:0:0:0:
185,129,319772,1,0,0:0:0:0:
185,129,319847,1,0,0:0:0:0:
171,98,319922,1,8,0:0:0:0:
171,98,319997,1,0,0:0:0:0:
171,98,320072,1,8,0:0:0:0:
171,98,320147,1,8,0:0:0:0:
171,98,320222,1,0,0:0:0:0:
171,98,320297,1,0,0:0:0:0:
171,98,320372,1,0,0:0:0:0:
171,98,320447,1,0,0:0:0:0:
171,98,320522,1,8,0:0:0:0:
171,98,320597,1,8,0:0:0:0:
171,98,320672,1,8,0:0:0:0:
171,98,320747,1,0,0:0:0:0:
171,98,320822,1,8,0:0:0:0:
248,120,321122,5,8,0:0:0:0:
216,128,321197,1,0,0:0:0:0:
216,128,321272,1,8,0:0:0:0:
216,128,321347,1,8,0:0:0:0:
216,128,321422,1,0,0:0:0:0:
216,128,321497,1,0,0:0:0:0:
216,128,321572,1,8,0:0:0:0:
216,128,321647,1,0,0:0:0:0:
216,128,321722,1,8,0:0:0:0:
216,104,321797,1,8,0:0:0:0:
240,128,321872,1,0,0:0:0:0:
240,128,321947,1,0,0:0:0:0:
248,120,322022,1,8,0:0:0:0:
248,120,322097,1,8,0:0:0:0:
248,120,322172,1,0,0:0:0:0:
248,120,322247,1,0,0:0:0:0:
248,120,322322,1,8,0:0:0:0:
248,120,322397,5,8,0:0:0:0:
248,120,322472,1,8,0:0:0:0:
248,120,322547,1,8,0:0:0:0:
248,120,322622,1,0,0:0:0:0:
248,120,322697,1,0,0:0:0:0:
248,120,322772,1,0,0:0:0:0:
248,120,322847,1,0,0:0:0:0:
248,120,322922,1,8,0:0:0:0:
248,120,322997,1,8,0:0:0:0:
248,120,323072,1,0,0:0:0:0:
248,120,323147,1,0,0:0:0:0:
248,120,323222,1,8,0:0:0:0:
213,124,323372,1,8,0:0:0:0:
184,144,323522,5,4,0:0:0:0:
208,8,323822,1,8,0:0:0:0:
192,80,323972,1,4,0:0:0:0:
136,208,324272,1,0,0:0:0:0:
160,144,324422,1,8,0:0:0:0:
128,80,324572,1,0,0:0:0:0:
152,144,324722,1,12,0:0:0:0:
112,8,325022,1,0,0:0:0:0:
144,112,325172,1,12,0:0:0:0:
144,112,325472,1,0,0:0:0:0:
144,112,325547,1,0,0:0:0:0:
144,112,325622,1,8,0:0:0:0:
144,112,325772,1,0,0:0:0:0:
80,144,325922,1,12,0:0:0:0:
208,80,326222,1,8,0:0:0:0:
144,112,326372,1,4,0:0:0:0:
112,120,326822,1,12,0:0:0:0:
248,88,327122,2,4,P|240:216|360:304,1,280
168,88,328322,1,12,0:0:0:0:
216,136,328472,1,0,0:0:0:0:
224,168,328547,1,0,0:0:0:0:
224,168,328622,1,0,0:0:0:0:
224,168,328772,1,0,0:0:0:0:
224,168,328922,1,8,0:0:0:0:
224,168,329072,1,0,0:0:0:0:
224,168,329147,1,0,0:0:0:0:
224,168,329222,1,0,0:0:0:0:
224,168,329372,1,0,0:0:0:0:
224,168,329522,1,8,0:0:0:0:
224,168,329672,1,0,0:0:0:0:
224,168,329747,1,0,0:0:0:0:
224,168,329822,1,8,0:0:0:0:
224,168,329972,1,0,0:0:0:0:
224,168,330047,1,0,0:0:0:0:
224,168,330122,1,8,0:0:0:0:
224,168,330272,1,0,0:0:0:0:
224,168,330422,1,8,0:0:0:0:
224,168,330497,1,8,0:0:0:0:
224,168,330572,1,0,0:0:0:0:
224,168,330722,1,8,0:0:0:0:
224,168,330872,1,0,0:0:0:0:
224,168,330947,1,0,0:0:0:0:
224,168,331022,1,0,0:0:0:0:
224,168,331172,1,0,0:0:0:0:
224,168,331322,1,8,0:0:0:0:
224,168,331472,1,0,0:0:0:0:
224,168,331547,1,0,0:0:0:0:
224,168,331622,1,0,0:0:0:0:
288,136,331772,2,0,P|128:64|80:192,1,350
208,256,332822,1,8,0:0:0:0:
176,192,332972,1,8,0:0:0:0:
120,152,333122,1,4,0:0:0:0:
192,136,333272,1,8,0:0:0:0:
264,128,333422,1,0,0:0:0:0:
232,128,333497,1,0,0:0:0:0:
232,128,333572,1,8,0:0:0:0:
232,128,333722,1,0,0:0:0:0:
232,128,333872,1,8,0:0:0:0:
232,128,333947,1,8,0:0:0:0:
232,128,334022,1,0,0:0:0:0:
232,128,334172,1,8,0:0:0:0:
232,128,334322,1,8,0:0:0:0:
232,128,334472,1,0,0:0:0:0:
232,128,334622,1,8,0:0:0:0:
232,128,334697,1,0,0:0:0:0:
232,128,334772,1,0,0:0:0:0:
232,128,334847,1,0,0:0:0:0:
232,128,334922,1,8,0:0:0:0:
168,160,335072,1,8,0:0:0:0:
200,152,335222,1,0,0:0:0:0:
200,152,335297,1,0,0:0:0:0:
176,128,335372,1,8,0:0:0:0:
256,176,335522,5,0,0:0:0:0:
256,176,335597,1,0,0:0:0:0:
256,176,335672,1,8,0:0:0:0:
256,176,335747,1,0,0:0:0:0:
256,176,335822,1,8,0:0:0:0:
256,176,335897,1,8,0:0:0:0:
256,176,335972,1,8,0:0:0:0:
256,176,336047,1,8,0:0:0:0:
256,176,336122,1,0,0:0:0:0:
256,176,336197,1,0,0:0:0:0:
256,176,336272,1,8,0:0:0:0:
256,176,336347,1,0,0:0:0:0:
256,176,336422,1,8,0:0:0:0:
256,176,336497,1,8,0:0:0:0:
256,176,336572,1,0,0:0:0:0:
256,176,336647,1,0,0:0:0:0:
256,176,336722,1,8,0:0:0:0:
256,176,336797,1,8,0:0:0:0:
256,176,336872,1,8,0:0:0:0:
256,176,336947,1,8,0:0:0:0:
256,176,337022,1,0,0:0:0:0:
256,176,337097,1,0,0:0:0:0:
256,176,337172,1,0,0:0:0:0:
256,176,337247,1,0,0:0:0:0:
256,176,337322,1,8,0:0:0:0:
256,176,337397,1,0,0:0:0:0:
256,176,337472,1,0,0:0:0:0:
256,176,337547,1,0,0:0:0:0:
256,176,337622,1,8,0:0:0:0:
256,176,337697,1,8,0:0:0:0:
256,176,337772,1,0,0:0:0:0:
256,176,337847,1,0,0:0:0:0:
256,176,337922,1,8,0:0:0:0:
256,176,338022,1,0,0:0:0:0:
296,152,338122,1,0,0:0:0:0:
224,136,338222,1,8,0:0:0:0:
264,152,338322,1,0,0:0:0:0:
264,152,338422,1,0,0:0:0:0:
256,176,338522,1,8,0:0:0:0:
256,176,338597,1,0,0:0:0:0:
256,176,338672,1,8,0:0:0:0:
256,176,338747,1,0,0:0:0:0:
256,176,338822,1,8,0:0:0:0:
256,176,338897,1,8,0:0:0:0:
256,176,338972,1,0,0:0:0:0:
256,176,339047,1,0,0:0:0:0:
272,144,339122,1,8,0:0:0:0:
272,144,339222,1,0,0:0:0:0:
272,144,339322,1,0,0:0:0:0:
272,144,339422,1,8,0:0:0:0:
272,144,339522,1,0,0:0:0:0:
272,144,339622,1,0,0:0:0:0:
264,152,339722,1,8,0:0:0:0:
275,118,339797,1,8,0:0:0:0:
275,118,339872,1,0,0:0:0:0:
264,152,339947,1,0,0:0:0:0:
264,152,340022,1,8,0:0:0:0:
208,280,340322,1,0,0:0:0:0:
224,248,340397,1,0,0:0:0:0:
240,216,340472,1,0,0:0:0:0:
240,216,340547,1,0,0:0:0:0:
240,216,340622,1,8,0:0:0:0:
240,184,340697,1,0,0:0:0:0:
240,184,340772,1,8,0:0:0:0:
240,184,340847,1,0,0:0:0:0:
248,152,340922,1,8,0:0:0:0:
248,152,340997,1,8,0:0:0:0:
248,152,341072,1,8,0:0:0:0:
248,152,341147,1,8,0:0:0:0:
248,152,341222,1,0,0:0:0:0:
248,152,341297,1,0,0:0:0:0:
248,152,341372,1,0,0:0:0:0:
248,152,341447,1,0,0:0:0:0:
152,112,341522,1,8,0:0:0:0:
152,112,341597,1,0,0:0:0:0:
152,112,341672,1,8,0:0:0:0:
152,112,341747,1,0,0:0:0:0:
152,112,341822,1,8,0:0:0:0:
152,112,341897,1,8,0:0:0:0:
152,112,341972,1,8,0:0:0:0:
152,112,342047,1,0,0:0:0:0:
152,112,342122,1,8,0:0:0:0:
152,112,342197,1,0,0:0:0:0:
152,112,342272,1,8,0:0:0:0:
152,112,342347,1,8,0:0:0:0:
152,112,342422,1,0,0:0:0:0:
152,112,342497,1,0,0:0:0:0:
152,112,342572,1,0,0:0:0:0:
152,112,342647,1,0,0:0:0:0:
152,112,342722,1,8,0:0:0:0:
160,144,342797,1,8,0:0:0:0:
168,176,342872,1,8,0:0:0:0:
168,176,342947,1,8,0:0:0:0:
168,176,343022,1,0,0:0:0:0:
168,176,343097,1,0,0:0:0:0:
168,176,343172,1,8,0:0:0:0:
168,176,343247,1,0,0:0:0:0:
168,176,343322,1,8,0:0:0:0:
168,176,343472,1,0,0:0:0:0:
160,144,343622,1,8,0:0:0:0:
96,120,343772,1,0,0:0:0:0:
160,144,343922,1,8,0:0:0:0:
128,128,343997,1,0,0:0:0:0:
128,128,344072,1,0,0:0:0:0:
128,128,344147,1,0,0:0:0:0:
128,128,344222,1,8,0:0:0:0:
128,128,344297,1,8,0:0:0:0:
128,128,344372,1,0,0:0:0:0:
128,128,344447,1,8,0:0:0:0:
128,128,344522,1,8,0:0:0:0:
88,184,344672,1,0,0:0:0:0:
128,128,344822,1,8,0:0:0:0:
104,152,344972,1,0,0:0:0:0:
176,160,345122,1,8,0:0:0:0:
176,160,345197,1,0,0:0:0:0:
176,160,345272,1,8,0:0:0:0:
176,160,345347,1,0,0:0:0:0:
176,160,345422,1,8,0:0:0:0:
160,144,345497,1,8,0:0:0:0:
160,144,345572,1,0,0:0:0:0:
160,144,345647,1,0,0:0:0:0:
176,160,345722,1,8,0:0:0:0:
160,144,345797,1,0,0:0:0:0:
176,160,345872,1,8,0:0:0:0:
200,136,345947,1,0,0:0:0:0:
200,136,346022,1,0,0:0:0:0:
200,136,346097,1,8,0:0:0:0:
176,160,346172,1,8,0:0:0:0:
200,136,346247,1,0,0:0:0:0:
256,112,346322,1,8,0:0:0:0:
256,112,346397,1,8,0:0:0:0:
224,120,346472,1,0,0:0:0:0:
224,120,346547,1,0,0:0:0:0:
256,112,346622,1,8,0:0:0:0:
256,112,346697,1,8,0:0:0:0:
224,120,346772,1,0,0:0:0:0:
224,120,346847,1,0,0:0:0:0:
256,112,346922,1,8,0:0:0:0:
256,112,346997,1,8,0:0:0:0:
224,120,347072,1,0,0:0:0:0:
224,120,347147,1,0,0:0:0:0:
240,152,347222,1,8,0:0:0:0:
200,136,347522,1,8,0:0:0:0:
200,64,347597,1,0,0:0:0:0:
200,64,347672,1,8,0:0:0:0:
200,64,347747,1,8,0:0:0:0:
200,136,347822,1,0,0:0:0:0:
200,64,347897,1,8,0:0:0:0:
200,64,347972,1,0,0:0:0:0:
200,64,348047,1,0,0:0:0:0:
200,64,348122,1,8,0:0:0:0:
200,64,348197,1,8,0:0:0:0:
200,64,348272,1,0,0:0:0:0:
224,120,348347,1,0,0:0:0:0:
256,112,348422,1,8,0:0:0:0:
224,104,348497,1,8,0:0:0:0:
200,64,348572,1,0,0:0:0:0:
200,64,348647,1,0,0:0:0:0:
200,64,348722,1,8,0:0:0:0:
200,64,348797,1,0,0:0:0:0:
200,64,348872,1,0,0:0:0:0:
200,64,348947,1,0,0:0:0:0:
200,64,349022,1,8,0:0:0:0:
200,64,349097,1,8,0:0:0:0:
200,64,349172,1,8,0:0:0:0:
200,64,349247,1,8,0:0:0:0:
200,64,349322,1,0,0:0:0:0:
200,64,349397,1,0,0:0:0:0:
200,64,349472,1,0,0:0:0:0:
200,64,349547,1,0,0:0:0:0:
200,64,349622,1,8,0:0:0:0:
200,64,349922,1,8,0:0:0:0:
200,64,349997,1,0,0:0:0:0:
200,64,350072,1,0,0:0:0:0:
200,64,350147,1,0,0:0:0:0:
200,64,350222,1,8,0:0:0:0:
200,64,350297,1,8,0:0:0:0:
200,64,350372,1,0,0:0:0:0:
200,64,350447,1,0,0:0:0:0:
200,64,350522,1,8,0:0:0:0:
200,64,350597,1,0,0:0:0:0:
200,64,350672,1,8,0:0:0:0:
200,64,350747,1,0,0:0:0:0:
200,64,350822,1,8,0:0:0:0:
200,64,350897,1,8,0:0:0:0:
200,64,350972,1,8,0:0:0:0:
200,64,351047,1,8,0:0:0:0:
232,136,351122,1,0,0:0:0:0:
232,136,351272,1,0,0:0:0:0:
232,136,351422,1,0,0:0:0:0:
232,136,351572,1,0,0:0:0:0:
232,136,351722,1,8,0:0:0:0:
232,136,351872,1,8,0:0:0:0:
232,136,352022,1,8,0:0:0:0:
256,112,352097,1,8,0:0:0:0:
232,136,352172,1,8,0:0:0:0:
256,112,352247,1,8,0:0:0:0:
224,120,352322,1,0,0:0:0:0:
224,120,352472,1,0,0:0:0:0:
224,120,352622,1,8,0:0:0:0:
224,120,352697,1,0,0:0:0:0:
224,120,352772,1,8,0:0:0:0:
224,120,352847,1,8,0:0:0:0:
224,120,352922,1,0,0:0:0:0:
224,120,353072,1,0,0:0:0:0:
224,120,353222,1,8,0:0:0:0:
224,120,353297,1,0,0:0:0:0:
224,120,353372,1,8,0:0:0:0:
224,120,353447,1,8,0:0:0:0:
224,120,353522,1,0,0:0:0:0:
224,120,353597,1,0,0:0:0:0:
224,120,353672,1,8,0:0:0:0:
224,120,353747,1,8,0:0:0:0:
192,96,353822,1,0,0:0:0:0:
224,120,353897,1,0,0:0:0:0:
224,120,353972,1,8,0:0:0:0:
224,120,354047,1,0,0:0:0:0:
224,120,354122,1,8,0:0:0:0:
224,120,354197,1,8,0:0:0:0:
224,120,354272,1,8,0:0:0:0:
224,120,354347,1,8,0:0:0:0:
192,112,354422,1,0,0:0:0:0:
192,112,354497,1,0,0:0:0:0:
192,112,354572,1,8,0:0:0:0:
192,112,354647,1,0,0:0:0:0:
224,120,354722,1,8,0:0:0:0:
224,120,354797,1,0,0:0:0:0:
224,120,354872,1,0,0:0:0:0:
224,120,354947,1,0,0:0:0:0:
224,120,355022,1,8,0:0:0:0:
224,120,355097,1,8,0:0:0:0:
224,120,355172,1,0,0:0:0:0:
224,120,355247,1,0,0:0:0:0:
192,112,355322,1,8,0:0:0:0:
192,112,355397,1,8,0:0:0:0:
192,112,355472,1,0,0:0:0:0:
192,112,355547,1,8,0:0:0:0:
192,112,355622,1,8,0:0:0:0:
192,112,355697,1,0,0:0:0:0:
192,112,355772,1,8,0:0:0:0:
192,112,355847,1,8,0:0:0:0:
192,112,355922,1,0,0:0:0:0:
192,112,355997,1,0,0:0:0:0:
192,112,356072,1,0,0:0:0:0:
192,112,356147,1,0,0:0:0:0:
192,112,356222,1,8,0:0:0:0:
192,112,356297,1,8,0:0:0:0:
192,112,356372,1,8,0:0:0:0:
192,112,356447,1,8,0:0:0:0:
192,112,356522,1,0,0:0:0:0:
192,112,356597,1,0,0:0:0:0:
192,112,356672,1,8,0:0:0:0:
192,112,356747,1,8,0:0:0:0:
192,112,356822,1,0,0:0:0:0:
192,112,356897,1,8,0:0:0:0:
192,112,356972,1,0,0:0:0:0:
192,112,357047,1,0,0:0:0:0:
192,112,357122,1,8,0:0:0:0:
192,112,357272,1,0,0:0:0:0:
192,112,357347,1,0,0:0:0:0:
192,112,357422,1,0,0:0:0:0:
192,112,357572,1,8,0:0:0:0:
192,112,357722,1,0,0:0:0:0:
192,112,357797,1,0,0:0:0:0:
192,112,357872,1,0,0:0:0:0:
192,112,358022,1,8,0:0:0:0:
192,112,358172,1,0,0:0:0:0:
192,112,358322,1,8,0:0:0:0:
192,112,358472,1,8,0:0:0:0:
192,112,358547,1,8,0:0:0:0:
192,112,358622,1,0,0:0:0:0:
192,112,358772,1,8,0:0:0:0:
192,112,358922,1,0,0:0:0:0:
192,112,358997,1,0,0:0:0:0:
192,112,359072,1,0,0:0:0:0:
192,112,359222,1,8,0:0:0:0:
192,112,359372,1,0,0:0:0:0:
192,112,359522,1,8,0:0:0:0:
192,112,359597,1,0,0:0:0:0:
192,112,359672,1,0,0:0:0:0:
192,144,359747,1,0,0:0:0:0:
192,112,359822,1,8,0:0:0:0:
192,112,359897,1,0,0:0:0:0:
192,112,359972,1,0,0:0:0:0:
192,112,360047,1,0,0:0:0:0:
192,112,360122,1,8,0:0:0:0:
192,112,360197,1,0,0:0:0:0:
192,112,360272,1,8,0:0:0:0:
192,112,360347,1,8,0:0:0:0:
192,112,360422,1,0,0:0:0:0:
192,112,360497,1,0,0:0:0:0:
192,112,360572,1,8,0:0:0:0:
192,112,360647,1,0,0:0:0:0:
192,112,360722,1,8,0:0:0:0:
192,112,360797,1,0,0:0:0:0:
192,112,360872,1,8,0:0:0:0:
192,112,360947,1,0,0:0:0:0:
192,112,361022,1,8,0:0:0:0:
192,112,361097,1,8,0:0:0:0:
224,120,361172,1,0,0:0:0:0:
192,112,361247,1,0,0:0:0:0:
192,112,361322,1,8,0:0:0:0:
192,112,361397,1,0,0:0:0:0:
192,112,361472,1,0,0:0:0:0:
192,112,361547,1,0,0:0:0:0:
192,112,361622,1,8,0:0:0:0:
192,112,361922,1,8,0:0:0:0:
192,112,361997,1,0,0:0:0:0:
192,112,362072,1,8,0:0:0:0:
192,112,362147,1,8,0:0:0:0:
192,80,362222,1,0,0:0:0:0:
192,112,362297,1,0,0:0:0:0:
192,112,362372,1,0,0:0:0:0:
192,112,362447,1,0,0:0:0:0:
192,112,362522,1,8,0:0:0:0:
192,112,362597,1,0,0:0:0:0:
192,112,362672,1,8,0:0:0:0:
192,112,362747,1,8,0:0:0:0:
192,80,362822,1,0,0:0:0:0:
192,112,362897,1,0,0:0:0:0:
192,112,362972,1,0,0:0:0:0:
192,112,363047,1,0,0:0:0:0:
224,128,363122,1,8,0:0:0:0:
224,128,363197,1,8,0:0:0:0:
224,128,363272,1,0,0:0:0:0:
224,128,363347,1,0,0:0:0:0:
224,128,363422,1,8,0:0:0:0:
224,128,363497,1,0,0:0:0:0:
224,128,363572,1,0,0:0:0:0:
224,128,363647,1,0,0:0:0:0:
224,128,363722,1,8,0:0:0:0:
192,112,363797,1,8,0:0:0:0:
192,112,363872,1,0,0:0:0:0:
192,112,363947,1,0,0:0:0:0:
192,112,364022,1,8,0:0:0:0:
192,112,364172,1,0,0:0:0:0:
192,112,364322,1,8,0:0:0:0:
192,112,364397,1,8,0:0:0:0:
192,112,364472,1,0,0:0:0:0:
192,112,364547,1,0,0:0:0:0:
192,112,364622,1,8,0:0:0:0:
192,112,364697,1,0,0:0:0:0:
192,112,364772,1,8,0:0:0:0:
192,112,364847,1,8,0:0:0:0:
192,112,364922,1,0,0:0:0:0:
192,112,364997,1,0,0:0:0:0:
192,112,365072,1,8,0:0:0:0:
192,112,365147,1,8,0:0:0:0:
192,112,365222,1,0,0:0:0:0:
192,112,365297,1,8,0:0:0:0:
192,112,365372,1,8,0:0:0:0:
192,112,365447,1,0,0:0:0:0:
216,136,365522,5,8,0:0:0:0:
216,136,365597,1,8,0:0:0:0:
216,136,365672,1,8,0:0:0:0:
216,136,365747,1,8,0:0:0:0:
216,136,365822,1,0,0:0:0:0:
216,136,365897,1,0,0:0:0:0:
216,136,365972,1,0,0:0:0:0:
216,136,366047,1,0,0:0:0:0:
280,104,366122,1,8,0:0:0:0:
216,136,366197,1,8,0:0:0:0:
216,136,366272,1,8,0:0:0:0:
216,136,366347,1,8,0:0:0:0:
152,168,366422,1,0,0:0:0:0:
216,136,366497,1,0,0:0:0:0:
216,136,366572,1,0,0:0:0:0:
280,104,366722,1,12,0:0:0:0:
208,88,366872,1,8,0:0:0:0:
208,88,367022,1,0,0:0:0:0:
208,88,367097,1,0,0:0:0:0:
208,88,367172,1,8,0:0:0:0:
208,88,367322,1,0,0:0:0:0:
152,128,367472,1,8,0:0:0:0:
208,88,367622,1,0,0:0:0:0:
208,88,367697,1,0,0:0:0:0:
208,88,367772,1,8,0:0:0:0:
152,128,367922,1,8,0:0:0:0:
152,128,368072,1,8,0:0:0:0:
152,128,368222,1,0,0:0:0:0:
152,128,368297,1,0,0:0:0:0:
152,128,368372,1,8,0:0:0:0:
80,136,368522,1,0,0:0:0:0:
152,136,368672,1,8,0:0:0:0:
80,120,368822,1,0,0:0:0:0:
112,128,368897,1,0,0:0:0:0:
112,128,368972,1,8,0:0:0:0:
208,88,369122,1,8,0:0:0:0:
208,88,369197,1,0,0:0:0:0:
208,88,369272,1,0,0:0:0:0:
208,88,369347,1,8,0:0:0:0:
208,88,369422,1,0,0:0:0:0:
208,88,369497,1,0,0:0:0:0:
208,88,369572,1,8,0:0:0:0:
208,88,369647,1,0,0:0:0:0:
208,88,369722,1,8,0:0:0:0:
208,88,369797,1,0,0:0:0:0:
208,88,369872,1,0,0:0:0:0:
208,88,369947,1,8,0:0:0:0:
208,88,370022,1,0,0:0:0:0:
208,88,370097,1,0,0:0:0:0:
208,88,370172,1,8,0:0:0:0:
208,88,370247,1,0,0:0:0:0:
208,88,370322,1,8,0:0:0:0:
208,88,370397,1,0,0:0:0:0:
208,88,370472,1,0,0:0:0:0:
208,88,370547,1,8,0:0:0:0:
208,88,370622,1,0,0:0:0:0:
208,88,370697,1,0,0:0:0:0:
208,88,370772,1,8,0:0:0:0:
208,88,370847,1,0,0:0:0:0:
208,88,370922,1,8,0:0:0:0:
208,88,370997,1,0,0:0:0:0:
208,88,371072,1,0,0:0:0:0:
208,88,371147,1,8,0:0:0:0:
208,88,371222,1,0,0:0:0:0:
208,88,371297,1,0,0:0:0:0:
208,88,371372,1,8,0:0:0:0:
208,88,371447,1,0,0:0:0:0:
216,120,371522,1,8,0:0:0:0:
216,120,371597,1,8,0:0:0:0:
184,112,371672,1,8,0:0:0:0:
184,112,371747,1,8,0:0:0:0:
216,120,371822,1,0,0:0:0:0:
184,112,371897,1,0,0:0:0:0:
184,112,371972,1,0,0:0:0:0:
184,112,372047,1,0,0:0:0:0:
184,112,372122,1,8,0:0:0:0:
184,112,372197,1,0,0:0:0:0:
208,136,372272,1,8,0:0:0:0:
216,120,372347,1,8,0:0:0:0:
184,112,372422,1,0,0:0:0:0:
184,112,372497,1,8,0:0:0:0:
184,112,372572,1,0,0:0:0:0:
184,112,372647,1,0,0:0:0:0:
184,112,372722,1,8,0:0:0:0:
184,112,372797,1,0,0:0:0:0:
184,112,372872,1,0,0:0:0:0:
184,112,372947,1,0,0:0:0:0:
184,112,373022,1,8,0:0:0:0:
184,112,373097,1,8,0:0:0:0:
176,144,373172,1,8,0:0:0:0:
176,144,373247,1,8,0:0:0:0:
176,144,373322,1,0,0:0:0:0:
184,112,373397,1,0,0:0:0:0:
184,112,373472,1,8,0:0:0:0:
184,112,373547,1,0,0:0:0:0:
184,112,373622,1,8,0:0:0:0:
288,24,373922,1,0,0:0:0:0:
264,48,373997,1,0,0:0:0:0:
240,72,374072,1,0,0:0:0:0:
240,72,374147,1,0,0:0:0:0:
240,72,374222,1,8,0:0:0:0:
216,96,374297,1,8,0:0:0:0:
216,96,374372,1,0,0:0:0:0:
216,96,374447,1,0,0:0:0:0:
216,96,374522,1,8,0:0:0:0:
216,96,374672,1,0,0:0:0:0:
216,96,374822,1,8,0:0:0:0:
288,24,375122,1,8,0:0:0:0:
264,48,375197,1,0,0:0:0:0:
240,72,375272,1,0,0:0:0:0:
240,72,375347,1,0,0:0:0:0:
240,72,375422,1,8,0:0:0:0:
208,96,375497,1,0,0:0:0:0:
176,112,375572,1,8,0:0:0:0:
208,96,375647,1,0,0:0:0:0:
208,96,375722,1,0,0:0:0:0:
208,96,375797,1,0,0:0:0:0:
208,96,375872,1,8,0:0:0:0:
208,96,375947,1,0,0:0:0:0:
208,96,376022,1,8,0:0:0:0:
208,96,376097,1,8,0:0:0:0:
208,96,376172,1,0,0:0:0:0:
168,40,376322,1,12,0:0:0:0:
200,104,376472,1,0,0:0:0:0:
216,176,376622,1,8,0:0:0:0:
176,112,376772,1,8,0:0:0:0:
216,176,376922,1,0,0:0:0:0:
216,176,377072,1,0,0:0:0:0:
224,104,377222,1,8,0:0:0:0:
224,104,377297,1,8,0:0:0:0:
224,104,377372,1,0,0:0:0:0:
224,104,377522,1,8,0:0:0:0:
168,152,377672,1,8,0:0:0:0:
176,112,377822,1,0,0:0:0:0:
176,112,377897,1,8,0:0:0:0:
176,112,377972,1,0,0:0:0:0:
200,104,378047,1,0,0:0:0:0:
200,104,378122,1,8,0:0:0:0:
176,112,378197,1,8,0:0:0:0:
176,112,378272,1,8,0:0:0:0:
176,112,378347,1,8,0:0:0:0:
176,112,378422,1,0,0:0:0:0:
176,112,378572,1,8,0:0:0:0:
224,72,378722,1,0,0:0:0:0:
224,72,378797,1,8,0:0:0:0:
224,72,378872,1,8,0:0:0:0:
224,72,378947,1,8,0:0:0:0:
224,72,379022,1,0,0:0:0:0:
224,72,379097,1,8,0:0:0:0:
224,72,379172,1,8,0:0:0:0:
224,72,379247,1,8,0:0:0:0:
224,72,379322,1,0,0:0:0:0:
224,72,379397,1,0,0:0:0:0:
224,72,379472,1,8,0:0:0:0:
224,72,379547,1,0,0:0:0:0:
224,72,379622,1,8,0:0:0:0:
224,72,379697,1,8,0:0:0:0:
224,72,379772,1,0,0:0:0:0:
224,72,379847,1,8,0:0:0:0:
224,72,379922,1,0,0:0:0:0:
224,72,379997,1,8,0:0:0:0:
224,72,380072,1,8,0:0:0:0:
224,72,380147,1,8,0:0:0:0:
224,72,380222,1,0,0:0:0:0:
224,72,380297,1,8,0:0:0:0:
224,72,380372,1,8,0:0:0:0:
224,72,380447,1,8,0:0:0:0:
224,72,380522,1,0,0:0:0:0:
224,72,380597,1,0,0:0:0:0:
224,72,380672,1,8,0:0:0:0:
224,72,380747,1,0,0:0:0:0:
224,72,380822,1,8,0:0:0:0:
160,104,380972,1,0,0:0:0:0:
112,160,381122,1,8,0:0:0:0:
208,112,381197,1,0,0:0:0:0:
208,112,381272,1,8,0:0:0:0:
208,112,381347,1,0,0:0:0:0:
208,112,381422,1,8,0:0:0:0:
208,112,381497,1,8,0:0:0:0:
208,112,381572,1,0,0:0:0:0:
208,112,381647,1,8,0:0:0:0:
176,96,381722,1,8,0:0:0:0:
176,96,381797,1,0,0:0:0:0:
176,96,381872,1,0,0:0:0:0:
176,96,381947,1,0,0:0:0:0:
176,96,382022,1,8,0:0:0:0:
176,96,382097,1,0,0:0:0:0:
176,96,382172,1,0,0:0:0:0:
176,96,382247,1,0,0:0:0:0:
112,160,382322,1,8,0:0:0:0:
208,112,382397,1,0,0:0:0:0:
208,112,382472,1,8,0:0:0:0:
208,112,382547,1,0,0:0:0:0:
208,112,382622,1,8,0:0:0:0:
208,112,382697,1,8,0:0:0:0:
208,112,382772,1,0,0:0:0:0:
208,112,382847,1,8,0:0:0:0:
176,96,382922,1,8,0:0:0:0:
176,96,382997,1,0,0:0:0:0:
176,96,383072,1,0,0:0:0:0:
176,96,383147,1,0,0:0:0:0:
176,96,383222,1,8,0:0:0:0:
176,96,383297,1,0,0:0:0:0:
176,96,383372,1,0,0:0:0:0:
176,96,383447,1,0,0:0:0:0:
248,120,383522,1,8,0:0:0:0:
248,120,383597,1,8,0:0:0:0:
248,120,383672,1,0,0:0:0:0:
248,120,383747,1,0,0:0:0:0:
248,120,383822,1,8,0:0:0:0:
248,120,383897,1,0,0:0:0:0:
248,120,383972,1,0,0:0:0:0:
248,120,384047,1,0,0:0:0:0:
248,120,384122,1,8,0:0:0:0:
248,120,384197,1,8,0:0:0:0:
248,120,384272,1,0,0:0:0:0:
248,120,384347,1,0,0:0:0:0:
248,120,384422,1,8,0:0:0:0:
248,120,384497,1,0,0:0:0:0:
248,120,384572,1,0,0:0:0:0:
248,120,384647,1,0,0:0:0:0:
248,120,384722,1,8,0:0:0:0:
248,120,384797,1,8,0:0:0:0:
248,120,384872,1,8,0:0:0:0:
248,120,385022,1,4,0:0:0:0:
248,120,385322,1,8,0:0:0:0:
248,120,385397,1,8,0:0:0:0:
248,120,385472,1,8,0:0:0:0:
248,120,385622,1,4,0:0:0:0:
248,120,385922,1,4,0:0:0:0:
184,144,386072,1,8,0:0:0:0:
128,96,386222,1,0,0:0:0:0:
152,120,386297,1,0,0:0:0:0:
152,120,386372,1,8,0:0:0:0:
184,144,386522,1,0,0:0:0:0:
120,112,386672,1,8,0:0:0:0:
152,128,386747,1,8,0:0:0:0:
152,128,386822,1,0,0:0:0:0:
152,128,386897,1,0,0:0:0:0:
152,128,386972,1,8,0:0:0:0:
184,144,387122,1,0,0:0:0:0:
184,144,387272,1,8,0:0:0:0:
184,144,387422,1,0,0:0:0:0:
184,144,387497,1,0,0:0:0:0:
184,144,387572,1,8,0:0:0:0:
200,152,387722,1,0,0:0:0:0:
184,144,387872,1,8,0:0:0:0:
184,144,387947,1,8,0:0:0:0:
184,144,388022,1,0,0:0:0:0:
184,144,388172,1,0,0:0:0:0:
232,136,388322,1,8,0:0:0:0:
232,136,388397,1,8,0:0:0:0:
232,136,388472,1,8,0:0:0:0:
232,136,388547,1,8,0:0:0:0:
200,152,388622,1,8,0:0:0:0:
200,152,388697,1,8,0:0:0:0:
232,136,388772,1,0,0:0:0:0:
232,136,388847,1,0,0:0:0:0:
232,136,388922,1,0,0:0:0:0:
232,136,388997,1,0,0:0:0:0:
200,152,389072,1,0,0:0:0:0:
200,152,389147,1,0,0:0:0:0:
200,152,389222,1,8,0:0:0:0:
200,152,389297,1,0,0:0:0:0:
200,152,389372,1,0,0:0:0:0:
200,152,389447,1,0,0:0:0:0:
232,136,389522,1,8,0:0:0:0:
232,136,389672,1,0,0:0:0:0:
232,136,389747,1,0,0:0:0:0:
232,136,389822,1,0,0:0:0:0:
232,136,389972,1,8,0:0:0:0:
232,136,390122,1,0,0:0:0:0:
232,136,390272,1,8,0:0:0:0:
232,136,390422,1,0,0:0:0:0:
232,136,390497,1,0,0:0:0:0:
232,136,390572,1,8,0:0:0:0:
232,136,390722,1,0,0:0:0:0:
232,136,390797,1,8,0:0:0:0:
232,136,390872,1,8,0:0:0:0:
232,136,390947,1,8,0:0:0:0:
232,136,391022,1,0,0:0:0:0:
232,136,391097,1,0,0:0:0:0:
232,136,391172,1,8,0:0:0:0:
232,136,391247,1,0,0:0:0:0:
232,136,391322,1,8,0:0:0:0:
232,136,391397,1,8,0:0:0:0:
232,136,391472,1,0,0:0:0:0:
232,136,391547,1,0,0:0:0:0:
232,136,391622,1,8,0:0:0:0:
232,136,391697,1,8,0:0:0:0:
232,136,391772,1,0,0:0:0:0:
232,136,391847,1,0,0:0:0:0:
232,136,391922,1,0,0:0:0:0:
232,136,391997,1,8,0:0:0:0:
232,136,392072,1,8,0:0:0:0:
232,136,392147,1,8,0:0:0:0:
232,136,392222,1,0,0:0:0:0:
232,136,392297,1,0,0:0:0:0:
232,136,392372,1,8,0:0:0:0:
232,136,392447,1,0,0:0:0:0:
232,136,392522,1,8,0:0:0:0:
232,136,392597,1,8,0:0:0:0:
232,136,392672,1,0,0:0:0:0:
232,136,392747,1,0,0:0:0:0:
232,136,392822,1,8,0:0:0:0:
232,136,392897,1,8,0:0:0:0:
232,136,392972,1,0,0:0:0:0:
232,136,393047,1,0,0:0:0:0:
264,144,393122,1,8,0:0:0:0:
232,136,393272,1,0,0:0:0:0:
232,136,393422,1,0,0:0:0:0:
232,136,393572,1,8,0:0:0:0:
232,136,393722,1,0,0:0:0:0:
232,136,393797,1,0,0:0:0:0:
232,136,393872,1,0,0:0:0:0:
232,136,394022,1,8,0:0:0:0:
232,136,394172,1,0,0:0:0:0:
232,136,394322,1,8,0:0:0:0:
232,136,394397,1,0,0:0:0:0:
232,136,394472,1,0,0:0:0:0:
232,136,394547,1,0,0:0:0:0:
232,136,394622,1,8,0:0:0:0:
232,136,394697,1,8,0:0:0:0:
232,136,394772,1,8,0:0:0:0:
232,136,394847,1,8,0:0:0:0:
232,136,394922,1,0,0:0:0:0:
232,136,394997,1,0,0:0:0:0:
232,136,395072,1,8,0:0:0:0:
232,136,395147,1,0,0:0:0:0:
232,136,395222,1,8,0:0:0:0:
232,136,395297,1,8,0:0:0:0:
232,136,395372,1,0,0:0:0:0:
232,136,395447,1,0,0:0:0:0:
248,168,395522,5,8,0:0:0:0:
248,168,395597,1,0,0:0:0:0:
248,168,395672,1,0,0:0:0:0:
248,168,395747,1,0,0:0:0:0:
248,168,395822,1,8,0:0:0:0:
248,168,395897,1,0,0:0:0:0:
248,168,395972,1,0,0:0:0:0:
248,168,396047,1,0,0:0:0:0:
248,168,396122,1,8,0:0:0:0:
264,136,396197,1,8,0:0:0:0:
248,168,396272,1,0,0:0:0:0:
224,144,396347,1,0,0:0:0:0:
224,144,396422,1,8,0:0:0:0:
224,144,396497,1,8,0:0:0:0:
224,144,396572,1,0,0:0:0:0:
224,144,396647,1,0,0:0:0:0:
264,136,396722,1,8,0:0:0:0:
264,136,396797,1,0,0:0:0:0:
264,136,396872,1,0,0:0:0:0:
264,136,396947,1,0,0:0:0:0:
224,144,397022,1,8,0:0:0:0:
224,144,397097,1,0,0:0:0:0:
224,144,397172,1,0,0:0:0:0:
224,144,397247,1,0,0:0:0:0:
224,144,397322,1,8,0:0:0:0:
224,144,397397,1,8,0:0:0:0:
224,144,397472,1,0,0:0:0:0:
224,144,397547,1,0,0:0:0:0:
224,144,397622,1,8,0:0:0:0:
224,144,397697,1,8,0:0:0:0:
224,144,397772,1,0,0:0:0:0:
224,144,397847,1,0,0:0:0:0:
248,168,397922,1,8,0:0:0:0:
248,168,397997,1,0,0:0:0:0:
248,168,398072,1,0,0:0:0:0:
248,168,398147,1,0,0:0:0:0:
248,168,398222,1,8,0:0:0:0:
248,168,398297,1,0,0:0:0:0:
248,168,398372,1,0,0:0:0:0:
248,168,398447,1,0,0:0:0:0:
248,168,398522,1,8,0:0:0:0:
264,136,398597,1,8,0:0:0:0:
248,168,398672,1,0,0:0:0:0:
224,144,398747,1,0,0:0:0:0:
224,144,398822,1,8,0:0:0:0:
224,144,398897,1,8,0:0:0:0:
224,144,398972,1,0,0:0:0:0:
224,144,399047,1,0,0:0:0:0:
264,136,399122,1,8,0:0:0:0:
264,136,399197,1,0,0:0:0:0:
264,136,399272,1,0,0:0:0:0:
264,136,399347,1,0,0:0:0:0:
224,144,399422,1,8,0:0:0:0:
224,144,399497,1,0,0:0:0:0:
224,144,399572,1,0,0:0:0:0:
224,144,399647,1,0,0:0:0:0:
224,144,399722,1,8,0:0:0:0:
224,144,399797,1,8,0:0:0:0:
224,144,399872,1,0,0:0:0:0:
224,144,399947,1,0,0:0:0:0:
224,144,400022,1,8,0:0:0:0:
224,144,400097,1,0,0:0:0:0:
224,144,400172,1,0,0:0:0:0:
224,144,400247,1,0,0:0:0:0:
264,136,400322,1,8,0:0:0:0:
232,120,400397,1,8,0:0:0:0:
232,120,400472,1,0,0:0:0:0:
232,120,400547,1,0,0:0:0:0:
224,144,400622,1,8,0:0:0:0:
224,144,400697,1,8,0:0:0:0:
224,144,400772,1,0,0:0:0:0:
224,144,400847,1,0,0:0:0:0:
224,144,400922,1,8,0:0:0:0:
224,144,400997,1,0,0:0:0:0:
224,144,401072,1,8,0:0:0:0:
192,152,401147,1,8,0:0:0:0:
192,152,401222,1,0,0:0:0:0:
192,152,401297,1,0,0:0:0:0:
192,152,401372,1,8,0:0:0:0:
192,152,401447,1,0,0:0:0:0:
192,152,401522,1,0,0:0:0:0:
192,152,401672,1,8,0:0:0:0:
192,152,401972,1,8,0:0:0:0:
192,152,402122,1,8,0:0:0:0:
192,152,402197,1,8,0:0:0:0:
192,152,402272,1,0,0:0:0:0:
192,152,402347,1,8,0:0:0:0:
192,152,402422,1,0,0:0:0:0:
192,152,402572,1,0,0:0:0:0:
192,152,402722,1,8,0:0:0:0:
192,152,402797,1,8,0:0:0:0:
192,152,402872,1,8,0:0:0:0:
192,152,402947,1,8,0:0:0:0:
192,152,403022,1,0,0:0:0:0:
192,152,403097,1,0,0:0:0:0:
192,152,403172,1,8,0:0:0:0:
192,152,403247,1,8,0:0:0:0:
192,152,403322,1,8,0:0:0:0:
192,152,403397,1,8,0:0:0:0:
192,152,403472,1,0,0:0:0:0:
192,152,403547,1,0,0:0:0:0:
192,152,403622,1,8,0:0:0:0:
192,152,403697,1,8,0:0:0:0:
192,152,403772,1,0,0:0:0:0:
192,152,403847,1,0,0:0:0:0:
168,176,403922,1,8,0:0:0:0:
168,176,403997,1,0,0:0:0:0:
168,176,404072,1,0,0:0:0:0:
168,176,404147,1,0,0:0:0:0:
168,176,404222,1,8,0:0:0:0:
168,176,404297,1,0,0:0:0:0:
168,176,404372,1,8,0:0:0:0:
168,176,404447,1,0,0:0:0:0:
168,176,404522,1,8,0:0:0:0:
168,176,404597,1,8,0:0:0:0:
168,176,404672,1,8,0:0:0:0:
168,176,404747,1,8,0:0:0:0:
168,176,404822,1,0,0:0:0:0:
168,176,404897,1,0,0:0:0:0:
168,176,404972,1,8,0:0:0:0:
168,176,405047,1,8,0:0:0:0:
200,176,405122,1,0,0:0:0:0:
200,176,405197,1,0,0:0:0:0:
192,152,405272,1,8,0:0:0:0:
192,152,405347,1,0,0:0:0:0:
192,152,405422,1,0,0:0:0:0:
200,176,405497,1,0,0:0:0:0:
200,176,405572,1,8,0:0:0:0:
200,176,405647,1,8,0:0:0:0:
200,176,405722,1,0,0:0:0:0:
200,176,405797,1,0,0:0:0:0:
200,176,405872,1,8,0:0:0:0:
200,176,405947,1,0,0:0:0:0:
200,176,406022,1,0,0:0:0:0:
200,176,406097,1,0,0:0:0:0:
200,176,406172,1,8,0:0:0:0:
200,176,406247,1,0,0:0:0:0:
200,176,406322,1,0,0:0:0:0:
200,176,406397,1,0,0:0:0:0:
192,152,406472,1,8,0:0:0:0:
192,152,406547,1,0,0:0:0:0:
192,152,406622,1,0,0:0:0:0:
200,176,406697,1,0,0:0:0:0:
200,176,406772,1,8,0:0:0:0:
200,176,406847,1,8,0:0:0:0:
200,176,406922,1,0,0:0:0:0:
200,176,406997,1,0,0:0:0:0:
200,176,407072,1,8,0:0:0:0:
200,176,407147,1,0,0:0:0:0:
200,176,407222,1,0,0:0:0:0:
200,176,407297,1,0,0:0:0:0:
200,176,407372,1,8,0:0:0:0:
200,176,407447,1,8,0:0:0:0:
200,176,407522,1,0,0:0:0:0:
200,176,407597,1,0,0:0:0:0:
192,152,407672,1,8,0:0:0:0:
192,152,407747,1,0,0:0:0:0:
192,152,407822,1,0,0:0:0:0:
200,176,407897,1,0,0:0:0:0:
200,176,407972,1,8,0:0:0:0:
200,176,408047,1,8,0:0:0:0:
200,176,408122,1,0,0:0:0:0:
200,176,408197,1,0,0:0:0:0:
200,176,408272,1,8,0:0:0:0:
200,176,408347,1,0,0:0:0:0:
200,176,408422,1,0,0:0:0:0:
200,176,408497,1,0,0:0:0:0:
200,176,408572,1,8,0:0:0:0:
200,176,408647,1,0,0:0:0:0:
200,176,408722,1,0,0:0:0:0:
200,176,408797,1,0,0:0:0:0:
192,152,408872,1,8,0:0:0:0:
192,152,408947,1,0,0:0:0:0:
192,152,409022,1,0,0:0:0:0:
200,176,409097,1,0,0:0:0:0:
200,176,409172,1,8,0:0:0:0:
200,176,409247,1,8,0:0:0:0:
200,176,409322,1,0,0:0:0:0:
200,176,409397,1,0,0:0:0:0:
200,176,409472,1,8,0:0:0:0:
200,176,409547,1,0,0:0:0:0:
200,176,409622,1,0,0:0:0:0:
200,176,409697,1,0,0:0:0:0:
200,176,409772,1,8,0:0:0:0:
200,176,409847,1,8,0:0:0:0:
200,176,409922,1,0,0:0:0:0:
200,176,409997,1,0,0:0:0:0:
192,152,410072,1,8,0:0:0:0:
192,152,410147,1,0,0:0:0:0:
192,152,410222,1,0,0:0:0:0:
200,176,410297,1,0,0:0:0:0:
200,176,410372,1,8,0:0:0:0:
200,176,410447,1,8,0:0:0:0:
200,176,410522,1,0,0:0:0:0:
200,176,410597,1,0,0:0:0:0:
200,176,410672,1,8,0:0:0:0:
200,176,410747,1,0,0:0:0:0:
200,176,410822,1,0,0:0:0:0:
200,176,410897,1,0,0:0:0:0:
200,176,410972,1,8,0:0:0:0:
200,176,411047,1,0,0:0:0:0:
200,176,411122,1,0,0:0:0:0:
200,176,411197,1,0,0:0:0:0:
192,152,411272,1,8,0:0:0:0:
192,152,411347,1,0,0:0:0:0:
192,152,411422,1,0,0:0:0:0:
200,176,411497,1,0,0:0:0:0:
200,176,411572,1,8,0:0:0:0:
200,176,411647,1,8,0:0:0:0:
200,176,411722,1,0,0:0:0:0:
200,176,411797,1,0,0:0:0:0:
200,176,411872,1,8,0:0:0:0:
200,176,411947,1,0,0:0:0:0:
200,176,412022,1,0,0:0:0:0:
200,176,412097,1,0,0:0:0:0:
200,176,412172,1,8,0:0:0:0:
200,176,412247,1,8,0:0:0:0:
224,152,412322,1,0,0:0:0:0:
248,120,412397,1,0,0:0:0:0:
248,120,412472,1,0,0:0:0:0:
248,120,412547,1,0,0:0:0:0:
224,96,412622,1,8,0:0:0:0:
248,120,412697,1,8,0:0:0:0:
248,120,412772,1,8,0:0:0:0:
248,120,412847,1,8,0:0:0:0:
248,120,412922,1,0,0:0:0:0:
248,120,412997,1,0,0:0:0:0:
248,120,413072,1,8,0:0:0:0:
248,120,413147,1,8,0:0:0:0:
248,120,413222,1,8,0:0:0:0:
248,120,413297,1,8,0:0:0:0:
248,120,413372,1,0,0:0:0:0:
248,120,413447,1,0,0:0:0:0:
248,120,413522,1,8,0:0:0:0:
248,120,413597,1,0,0:0:0:0:
248,120,413672,1,0,0:0:0:0:
248,120,413747,1,0,0:0:0:0:
248,120,413822,1,8,0:0:0:0:
248,120,413897,1,0,0:0:0:0:
248,120,413972,1,0,0:0:0:0:
248,120,414047,1,0,0:0:0:0:
248,120,414122,1,8,0:0:0:0:
248,120,414197,1,8,0:0:0:0:
248,120,414272,1,8,0:0:0:0:
248,120,414347,1,8,0:0:0:0:
256,152,414422,1,8,0:0:0:0:
248,120,414497,1,8,0:0:0:0:
248,120,414572,1,8,0:0:0:0:
248,120,414647,1,8,0:0:0:0:
200,176,414722,1,0,0:0:0:0:
200,176,414797,1,0,0:0:0:0:
192,152,414872,1,8,0:0:0:0:
192,152,414947,1,0,0:0:0:0:
192,152,415022,1,0,0:0:0:0:
200,176,415097,1,0,0:0:0:0:
200,176,415172,1,8,0:0:0:0:
200,176,415247,1,8,0:0:0:0:
200,176,415322,1,0,0:0:0:0:
200,176,415397,1,0,0:0:0:0:
200,176,415472,1,8,0:0:0:0:
200,176,415547,1,0,0:0:0:0:
200,176,415622,1,0,0:0:0:0:
200,176,415697,1,0,0:0:0:0:
200,176,415772,1,8,0:0:0:0:
200,176,415847,1,0,0:0:0:0:
200,176,415922,1,0,0:0:0:0:
200,176,415997,1,0,0:0:0:0:
192,152,416072,1,8,0:0:0:0:
192,152,416147,1,0,0:0:0:0:
192,152,416222,1,0,0:0:0:0:
200,176,416297,1,0,0:0:0:0:
200,176,416372,1,8,0:0:0:0:
200,176,416447,1,8,0:0:0:0:
200,176,416522,1,0,0:0:0:0:
200,176,416597,1,0,0:0:0:0:
200,176,416672,1,8,0:0:0:0:
200,176,416747,1,0,0:0:0:0:
200,176,416822,1,0,0:0:0:0:
200,176,416897,1,0,0:0:0:0:
200,176,416972,1,8,0:0:0:0:
200,176,417047,1,8,0:0:0:0:
200,176,417122,1,0,0:0:0:0:
200,176,417197,1,0,0:0:0:0:
192,152,417272,1,8,0:0:0:0:
192,152,417347,1,0,0:0:0:0:
192,152,417422,1,0,0:0:0:0:
200,176,417497,1,0,0:0:0:0:
200,176,417572,1,8,0:0:0:0:
200,176,417647,1,8,0:0:0:0:
200,176,417722,1,0,0:0:0:0:
200,176,417797,1,0,0:0:0:0:
200,176,417872,1,8,0:0:0:0:
200,176,417947,1,0,0:0:0:0:
200,176,418022,1,0,0:0:0:0:
200,176,418097,1,0,0:0:0:0:
200,176,418172,1,8,0:0:0:0:
200,176,418247,1,0,0:0:0:0:
200,176,418322,1,0,0:0:0:0:
200,176,418397,1,0,0:0:0:0:
192,152,418472,1,8,0:0:0:0:
192,152,418547,1,0,0:0:0:0:
192,152,418622,1,0,0:0:0:0:
200,176,418697,1,0,0:0:0:0:
200,176,418772,1,8,0:0:0:0:
200,176,418847,1,8,0:0:0:0:
200,176,418922,1,0,0:0:0:0:
200,176,418997,1,0,0:0:0:0:
200,176,419072,1,8,0:0:0:0:
200,176,419147,1,0,0:0:0:0:
200,176,419222,1,0,0:0:0:0:
200,176,419297,1,0,0:0:0:0:
200,176,419372,1,8,0:0:0:0:
200,176,419447,1,8,0:0:0:0:
200,176,419522,1,0,0:0:0:0:
200,176,419597,1,0,0:0:0:0:
192,152,419672,1,8,0:0:0:0:
192,152,419747,1,0,0:0:0:0:
192,152,419822,1,0,0:0:0:0:
200,176,419897,1,0,0:0:0:0:
200,176,419972,1,8,0:0:0:0:
200,176,420047,1,8,0:0:0:0:
200,176,420122,1,0,0:0:0:0:
200,176,420197,1,0,0:0:0:0:
200,176,420272,1,8,0:0:0:0:
200,176,420347,1,0,0:0:0:0:
200,176,420422,1,0,0:0:0:0:
200,176,420497,1,0,0:0:0:0:
200,176,420572,1,8,0:0:0:0:
200,176,420647,1,0,0:0:0:0:
200,176,420722,1,0,0:0:0:0:
200,176,420797,1,0,0:0:0:0:
192,152,420872,1,8,0:0:0:0:
192,152,420947,1,0,0:0:0:0:
192,152,421022,1,0,0:0:0:0:
200,176,421097,1,0,0:0:0:0:
200,176,421172,1,8,0:0:0:0:
200,176,421247,1,8,0:0:0:0:
200,176,421322,1,0,0:0:0:0:
200,176,421397,1,0,0:0:0:0:
200,176,421472,1,8,0:0:0:0:
200,176,421547,1,0,0:0:0:0:
200,176,421622,1,0,0:0:0:0:
200,176,421697,1,0,0:0:0:0:
200,176,421772,1,8,0:0:0:0:
200,176,421847,1,8,0:0:0:0:
232,104,421922,1,0,0:0:0:0:
232,104,421997,1,0,0:0:0:0:
232,104,422072,1,8,0:0:0:0:
264,96,422147,1,0,0:0:0:0:
232,104,422222,1,0,0:0:0:0:
232,104,422297,1,0,0:0:0:0:
232,104,422372,1,8,0:0:0:0:
232,104,422447,1,8,0:0:0:0:
264,96,422522,1,0,0:0:0:0:
232,104,422597,1,0,0:0:0:0:
232,104,422672,1,8,0:0:0:0:
232,104,422747,1,0,0:0:0:0:
232,104,422822,1,0,0:0:0:0:
232,104,422897,1,0,0:0:0:0:
232,104,422972,1,8,0:0:0:0:
232,104,423047,1,0,0:0:0:0:
224,152,423122,5,8,0:0:0:0:
224,152,423197,1,8,0:0:0:0:
224,152,423272,1,8,0:0:0:0:
224,152,423347,1,8,0:0:0:0:
224,152,423422,1,0,0:0:0:0:
224,152,423497,1,0,0:0:0:0:
224,152,423572,1,8,0:0:0:0:
224,152,423647,1,8,0:0:0:0:
224,152,423722,1,8,0:0:0:0:
224,152,423797,1,8,0:0:0:0:
224,152,423872,1,0,0:0:0:0:
224,152,423947,1,0,0:0:0:0:
224,152,424022,1,8,0:0:0:0:
232,184,424097,1,8,0:0:0:0:
224,152,424172,1,0,0:0:0:0:
248,176,424247,1,8,0:0:0:0:
224,152,424322,5,0,0:0:0:0:
288,128,424472,1,8,0:0:0:0:
288,128,424622,1,0,0:0:0:0:
288,128,424697,1,0,0:0:0:0:
288,128,424772,1,8,0:0:0:0:
288,128,424922,1,0,0:0:0:0:
288,128,425072,1,8,0:0:0:0:
288,128,425147,1,0,0:0:0:0:
322,130,425222,1,0,0:0:0:0:
288,128,425297,1,0,0:0:0:0:
256,128,425372,1,8,0:0:0:0:
256,128,425522,1,0,0:0:0:0:
256,128,425672,1,8,0:0:0:0:
256,128,425822,1,0,0:0:0:0:
256,128,425897,1,0,0:0:0:0:
288,152,425972,1,8,0:0:0:0:
288,128,426122,1,0,0:0:0:0:
256,128,426272,1,8,0:0:0:0:
256,128,426347,1,8,0:0:0:0:
256,128,426422,1,0,0:0:0:0:
256,128,426497,1,0,0:0:0:0:
256,128,426572,1,8,0:0:0:0:
280,120,426722,1,8,0:0:0:0:
256,128,426872,1,0,0:0:0:0:
256,128,426947,1,0,0:0:0:0:
256,128,427022,1,0,0:0:0:0:
256,128,427172,1,8,0:0:0:0:
256,128,427322,1,0,0:0:0:0:
256,128,427397,1,0,0:0:0:0:
256,128,427472,1,0,0:0:0:0:
256,128,427622,1,8,0:0:0:0:
256,128,427772,1,0,0:0:0:0:
256,128,427922,1,8,0:0:0:0:
280,120,428072,1,0,0:0:0:0:
256,128,428147,1,0,0:0:0:0:
256,128,428222,1,0,0:0:0:0:
240,96,428297,1,0,0:0:0:0:
240,96,428372,1,8,0:0:0:0:
240,96,428522,1,0,0:0:0:0:
240,96,428597,1,0,0:0:0:0:
240,96,428672,1,0,0:0:0:0:
240,96,428747,1,0,0:0:0:0:
240,96,428822,1,8,0:0:0:0:
240,96,428972,1,0,0:0:0:0:
240,96,429122,1,8,0:0:0:0:
240,96,429197,1,0,0:0:0:0:
240,96,429272,1,0,0:0:0:0:
240,96,429347,1,0,0:0:0:0:
240,96,429422,1,0,0:0:0:0:
240,96,429497,1,0,0:0:0:0:
32,112,429572,1,8,0:0:0:0:
240,96,429647,1,0,0:0:0:0:
240,96,429722,1,0,0:0:0:0:
240,96,429797,1,0,0:0:0:0:
240,96,429872,1,0,0:0:0:0:
240,96,429947,1,0,0:0:0:0:
240,96,430022,1,8,0:0:0:0:
208,104,430097,1,0,0:0:0:0:
208,104,430172,1,0,0:0:0:0:
208,104,430247,1,0,0:0:0:0:
240,96,430322,1,8,0:0:0:0:
208,104,430397,1,0,0:0:0:0:
208,104,430472,1,0,0:0:0:0:
208,104,430547,1,0,0:0:0:0:
240,96,430622,1,8,0:0:0:0:
208,104,430697,1,0,0:0:0:0:
208,104,430772,1,0,0:0:0:0:
208,104,430847,1,0,0:0:0:0:
240,96,430922,1,8,0:0:0:0:
208,104,430997,1,8,0:0:0:0:
208,104,431072,1,0,0:0:0:0:
208,104,431147,1,0,0:0:0:0:
240,96,431222,1,8,0:0:0:0:
208,104,431297,1,8,0:0:0:0:
208,104,431372,1,0,0:0:0:0:
208,104,431447,1,0,0:0:0:0:
248,96,431522,5,8,0:0:0:0:
104,128,433922,5,4,0:0:0:0:
176,128,434072,1,8,0:0:0:0:
248,128,434222,1,0,0:0:0:0:
216,128,434297,1,0,0:0:0:0:
184,128,434372,1,8,0:0:0:0:
176,128,434522,1,0,0:0:0:0:
176,128,434672,1,8,0:0:0:0:
176,128,434747,1,8,0:0:0:0:
176,128,434822,1,0,0:0:0:0:
176,128,434897,1,0,0:0:0:0:
176,128,434972,1,8,0:0:0:0:
176,128,435122,1,0,0:0:0:0:
176,128,435272,1,8,0:0:0:0:
176,128,435422,1,0,0:0:0:0:
176,128,435497,1,0,0:0:0:0:
176,128,435572,1,8,0:0:0:0:
184,128,435722,1,0,0:0:0:0:
176,128,435797,1,0,0:0:0:0:
184,128,435872,1,8,0:0:0:0:
184,128,435947,1,8,0:0:0:0:
176,128,436022,1,0,0:0:0:0:
176,128,436172,1,0,0:0:0:0:
224,176,436322,1,8,0:0:0:0:
208,144,436397,1,0,0:0:0:0:
208,144,436472,1,0,0:0:0:0:
208,144,436547,1,0,0:0:0:0:
176,136,436622,1,0,0:0:0:0:
176,136,436697,1,0,0:0:0:0:
208,144,436772,1,8,0:0:0:0:
176,136,436847,1,0,0:0:0:0:
176,136,436922,1,0,0:0:0:0:
176,136,436997,1,0,0:0:0:0:
176,136,437072,1,0,0:0:0:0:
176,136,437147,1,0,0:0:0:0:
8,72,437222,1,8,0:0:0:0:
40,80,437297,1,0,0:0:0:0:
72,96,437372,1,0,0:0:0:0:
104,104,437447,1,0,0:0:0:0:
224,144,437522,1,8,0:0:0:0:
224,144,437597,1,8,0:0:0:0:
224,144,437672,1,0,0:0:0:0:
224,144,437747,1,0,0:0:0:0:
224,144,437822,1,8,0:0:0:0:
224,144,437897,1,8,0:0:0:0:
224,144,437972,1,0,0:0:0:0:
224,144,438047,1,0,0:0:0:0:
224,144,438122,1,8,0:0:0:0:
224,144,438197,1,8,0:0:0:0:
224,144,438272,1,0,0:0:0:0:
224,144,438347,1,0,0:0:0:0:
192,128,438422,1,8,0:0:0:0:
192,128,438497,1,8,0:0:0:0:
192,128,438572,1,8,0:0:0:0:
192,128,438647,1,8,0:0:0:0:
224,120,438722,1,0,0:0:0:0:
256,96,438797,1,0,0:0:0:0:
232,120,438872,1,8,0:0:0:0:
232,120,438947,1,0,0:0:0:0:
232,120,439022,1,8,0:0:0:0:
232,120,439097,1,8,0:0:0:0:
232,120,439172,1,0,0:0:0:0:
232,120,439247,1,8,0:0:0:0:
232,120,439322,1,0,0:0:0:0:
232,120,439397,1,0,0:0:0:0:
232,120,439472,1,8,0:0:0:0:
232,120,439547,1,0,0:0:0:0:
232,120,439622,1,8,0:0:0:0:
232,120,439697,1,8,0:0:0:0:
232,120,439772,1,0,0:0:0:0:
232,120,439847,1,8,0:0:0:0:
224,120,439922,1,0,0:0:0:0:
256,96,439997,1,0,0:0:0:0:
232,120,440072,1,8,0:0:0:0:
232,120,440147,1,0,0:0:0:0:
232,120,440222,1,8,0:0:0:0:
232,120,440297,1,8,0:0:0:0:
232,120,440372,1,0,0:0:0:0:
232,120,440447,1,8,0:0:0:0:
232,120,440522,1,0,0:0:0:0:
232,120,440597,1,0,0:0:0:0:
232,120,440672,1,8,0:0:0:0:
232,120,440747,1,0,0:0:0:0:
232,120,440822,1,8,0:0:0:0:
232,120,440897,1,8,0:0:0:0:
232,120,440972,1,0,0:0:0:0:
232,120,441047,1,8,0:0:0:0:
200,120,441122,1,0,0:0:0:0:
200,120,441272,1,8,0:0:0:0:
232,120,441422,1,0,0:0:0:0:
224,120,441497,1,0,0:0:0:0:
232,120,441572,1,8,0:0:0:0:
232,120,441722,1,0,0:0:0:0:
160,112,441872,1,8,0:0:0:0:
128,104,441947,1,0,0:0:0:0:
200,120,442097,1,0,0:0:0:0:
200,120,442172,1,8,0:0:0:0:
176,56,442322,1,8,0:0:0:0:
184,88,442397,1,8,0:0:0:0:
200,120,442472,1,0,0:0:0:0:
200,120,442547,1,0,0:0:0:0:
184,88,442622,1,8,0:0:0:0:
184,88,442697,1,8,0:0:0:0:
184,88,442772,1,8,0:0:0:0:
184,88,442847,1,8,0:0:0:0:
216,96,442922,1,0,0:0:0:0:
184,88,442997,1,0,0:0:0:0:
184,88,443072,1,8,0:0:0:0:
184,88,443147,1,0,0:0:0:0:
184,88,443222,1,8,0:0:0:0:
184,88,443297,1,8,0:0:0:0:
184,88,443372,1,8,0:0:0:0:
184,88,443447,1,8,0:0:0:0:
224,120,443522,1,0,0:0:0:0:
256,96,443597,1,0,0:0:0:0:
232,120,443672,1,8,0:0:0:0:
232,120,443747,1,0,0:0:0:0:
232,120,443822,1,8,0:0:0:0:
232,120,443897,1,8,0:0:0:0:
232,120,443972,1,0,0:0:0:0:
232,120,444047,1,8,0:0:0:0:
232,120,444122,1,0,0:0:0:0:
232,120,444197,1,0,0:0:0:0:
232,120,444272,1,8,0:0:0:0:
232,120,444347,1,0,0:0:0:0:
232,120,444422,1,8,0:0:0:0:
232,120,444497,1,8,0:0:0:0:
232,120,444572,1,0,0:0:0:0:
232,120,444647,1,8,0:0:0:0:
224,120,444722,1,0,0:0:0:0:
256,96,444797,1,0,0:0:0:0:
232,120,444872,1,8,0:0:0:0:
232,120,444947,1,0,0:0:0:0:
232,120,445022,1,8,0:0:0:0:
232,120,445097,1,8,0:0:0:0:
232,120,445172,1,0,0:0:0:0:
232,120,445247,1,8,0:0:0:0:
232,120,445322,1,0,0:0:0:0:
232,120,445397,1,0,0:0:0:0:
232,120,445472,1,8,0:0:0:0:
232,120,445547,1,0,0:0:0:0:
232,120,445622,1,8,0:0:0:0:
232,120,445697,1,8,0:0:0:0:
232,120,445772,1,0,0:0:0:0:
232,120,445847,1,8,0:0:0:0:
200,120,445922,1,0,0:0:0:0:
224,120,446072,1,8,0:0:0:0:
224,120,446222,1,0,0:0:0:0:
224,120,446297,1,0,0:0:0:0:
200,120,446372,1,8,0:0:0:0:
200,120,446522,1,0,0:0:0:0:
200,120,446672,1,8,0:0:0:0:
200,120,446747,1,0,0:0:0:0:
200,120,446897,1,0,0:0:0:0:
200,120,446972,1,8,0:0:0:0:
200,120,447122,1,0,0:0:0:0:
200,120,447272,1,8,0:0:0:0:
200,120,447422,1,0,0:0:0:0:
200,120,447497,1,0,0:0:0:0:
200,120,447572,1,8,0:0:0:0:
200,120,447722,1,0,0:0:0:0:
200,120,447872,1,8,0:0:0:0:
192,96,447947,1,8,0:0:0:0:
200,120,448022,1,0,0:0:0:0:
200,120,448097,1,8,0:0:0:0:
200,120,448172,1,0,0:0:0:0:
224,96,448322,1,8,0:0:0:0:
192,96,448397,1,0,0:0:0:0:
192,96,448472,1,0,0:0:0:0:
192,96,448547,1,0,0:0:0:0:
192,96,448622,1,0,0:0:0:0:
192,96,448697,1,0,0:0:0:0:
24,96,448772,1,8,0:0:0:0:
192,96,448847,1,0,0:0:0:0:
192,96,448922,1,0,0:0:0:0:
192,96,448997,1,0,0:0:0:0:
192,96,449072,1,0,0:0:0:0:
192,96,449147,1,0,0:0:0:0:
240,96,449222,1,8,0:0:0:0:
192,96,449297,1,0,0:0:0:0:
192,96,449372,1,0,0:0:0:0:
192,96,449447,1,0,0:0:0:0:
112,96,449522,1,8,0:0:0:0:
192,96,449597,1,0,0:0:0:0:
192,96,449672,1,0,0:0:0:0:
192,96,449747,1,0,0:0:0:0:
192,96,449822,1,0,0:0:0:0:
208,64,449897,1,0,0:0:0:0:
208,64,449972,1,8,0:0:0:0:
208,64,450047,1,0,0:0:0:0:
208,64,450122,1,0,0:0:0:0:
208,64,450197,1,0,0:0:0:0:
208,64,450272,1,0,0:0:0:0:
208,64,450347,1,0,0:0:0:0:
104,96,450422,1,8,0:0:0:0:
136,80,450497,1,0,0:0:0:0:
168,64,450572,1,0,0:0:0:0:
168,64,450647,1,0,0:0:0:0:
184,96,450722,1,8,0:0:0:0:
240,80,451772,1,0,0:0:0:0:
240,80,451822,1,0,0:0:0:0:
240,80,451872,1,0,0:0:0:0:
240,80,451922,1,8,0:0:0:0:
240,144,453122,1,8,0:0:0:0:
240,144,453197,1,0,0:0:0:0:
240,144,453272,1,0,0:0:0:0:
240,144,453347,1,0,0:0:0:0:
240,144,453422,1,8,0:0:0:0:
240,144,453497,1,0,0:0:0:0:
240,144,453572,1,0,0:0:0:0:
240,144,453647,1,0,0:0:0:0:
240,144,453722,1,8,0:0:0:0:
240,144,453797,1,8,0:0:0:0:
240,144,453872,1,0,0:0:0:0:
240,144,453947,1,0,0:0:0:0:
240,144,454022,1,8,0:0:0:0:
240,144,454097,1,8,0:0:0:0:
240,144,454172,1,0,0:0:0:0:
240,144,454247,1,0,0:0:0:0:
240,144,454322,1,8,0:0:0:0:
240,144,454397,1,0,0:0:0:0:
240,144,454472,1,0,0:0:0:0:
240,144,454547,1,0,0:0:0:0:
240,144,454622,1,8,0:0:0:0:
240,144,454697,1,0,0:0:0:0:
240,144,454772,1,0,0:0:0:0:
240,144,454847,1,0,0:0:0:0:
240,144,454922,1,8,0:0:0:0:
240,144,454997,1,8,0:0:0:0:
240,144,455072,1,0,0:0:0:0:
240,144,455147,1,0,0:0:0:0:
240,144,455222,1,8,0:0:0:0:
240,144,455297,1,8,0:0:0:0:
240,144,455372,1,8,0:0:0:0:
240,144,455447,1,0,0:0:0:0:
240,144,455522,1,8,0:0:0:0:
240,144,455597,1,0,0:0:0:0:
240,144,455672,1,0,0:0:0:0:
240,144,455747,1,0,0:0:0:0:
240,144,455822,1,8,0:0:0:0:
240,144,455897,1,0,0:0:0:0:
240,144,455972,1,0,0:0:0:0:
240,144,456047,1,0,0:0:0:0:
240,144,456122,1,8,0:0:0:0:
240,144,456197,1,8,0:0:0:0:
240,144,456272,1,0,0:0:0:0:
240,144,456347,1,0,0:0:0:0:
240,144,456422,1,8,0:0:0:0:
240,144,456497,1,8,0:0:0:0:
240,144,456572,1,0,0:0:0:0:
240,144,456647,1,0,0:0:0:0:
240,144,456722,1,8,0:0:0:0:
240,144,456797,1,0,0:0:0:0:
240,144,456872,1,0,0:0:0:0:
240,144,456947,1,0,0:0:0:0:
240,144,457022,1,8,0:0:0:0:
240,144,457097,1,0,0:0:0:0:
240,144,457172,1,0,0:0:0:0:
240,144,457247,1,0,0:0:0:0:
240,144,457322,1,8,0:0:0:0:
240,144,457397,1,8,0:0:0:0:
240,144,457472,1,0,0:0:0:0:
240,144,457547,1,0,0:0:0:0:
240,144,457622,1,8,0:0:0:0:
240,144,457697,1,8,0:0:0:0:
240,144,457772,1,8,0:0:0:0:
240,144,457847,1,0,0:0:0:0:
264,112,457922,1,8,0:0:0:0:
264,112,457997,1,0,0:0:0:0:
264,112,458072,1,0,0:0:0:0:
264,112,458147,1,0,0:0:0:0:
264,112,458222,1,8,0:0:0:0:
264,112,458297,1,8,0:0:0:0:
264,112,458372,1,0,0:0:0:0:
264,112,458447,1,0,0:0:0:0:
264,112,458522,1,8,0:0:0:0:
264,112,458597,1,0,0:0:0:0:
264,112,458672,1,0,0:0:0:0:
264,112,458747,1,0,0:0:0:0:
264,112,458822,1,8,0:0:0:0:
264,112,458897,1,8,0:0:0:0:
264,112,458972,1,0,0:0:0:0:
264,112,459047,1,0,0:0:0:0:
272,152,459122,5,8,0:0:0:0:
272,152,459197,1,8,0:0:0:0:
304,144,459272,1,8,0:0:0:0:
272,152,459347,1,8,0:0:0:0:
296,128,459422,1,0,0:0:0:0:
272,152,459497,1,0,0:0:0:0:
272,152,459572,5,8,0:0:0:0:
272,152,459647,1,8,0:0:0:0:
304,144,459722,1,8,0:0:0:0:
272,152,459797,1,8,0:0:0:0:
296,128,459872,1,0,0:0:0:0:
272,152,459947,1,0,0:0:0:0:
240,144,460022,1,8,0:0:0:0:
240,144,460097,1,8,0:0:0:0:
240,144,460172,1,0,0:0:0:0:
240,144,460247,1,0,0:0:0:0:
240,144,460322,1,8,0:0:0:0:
240,144,460397,1,8,0:0:0:0:
240,144,460472,1,8,0:0:0:0:
240,144,460547,1,8,0:0:0:0:
240,144,460622,1,0,0:0:0:0:
240,144,460922,1,0,0:0:0:0:
240,144,460997,1,0,0:0:0:0:
240,144,461072,1,0,0:0:0:0:
240,144,461147,1,0,0:0:0:0:
240,144,461222,1,8,0:0:0:0:
240,144,461522,1,8,0:0:0:0:
240,144,461597,1,8,0:0:0:0:
240,144,461672,1,8,0:0:0:0:
240,144,461747,1,8,0:0:0:0:
240,144,461822,1,0,0:0:0:0:
240,144,462122,1,0,0:0:0:0:
240,144,462197,1,0,0:0:0:0:
240,144,462272,1,0,0:0:0:0:
240,144,462347,1,0,0:0:0:0:
240,144,462422,1,8,0:0:0:0:
368,96,462722,2,4,P|160:56|80:232,1,420
216,224,463922,1,8,0:0:0:0:
216,224,463997,1,0,0:0:0:0:
216,224,464072,1,0,0:0:0:0:
216,224,464147,1,0,0:0:0:0:
216,224,464222,1,8,0:0:0:0:
216,224,464297,1,0,0:0:0:0:
216,224,464372,1,0,0:0:0:0:
216,224,464447,1,0,0:0:0:0:
216,224,464522,1,8,0:0:0:0:
216,224,464597,1,8,0:0:0:0:
216,224,464672,1,0,0:0:0:0:
216,224,464747,1,0,0:0:0:0:
216,224,464822,1,8,0:0:0:0:
216,224,464897,1,8,0:0:0:0:
216,224,464972,1,0,0:0:0:0:
216,224,465047,1,0,0:0:0:0:
472,232,465122,1,8,0:0:0:0:
440,208,465197,1,0,0:0:0:0:
408,192,465272,1,0,0:0:0:0:
376,176,465347,1,0,0:0:0:0:
344,152,465422,1,8,0:0:0:0:
312,136,465497,1,0,0:0:0:0:
280,128,465572,1,8,0:0:0:0:
248,120,465647,1,0,0:0:0:0:
248,120,465722,1,8,0:0:0:0:
248,120,465797,1,8,0:0:0:0:
248,120,465872,1,0,0:0:0:0:
248,120,465947,1,0,0:0:0:0:
248,120,466022,1,8,0:0:0:0:
248,120,466097,1,8,0:0:0:0:
248,120,466172,1,0,0:0:0:0:
248,120,466247,1,0,0:0:0:0:
472,232,466322,1,8,0:0:0:0:
440,208,466397,1,0,0:0:0:0:
408,192,466472,1,0,0:0:0:0:
376,176,466547,1,0,0:0:0:0:
344,152,466622,1,8,0:0:0:0:
312,136,466697,1,0,0:0:0:0:
280,128,466772,1,8,0:0:0:0:
248,120,466847,1,0,0:0:0:0:
248,120,466922,1,8,0:0:0:0:
248,120,466997,1,8,0:0:0:0:
248,120,467072,1,0,0:0:0:0:
248,120,467147,1,0,0:0:0:0:
248,120,467222,1,8,0:0:0:0:
248,120,467297,1,8,0:0:0:0:
248,120,467372,1,0,0:0:0:0:
248,120,467447,1,0,0:0:0:0:
472,232,467522,1,8,0:0:0:0:
232,136,468722,1,4,0:0:0:0:
208,72,468872,1,4,0:0:0:0:
