osu file format v7

[General]
AudioFilename: DragonForce - Revolution Deathsquad.mp3
AudioLeadIn: 1500
PreviewTime: 163860
Countdown: 0
SampleSet: Normal
StackLeniency: 0.7
Mode: 0
LetterboxInBreaks: 1

[Editor]
Bookmarks: 35460,54660,83460,115860,135060,163860,197460,226260,255060,294660,328260,366660,405060,453060
DistanceSpacing: 1
BeatDivisor: 4
GridSize: 8

[Metadata]
Title:Revolution Deathsquad
Artist:DragonForce
Creator:Lesjuh
Version:Legend
Source:
Tags:legend insane bad dragon force stream deathstream herman li apple speedmetal metal

[Difficulty]
HPDrainRate:3
CircleSize:5
OverallDifficulty:8
SliderMultiplier:1.6
SliderTickRate:2

[Events]
//Background and Video events
0,0,"Blue___Green_Vector_Wallpaper_by_firetongue8.jpg"
//Break Periods
2,105264,111514
2,185664,191914
2,405264,413914
//Storyboard Layer 0 (Background)
//Storyboard Layer 1 (Fail)
//Storyboard Layer 2 (Pass)
//Storyboard Layer 3 (Foreground)
//Storyboard Sound Samples
//Background Colour Transformations
3,100,0,0,0

[TimingPoints]
185,240,4,1,0,50,1,0
9065,300,4,1,0,50,1,0
35385,-100,4,2,0,0,0,0
35460,-100,4,1,0,60,0,0
83460,-100,4,1,0,60,0,1
92985,-100,4,1,0,60,0,0
93060,-100,4,1,0,60,0,1
102585,-100,4,1,0,60,0,0
102660,-100,4,1,0,60,0,1
105060,-100,4,1,0,60,0,0
163860,-100,4,1,0,60,0,1
173385,-100,4,1,0,60,0,0
173460,-100,4,1,0,60,0,1
182985,-100,4,1,0,60,0,0
183060,-100,4,1,0,60,0,1
185460,-100,4,1,0,60,0,0
216735,-100,4,1,0,40,0,0
218835,-100,4,1,0,0,0,0
218985,-100,4,1,0,60,0,0
219135,-100,4,1,0,40,0,0
221385,-100,4,1,0,60,0,0
221535,-100,4,1,0,40,0,0
223485,-100,4,1,0,60,0,0
294660,-100,4,1,0,60,0,1
304185,-100,4,1,0,60,0,0
304260,-100,4,1,0,60,0,1
313785,-100,4,1,0,60,0,0
313860,-100,4,1,0,60,0,1
327660,-100,4,1,0,60,0,0
431535,-100,4,2,0,0,0,0
433860,-100,4,1,0,60,0,1
443385,-100,4,1,0,60,0,0
443460,-100,4,1,0,60,0,1
452985,-100,4,1,0,60,0,0
453060,-100,4,1,0,60,0,1
464985,-100,4,1,0,60,0,0
465060,-100,4,1,0,60,0,1
467535,-100,4,2,0,0,0,1
468660,-100,4,1,0,60,0,0

[Colours]
Combo1 : 255,255,255
Combo2 : 53,53,189
Combo3 : 0,83,83
Combo4 : 0,193,193

[HitObjects]
232,72,184,1,6
256,144,304,1,0
192,192,424,2,0,B|176:272,1,80
96,256,664,2,0,B|112:344,1,80
96,256,904,6,0,B|40:184,1,80
120,144,1144,2,0,B|128:56,1,80
208,88,1384,2,0,B|280:48,1,80
352,16,1624,1,0
424,48,1744,1,0
456,120,1864,1,4
336,176,1984,6,0,B|424:152|480:224,1,160,6|0
480,304,2344,1,0
424,360,2464,1,0
352,320,2584,2,0,B|264:312,1,80
200,352,2824,2,0,B|168:272,1,80
96,248,3064,2,0,B|112:168,1,80
64,112,3304,2,0,B|144:80,1,80
216,96,3544,1,0
200,176,3664,1,0
256,232,3784,1,4
392,256,3904,6,0,B|462:201|438:113,1,160,6|0
392,48,4264,1,0
312,64,4384,1,0
240,24,4504,2,0,B|224:104,1,80
280,160,4744,2,0,B|200:200,1,80
152,256,4984,2,0,B|232:280,1,80
296,240,5224,2,0,B|312:320,1,80
384,360,5464,1,0
456,328,5584,1,0
480,256,5704,1,0
416,160,5824,6,0,B|320:136|264:200,1,160,6|0
200,248,6184,1,4
200,248,6304,1,0
120,232,6424,1,0
120,232,6544,1,0
64,176,6664,1,0
120,72,6784,5,6
64,304,7024,1,6
256,168,7264,1,6
400,48,9065,6,2,B|464:112|424:200,1,160,6|2
480,272,9514,2,2,B|416:336|328:296,1,160,2|0
280,240,9964,1,2
208,272,10114,1,0
144,344,10264,6,2,B|64:288|112:192,1,160,6|2
32,144,10714,2,2,B|120:184|176:96,1,160,2|0
216,40,11164,1,2
296,16,11314,1,0
384,64,11464,6,0,B|408:96|424:144,1,80,6|0
368,200,11764,1,0
416,264,11914,2,2,B|368:352|272:296,1,160
208,280,12364,2,2,B|144:216|184:128,2,160,0|6|2
264,224,13114,2,2,B|192:176|104:216,1,160,2|0
40,144,13564,5,0
48,104,13639,1,0
72,72,13714,1,0
112,64,13789,1,0
152,80,13864,2,2,B|240:128|296:32,1,160,6|0
384,8,14314,2,2,B|464:56|424:152,1,160,2|0
352,184,14764,1,2
288,136,14914,1,0
184,160,15064,6,2,B|112:224|152:312,1,160,6|2
80,368,15514,2,2,B|136:296|224:336,1,160,2|0
296,368,15964,1,2
352,312,16114,1,0
304,216,16264,6,0,B|312:168|328:136,1,80,6|0
384,80,16564,1,0
328,24,16714,2,2,B|232:-8|184:80,1,160
112,40,17164,2,0,B|120:128,1,80,2|0
72,184,17464,5,0
72,184,17539,1,0
72,184,17614,1,0
24,248,17764,1,0
72,312,17914,1,0
72,312,17989,1,0
72,312,18064,1,0
144,288,18214,1,0
144,208,18364,1,0
144,208,18439,1,0
144,208,18514,1,0
224,152,18664,6,2,B|320:120|352:224,1,160,6|2
328,312,19114,2,2,B|418:349|480:280,1,160,2|0
504,208,19564,1,2
456,144,19714,1,0
408,40,19864,6,2,B|440:120|384:200,1,160,6|2
320,128,20314,2,2,B|232:96|184:184,1,160
216,256,20764,1,0
144,296,20914,1,0
40,256,21064,6,2,B|24:216|24:176,1,80,6|2
40,96,21364,1,0
112,56,21514,2,2,B|200:24|248:112,1,160
232,184,21964,1,2
168,224,22114,1,0
224,328,22264,5,0
224,328,22339,1,0
224,328,22414,1,0
224,328,22489,1,0
224,328,22564,2,0,B|312:368|376:296,1,160,4|0
392,264,22939,1,0
432,248,23014,2,0,B|456:256|480:272,2,40
304,32,23464,6,2,B|216:80|264:176,1,160,6|0
328,232,23914,2,2,B|264:160|176:208,1,160,2|0
112,168,24364,1,2
80,240,24514,1,0
144,328,24664,6,0,B|184:320|224:304,1,80,6|0
296,336,24964,1,0
344,272,25114,2,2,B|384:200|344:112,1,160,2|0
272,80,25564,1,0
224,144,25714,1,0
136,216,25864,6,0,B|96:208|61:187,1,80,6|0
48,104,26164,1,2
96,40,26314,1,0
168,72,26464,2,2,B|248:48,1,80,2|0
224,168,26764,2,2,B|304:192,1,80,2|0
376,112,27064,5,6
416,128,27139,1,0
440,160,27214,1,0
432,200,27289,1,0
408,232,27364,1,2
410,271,27439,1,0
395,309,27514,1,0
358,323,27589,1,0
320,312,27664,2,0,B|296:320|272:336,3,40,2|0|0|0
248,312,27964,5,0
232,280,28039,1,0
200,256,28114,1,0
160,256,28189,1,0
128,272,28264,1,6
88,80,29464,5,4
88,80,29764,1,4
400,32,30664,5,4
464,80,30814,1,0
336,192,31114,1,4
400,240,31264,1,0
256,360,31564,2,0,B|240:328|248:288,3,40,2|0|0|0
208,304,31864,5,4
144,352,32014,1,0
144,144,32314,1,4
80,192,32464,1,0
200,32,32764,2,0,B|216:64|208:104,3,40,2|0|0|0
240,96,33064,5,6
272,120,33139,1,0
312,128,33214,1,0
344,104,33289,1,0
360,64,33364,1,0
392,40,33439,1,0
432,48,33514,1,0
464,72,33589,1,0
464,112,33664,6,0,B|472:136|488:160,7,40,2|0|0|0|0|0|0|0
464,184,34264,1,2
256,192,34339,12,0,35389
64,144,35464,5,6
112,80,35614,1,0
192,56,35764,1,8
256,112,35914,1,0
328,72,36064,2,0,B|368:96|408:104,1,80,2|0
472,56,36364,2,0,B|480:144,1,80,10|0
448,216,36664,5,4
448,216,36814,2,2,B|352:184|304:264,1,160,2|2
280,336,37264,1,4
224,184,37414,1,0
280,336,37564,1,0
224,184,37714,1,0
272,120,37864,5,6
240,48,38014,1,0
168,72,38164,1,10
88,56,38314,1,0
88,56,38464,2,0,B|72:88|64:136,1,80,2|0
0,184,38764,2,0,B|40:256,1,80,10|0
64,336,39064,2,2,B|128:360|184:320,2,120
64,336,39664,5,4
96,216,39814,1,0
216,232,39964,2,2,B|208:192|192:152,1,80,10|0
272,120,40264,6,0,B|328:48|416:96,1,160,6|0
240,48,40864,2,0,B|184:-24|96:24,1,160,6|0
32,72,41314,1,0
72,144,41464,2,2,B|96:208|72:272,2,120,6|0|0
120,208,42064,2,0,B|160:240|200:248,1,80,2|0
176,352,42364,2,2,B|256:320,1,80,2|0
312,208,42664,5,6
312,208,42814,2,2,B|368:128|464:176,1,160,0|0
512,112,43264,1,2
512,112,43414,2,2,B|432:160|472:264,1,160,0|2
504,320,43864,5,4
472,304,43939,1,0
432,296,44014,1,0
392,304,44089,1,0
360,320,44164,1,0
328,336,44239,1,0
288,344,44314,1,0
248,336,44389,1,0
216,320,44464,2,0,B|176:344,3,40
152,368,44764,2,0,B|144:344|112:312,3,40
96,328,45064,5,6
96,328,45214,2,2,B|32:272|64:176,1,160
136,160,45664,1,2
200,208,45814,1,0
248,144,45964,2,0,B|264:104|256:56,1,80,10|0
200,16,46264,5,4
200,16,46414,2,2,B|264:80|352:40,1,160
416,0,46864,1,0
480,144,47014,1,0
416,0,47164,1,8
480,144,47314,1,0
400,128,47464,5,6
400,128,47614,2,2,B|472:184|432:280,1,160,0|2
376,328,48064,1,2
328,264,48214,1,0
248,248,48364,2,0,B|216:272|192:312,1,80,10|0
136,360,48664,2,2,B|72:368|16:336,2,120
184,296,49264,5,0
152,272,49339,1,0
128,240,49414,1,0
136,200,49489,1,0
152,168,49564,2,0,B|160:128|144:80,1,80,4|0
80,48,49864,6,2,B|176:72|232:0,1,160,6|0
432,240,50464,2,2,B|336:264|280:192,1,160,6|0
224,144,50914,1,0
144,160,51064,2,0,B|88:200|80:272,2,120,6|0|0
224,144,51664,2,0,B|256:112|280:80,1,80,2|0
264,8,51964,2,0,B|344:24,1,80,2|0
448,0,52264,5,6
448,0,52414,2,2,B|504:64|464:160,1,160,0|2
392,176,52864,1,2
416,256,53014,1,0
376,320,53164,1,0
344,336,53239,1,0
304,344,53314,1,0
272,320,53389,1,0
248,288,53464,5,6
360,72,53764,1,2
120,40,54064,1,2
376,88,54364,2,2,B|448:48,1,80,2|0
336,168,54664,6,2,B|248:200|192:120,1,160,6|2
96,56,55114,2,2,B|16:104|48:200,1,160,2|0
72,272,55564,1,2
144,304,55714,1,0
216,264,55864,6,2,B|304:240|360:312,1,160,6|0
464,256,56314,2,2,B|520:192|496:104,1,160,2|0
456,40,56764,1,2
384,16,56914,1,0
304,104,57064,6,2,B|192:224|344:304,1,240,6|0
408,328,57664,2,2,B|320:288|256:352,1,160
176,360,58114,1,0
88,256,58264,6,0,B|72:216|64:176,1,80,6|0
136,136,58564,1,2
192,200,58714,2,2,B|288:232|328:136,1,160
272,88,59164,1,0
288,48,59239,1,0
320,24,59314,1,0
360,24,59389,1,0
400,40,59464,5,6
472,8,59614,2,2,B|528:72|488:168,1,160,2|0
440,224,60064,1,6
440,224,60214,2,2,B|344:192|296:280,1,160
256,336,60664,6,2,B|168:360|104:296,1,160
136,184,61114,2,2,B|224:160|288:224,1,160
336,280,61564,1,2
408,240,61714,1,0
448,136,61864,6,2,B|440:96|416:56,1,80,6|0
352,24,62164,1,0
272,24,62314,6,2,B|184:0|120:64,1,160
152,176,62764,2,2,B|240:200|304:136,2,160,2|6|2
64,192,63514,2,0,B|32:224|16:264,1,80
48,328,63814,1,0
48,328,63889,1,0
48,328,63964,1,0
120,352,64114,1,0
168,288,64264,6,2,B|232:280|288:312,2,120,6|0|0
120,352,64864,2,2,B|48:296|80:208,1,160
128,144,65314,1,0
208,192,65464,6,0,B|248:184|288:160,1,80,6|0
304,88,65764,1,0
368,40,65914,2,2,B|456:16|512:104,1,160,2|0
488,176,66364,1,2
360,264,66664,5,6
360,264,66964,1,6
288,240,67114,2,2,B|248:256|216:288,1,80,0|2
144,264,67414,1,4
144,264,67714,2,2,B|64:216|88:120,1,160,6|0
136,64,68164,5,0
176,48,68239,1,0
216,48,68314,1,0
240,80,68389,1,0
248,120,68464,1,0
256,160,68539,1,0
280,192,68614,1,0
320,192,68689,1,0
360,176,68764,1,2
504,248,69064,6,0,B|488:288|464:328,1,80,6|0
392,352,69364,1,0
352,280,69514,2,2,B|264:240|208:320,1,160,2|0
128,304,69964,2,2,B|48:256|80:160,2,160,2|6|2
208,320,70714,2,2,B|232:280|240:240,1,80,2|0
208,176,71014,1,0
280,136,71164,1,2
392,24,71464,5,6
424,40,71539,1,0
448,72,71614,1,0
448,112,71689,1,0
432,144,71764,1,0
464,216,71914,1,0
384,240,72064,1,2
352,216,72139,1,0
312,216,72214,1,0
280,248,72289,1,0
280,288,72364,1,0
256,320,72439,1,0
216,320,72514,1,0
184,304,72589,1,0
176,264,72664,5,6
104,304,72814,1,0
48,240,72964,1,0
88,168,73114,1,0
168,176,73264,1,0
232,128,73414,1,0
208,48,73564,1,0
208,48,73714,1,0
208,48,73864,5,6
304,336,74989,1,6
464,256,76264,5,6
464,256,76414,1,0
504,184,76564,1,0
448,128,76714,2,2,B|360:80|304:160,1,160
264,224,77164,1,0
184,208,77314,6,2,B|112:152|144:64,1,160,6|2
208,16,77764,1,2
248,88,77914,1,0
328,104,78064,2,0,B|416:80,1,80,2|0
472,216,78364,2,0,B|392:200,1,80,2|0
416,280,78664,6,2,B|368:360|272:312,1,160,6|0
208,352,79114,2,2,B|160:280|192:192,1,160,6|0
240,136,79564,1,2
240,136,79714,1,0
184,80,79864,6,2,B|96:48|40:120,1,160,6|0
72,248,80314,2,2,B|160:280|216:208,1,160,6|0
240,136,80764,1,2
240,136,80914,1,0
320,48,81064,5,6
360,32,81139,1,0
400,40,81214,1,0
424,72,81289,1,0
416,112,81364,1,0
384,136,81439,1,0
344,136,81514,1,0
312,160,81589,1,0
304,200,81664,5,0
328,232,81739,1,0
368,240,81814,1,0
408,232,81889,1,0
440,256,81964,1,0
448,296,82039,1,0
424,328,82114,1,0
384,336,82189,1,0
344,320,82264,5,6
72,360,82564,1,6
224,136,82864,1,6
48,376,83164,1,6
368,336,83464,6,6,B|440:280|400:192,1,160,6|0
464,120,83914,2,2,B|408:40|320:80,1,160
280,144,84364,1,0
312,216,84514,1,0
224,272,84664,6,0,B|176:272|144:256,1,80,6|2
64,272,84964,1,0
32,200,85114,2,2,B|-16:120|56:48,1,160
128,24,85564,1,2
184,80,85714,1,0
336,48,85864,6,0,B|424:24|488:96,1,160,6|0
440,232,86314,2,0,B|352:256|288:184,1,160,6|0
288,112,86764,1,2
288,112,86914,1,0
176,80,87064,6,0,B|88:56|24:128,1,160,6|0
72,264,87514,2,0,B|160:288|224:216,1,160,6|0
224,144,87964,1,2
224,144,88039,1,0
224,144,88114,1,0
304,72,88264,5,6
368,120,88414,2,0,B|384:160|384:208,1,80,2|0
456,224,88714,2,2,B|360:192|312:280,1,160
264,328,89164,1,2
184,312,89314,1,0
104,240,89464,6,0,B|88:200|96:160,1,80,6|0
64,88,89764,1,0
136,48,89914,2,2,B|232:16|280:104,1,160
240,168,90364,1,2
296,224,90514,1,0
392,200,90664,6,0,B|328:264|368:352,1,160,6|2
440,320,91114,2,2,B|376:384|288:352,1,160
216,384,91564,2,2,B|224:296,1,80,2|0
184,208,91864,5,6
184,208,91939,1,0
184,208,92014,1,0
256,176,92164,1,2
288,200,92239,1,0
328,208,92314,1,0
368,192,92389,1,0
400,168,92464,1,0
400,128,92539,1,0
384,88,92614,1,0
352,64,92689,1,0
312,48,92764,2,0,B|304:0,2,40
224,88,93064,6,2,B|144:136|72:64,1,160,6|2
0,8,93514,2,2,B|64:64|40:160,1,160,2|0
0,224,93964,1,2
32,296,94114,1,0
128,328,94264,6,0,B|176:320|208:304,1,80,6|0
272,264,94564,1,0
304,192,94714,2,2,B|232:248|264:344,1,160,2|2
336,368,95164,1,2
408,344,95314,1,0
448,248,95464,6,0,B|368:200|408:104,1,160,6|0
368,184,95914,2,2,B|288:240|224:168,1,160
184,96,96364,1,2
248,48,96514,1,0
320,80,96664,6,0,B|336:40|344:0,2,80,6|0|0
256,128,97114,2,2,B|208:208|272:280,1,160
328,336,97564,5,0
344,296,97639,1,0
376,272,97714,1,0
416,272,97789,1,0
456,288,97864,2,0,B|472:256|488:240,5,40,6|0|0|0|0|0
504,224,98314,2,0,B|488:176,5,40,6|0|0|0|0|0
504,152,98764,5,6
488,112,98839,1,0
464,88,98914,1,0
424,96,98989,1,0
392,120,99064,2,0,B|360:112|336:96,5,40,6|0|0|0|0|0
336,72,99514,2,0,B|296:88,5,40,6|0|0|0|0|0
264,64,99964,5,6
240,96,100039,1,0
208,120,100114,1,0
168,112,100189,1,0
136,88,100264,5,6
64,120,100414,1,0
80,200,100564,1,0
56,272,100714,1,0
56,272,100789,1,0
56,272,100864,1,4
120,320,101014,1,0
160,304,101089,1,0
200,320,101164,1,0
240,336,101239,1,0
280,320,101314,1,0
320,248,101464,6,0,B|304:208,3,40,4|0|0|0
248,184,101764,2,0,B|264:152|256:128,3,40
232,88,102064,6,0,B|280:72,3,40,4|0|0|0
320,40,102364,2,0,B|344:56|368:64,3,40
416,40,102664,5,6
256,192,102739,12,4,105064
416,104,112264,5,6
168,128,113614,1,4
240,88,113764,1,0
272,160,113914,1,0
240,232,114064,1,0
272,304,114214,1,0
344,264,114364,1,6
104,288,114664,1,2
48,88,115864,5,6
120,56,116014,1,0
152,128,116164,2,0,B|136:168|128:216,1,80,10|0
48,208,116464,2,0,B|88:280,1,80,2|0
160,312,116764,1,10
240,320,116914,1,0
304,272,117064,5,4
304,272,117214,2,2,B|272:192|328:120,1,160
392,80,117664,1,0
240,136,117814,1,0
416,96,117964,1,0
216,120,118114,1,0
144,80,118264,5,6
80,128,118414,1,0
64,208,118564,2,0,B|80:256|104:288,1,80,10|0
104,360,118864,2,0,B|160:336|208:344,1,80,2|0
256,368,119164,1,8
328,336,119314,1,0
376,272,119464,2,2,B|440:288|480:344,2,120
312,232,120064,5,0
296,200,120139,1,0
296,160,120214,1,0
328,136,120289,1,0
368,128,120364,2,2,B|392:96|408:56,1,80,2|0
336,0,120664,6,2,B|400:72|488:32,1,160,6|0
176,120,121264,2,2,B|112:192|24:152,1,160,6|0
104,184,121714,1,0
160,240,121864,2,2,B|176:304|152:376,2,120
232,272,122464,6,2,B|256:192,1,80,2|0
160,144,122764,2,2,B|136:64,1,80,2|0
248,24,123064,5,6
248,24,123214,2,2,B|336:-8|392:80,1,160,2|0
464,40,123664,1,6
464,40,123814,2,2,B|392:88|416:184,1,160
472,240,124264,5,6
480,280,124339,1,0
464,320,124414,1,0
432,344,124489,1,0
392,336,124564,1,0
368,304,124639,1,0
360,264,124714,1,0
368,224,124789,1,0
352,184,124864,2,0,B|328:168|304:160,3,40
280,184,125164,2,0,B|264:144,3,40
224,136,125464,5,6
256,64,125614,1,0
184,24,125764,2,0,B|144:8|96:16,1,80,10|0
56,80,126064,1,2
88,152,126214,1,0
48,216,126364,1,10
112,264,126514,1,0
192,272,126664,1,2
192,272,126814,2,2,B|272:232|344:304,1,160
384,376,127264,5,0
432,224,127414,1,0
360,384,127564,1,0
456,216,127714,1,0
504,152,127864,5,6
472,80,128014,1,0
400,48,128164,2,0,B|360:56|320:80,1,80,10|0
248,48,128464,1,2
232,128,128614,1,0
160,168,128764,1,10
104,224,128914,1,0
136,296,129064,6,2,B|200:288|256:328,2,120
104,224,129664,1,4
80,192,129739,1,0
40,176,129814,1,0
24,136,129889,1,0
40,96,129964,2,0,B|72:64|88:24,1,80,6|0
152,104,130264,6,2,B|216:32|304:80,1,160,6|0
360,320,130864,2,2,B|296:248|208:296,1,160,6|0
152,336,131314,1,0
88,288,131464,2,2,B|56:232|64:160,2,120,6|0|0
144,232,132064,6,2,B|168:152,1,80,2|0
104,64,132364,2,2,B|152:56|184:40,1,80,2|0
256,120,132664,5,6
256,120,132814,2,2,B|352:152|400:72,1,160,0|2
448,16,133264,1,6
448,16,133414,2,2,B|528:64|488:160,1,160,0|2
424,200,133864,5,6
392,184,133939,1,0
352,176,134014,1,0
320,192,134089,1,0
296,224,134164,1,0
264,248,134239,1,0
224,248,134314,1,0
184,232,134389,1,0
152,208,134464,2,0,B|136:168,3,40
96,160,134764,2,0,B|112:112,3,40
144,96,135064,6,2,B|240:128|288:48,1,160,6|2
392,0,135514,2,2,B|456:64|416:152,1,160,2|0
464,216,135964,1,2
416,280,136114,1,0
336,272,136264,6,2,B|248:248|192:320,1,160,6|0
80,280,136714,2,2,B|24:216|48:128,1,160,2|0
88,56,137164,1,2
160,32,137314,1,0
240,144,137464,6,2,B|328:184|392:120,2,160,6|2|2
168,112,138214,2,2,B|176:200,1,80,0|2
152,272,138514,1,0
240,328,138664,6,0,B|280:312|320:304,1,80,6|0
392,336,138964,1,2
440,272,139114,2,2,B|496:208|464:120,1,160
416,56,139564,1,0
376,40,139639,1,0
336,40,139714,1,0
304,64,139789,1,0
288,104,139864,5,6
264,184,140014,2,2,B|177:220|120:144,1,160,2|0
104,72,140464,1,6
104,72,140614,2,2,B|136:168|56:224,1,160
0,256,141064,6,2,B|88:224|144:296,1,160
216,376,141514,2,2,B|304:400|368:336,1,160
384,264,141964,1,2
336,200,142114,1,0
392,144,142264,6,2,B|384:104|360:64,1,80,6|0
280,64,142564,1,0
224,168,142714,6,2,B|164:228|76:204,1,160
48,96,143164,2,2,B|107:35|195:59,2,160,2|6|2
40,176,143914,2,0,B|72:208|88:248,1,80
152,280,144214,1,0
152,280,144289,1,0
152,280,144364,1,0
208,224,144514,1,0
280,248,144664,6,2,B|288:312|256:368,2,120,6|0|0
208,224,145264,2,2,B|168:136|240:72,1,160
304,40,145714,1,0
368,88,145864,6,0,B|376:128|400:168,1,80,6|0
448,224,146164,1,0
512,192,146314,2,2,B|424:168|368:256,1,160,2|0
344,320,146764,1,2
224,216,147064,5,6
224,216,147364,1,6
160,264,147514,2,2,B|120:248|88:216,1,80,0|2
24,256,147814,1,4
24,256,148114,2,2,B|96:200|64:112,1,160,6|2
8,56,148564,5,0
40,80,148639,1,0
80,88,148714,1,0
112,64,148789,1,0
152,56,148864,1,0
184,80,148939,1,0
200,112,149014,1,0
240,120,149089,1,0
280,112,149164,1,2
408,24,149464,6,0,B|424:64|448:104,1,80,6|0
424,176,149764,1,0
480,232,149914,2,2,B|427:307|339:267,1,160,2|0
280,320,150364,2,2,B|200:272|232:176,2,160,2|6|2
200,296,151114,2,2,B|160:312|128:344,1,80,2|0
56,360,151414,1,0
8,296,151564,1,2
120,24,151864,5,6
88,40,151939,1,0
64,72,152014,1,0
64,112,152089,1,0
80,144,152164,1,0
144,184,152314,1,0
200,128,152464,1,2
232,104,152539,1,0
272,104,152614,1,0
304,136,152689,1,0
304,176,152764,1,0
328,208,152839,1,0
368,208,152914,1,0
400,192,152989,1,0
408,152,153064,5,6
360,88,153214,1,0
400,16,153364,1,0
480,32,153514,1,0
480,112,153664,1,0
512,184,153814,1,0
456,248,153964,1,0
456,248,154114,1,0
456,248,154264,5,6
48,336,155314,1,6
120,80,156664,5,6
120,80,156814,1,0
72,144,156964,1,0
112,216,157114,2,2,B|200:264|256:184,1,160
288,120,157564,1,0
368,104,157714,6,2,B|440:160|408:248,1,160,6|2
352,304,158164,1,2
272,280,158314,1,0
216,224,158464,2,0,B|128:256,1,80,2|0
16,136,158764,2,0,B|96:160,1,80,2|0
184,96,159064,6,2,B|232:16|328:64,1,160,6|0
392,24,159514,2,2,B|440:96|408:184,1,160,6|0
352,224,159964,1,2
352,224,160114,1,0
256,184,160264,6,2,B|168:152|112:224,1,160,6|0
144,352,160714,2,2,B|232:384|288:312,1,160,6|0
200,264,161164,1,2
200,264,161314,1,0
256,104,161464,5,6
144,336,163864,6,6,B|72:280|112:192,1,160,6|0
48,120,164314,2,2,B|104:40|192:80,1,160
232,144,164764,1,0
200,216,164914,1,0
288,272,165064,6,0,B|336:272|368:256,1,80,6|2
448,272,165364,1,0
480,200,165514,2,2,B|528:120|456:48,1,160
384,24,165964,1,2
328,80,166114,1,0
176,48,166264,6,0,B|88:24|24:96,1,160,6|0
72,232,166714,2,0,B|160:256|224:184,1,160,6|0
224,112,167164,1,2
224,112,167314,1,0
336,80,167464,6,0,B|424:56|488:128,1,160,6|0
440,264,167914,2,0,B|352:288|288:216,1,160,6|0
288,144,168364,1,2
288,144,168439,1,0
288,144,168514,1,0
208,72,168664,5,6
144,120,168814,2,0,B|128:160|128:208,1,80,2|0
56,224,169114,2,2,B|152:192|200:280,1,160
248,328,169564,1,2
328,312,169714,1,0
408,240,169864,6,0,B|424:200|416:160,1,80,6|0
448,88,170164,1,0
376,48,170314,2,2,B|280:16|232:104,1,160
272,168,170764,1,2
216,224,170914,1,0
120,200,171064,6,0,B|184:264|144:352,1,160,6|2
72,320,171514,2,2,B|136:384|224:352,1,160
296,384,171964,2,2,B|288:296,1,80,2|0
328,208,172264,5,6
328,208,172339,1,0
328,208,172414,1,0
256,176,172564,1,2
224,200,172639,1,0
184,208,172714,1,0
144,192,172789,1,0
112,168,172864,1,0
112,128,172939,1,0
128,88,173014,1,0
160,64,173089,1,0
200,48,173164,2,0,B|208:0,2,40
288,88,173464,6,2,B|368:136|440:64,1,160,6|2
512,8,173914,2,2,B|448:64|472:160,1,160,2|0
512,224,174364,1,2
480,296,174514,1,0
384,328,174664,6,0,B|336:320|304:304,1,80,6|0
240,264,174964,1,0
208,192,175114,2,2,B|280:248|248:344,1,160,2|2
176,368,175564,1,2
104,344,175714,1,0
64,248,175864,6,0,B|144:200|104:104,1,160,6|0
144,184,176314,2,2,B|224:240|288:168,1,160
328,96,176764,1,2
264,48,176914,1,0
192,80,177064,6,0,B|176:40|168:0,2,80,6|0|0
256,128,177514,2,2,B|304:208|240:280,1,160
184,336,177964,5,0
168,296,178039,1,0
136,272,178114,1,0
96,272,178189,1,0
56,288,178264,2,0,B|40:256|24:240,5,40,6|0|0|0|0|0
8,224,178714,2,0,B|24:176,5,40,6|0|0|0|0|0
8,152,179164,5,6
24,112,179239,1,0
48,88,179314,1,0
88,96,179389,1,0
120,120,179464,2,0,B|152:112|176:96,5,40,6|0|0|0|0|0
176,72,179914,2,0,B|216:88,5,40,6|0|0|0|0|0
248,64,180364,5,6
272,96,180439,1,0
304,120,180514,1,0
344,112,180589,1,0
376,88,180664,5,6
448,120,180814,1,0
432,200,180964,1,0
456,272,181114,1,0
456,272,181189,1,0
456,272,181264,1,4
392,320,181414,1,0
352,304,181489,1,0
312,320,181564,1,0
272,336,181639,1,0
232,320,181714,1,0
192,248,181864,6,0,B|208:208,3,40,4|0|0|0
264,184,182164,2,0,B|248:152|256:128,3,40
280,88,182464,6,0,B|232:72,3,40,4|0|0|0
192,40,182764,2,0,B|168:56|144:64,3,40
96,40,183064,5,6
256,192,183139,12,4,185464
96,104,192664,5,6
368,80,193864,6,2,B|376:128|360:168,1,80,6|0
416,240,194164,2,2,B|368:232|328:248,1,80,2|0
248,296,194464,2,2,B|240:248|256:208,1,80,6|0
200,136,194764,2,2,B|248:144|288:128,1,80,2|0
136,64,195064,6,2,B|48:104|72:200,1,160,6|4
112,264,195514,1,0
184,296,195664,1,0
240,240,195814,1,0
320,256,195964,1,0
360,320,196114,1,0
432,288,196264,5,4
432,288,196414,1,0
480,208,196564,1,0
480,208,196714,1,0
392,176,196864,1,0
352,112,197014,1,0
352,112,197089,1,0
352,112,197164,1,0
136,40,197464,6,0,B|112:120,1,80,4|0
72,104,197689,2,0,B|80:152,1,40
48,216,197914,2,0,B|136:192|208:240,1,160,4|0
232,312,198364,1,0
296,352,198514,1,0
400,328,198664,6,0,B|408:280|424:248,1,80,4|0
464,264,198889,2,0,B|456:224,1,40
384,184,199114,2,0,B|432:112|408:24,1,160,4|0
336,0,199564,1,0
272,40,199714,1,0
200,112,199864,6,2,B|112:136|48:64,2,160,6|2|0
256,168,200614,1,2
280,248,200764,1,4
280,248,200914,2,2,B|273:281|249:321,1,80,2|2
136,376,201214,2,2,B|112:336|105:302,1,80,2|2
56,240,201514,6,2,B|152:272|176:168,1,160,0|2
136,96,201964,1,2
208,64,202114,1,0
336,112,202264,6,0,B|352:160|344:208,1,80,4|0
384,184,202489,2,0,B|368:232,1,40
440,264,202714,2,0,B|352:224|296:296,1,160,4|0
240,352,203164,1,0
160,336,203314,1,0
112,232,203464,6,0,B|96:184|88:144,1,80,4|0
48,160,203689,2,0,B|64:112,1,40
40,48,203914,2,0,B|128:8|184:80,1,160,4|0
216,152,204364,1,0
256,168,204439,1,0
296,168,204514,1,0
320,136,204589,1,0
328,96,204664,6,2,B|272:168|312:248,2,160,6|2|0
400,56,205414,1,2
464,112,205564,1,0
432,184,205714,1,0
456,216,205789,1,0
464,256,205864,2,0,B|448:296|456:320,3,40,6|0|0|0
424,320,206164,1,0
360,272,206314,2,2,B|272:240|216:312,1,160,6|0
176,304,206689,2,0,B|184:352,2,40
56,224,207064,6,0,B|80:144,1,80,4|0
56,112,207289,2,0,B|96:88,1,40
152,40,207514,2,0,B|112:128|176:192,1,160,4|0
248,216,207964,1,0
304,160,208114,1,0
368,40,208264,6,0,B|376:88|392:120,1,80,4|0
432,104,208489,2,0,B|424:144,1,40
472,208,208714,2,0,B|496:304|416:352,1,160,4|0
344,360,209164,1,0
288,304,209314,1,0
176,256,209464,6,2,B|88:224|32:304,2,160,6|2|0
248,216,210214,1,2
232,136,210364,1,4
232,136,210514,2,2,B|238:102|262:62,1,80,2|2
368,8,210814,2,2,B|391:47|398:81,1,80,2|2
336,128,211114,6,2,B|424:88|488:168,1,160,0|2
504,232,211564,1,2
448,288,211714,1,0
320,344,211864,6,0,B|272:328|224:336,1,80,4|0
248,296,212089,2,0,B|200:312,1,40
144,352,212314,2,0,B|73:297|113:209,1,160,4|0
64,144,212764,1,0
120,88,212914,1,0
224,24,213064,6,0,B|240:72|248:112,1,80,4|0
288,96,213289,2,0,B|272:144,1,40
312,208,213514,2,0,B|224:248|168:176,1,160,4|0
112,120,213964,1,0
72,136,214039,1,0
40,160,214114,1,0
40,200,214189,1,0
56,240,214264,6,2,B|136:208|216:256,2,160,6|2|0
32,320,215014,1,2
96,368,215164,1,0
176,344,215314,1,0
208,320,215389,1,0
248,328,215464,2,0,B|288:344|312:336,3,40,6|0|0|0
320,320,215764,1,0
392,352,215914,2,2,B|462:297|430:209,1,160,6|0
488,152,216364,2,2,B|416:104,1,80,0|2
320,24,216664,5,6
280,40,216739,1,0
256,72,216814,1,0
264,112,216889,1,0
288,144,216964,1,0
288,184,217039,1,0
256,208,217114,1,0
216,208,217189,1,0
192,176,217264,5,0
192,136,217339,1,0
168,104,217414,1,0
128,104,217489,1,0
96,128,217564,1,0
96,168,217639,1,0
120,200,217714,1,0
128,240,217789,1,0
104,272,217864,6,0,B|88:288|80:312,3,40
48,328,218164,2,0,B|80:336|96:352,3,40
112,376,218464,5,0
152,384,218539,1,0
184,360,218614,1,0
224,344,218689,1,0
264,352,218764,2,0,B|304:352|344:336,1,80,2|0
456,352,219064,5,6
488,328,219139,1,0
504,288,219214,1,0
496,248,219289,1,0
456,232,219364,1,0
416,232,219439,1,0
384,256,219514,1,0
344,248,219589,1,0
312,224,219664,5,0
296,184,219739,1,0
304,144,219814,1,0
344,128,219889,1,0
384,128,219964,1,0
416,152,220039,1,0
456,152,220114,1,0
488,120,220189,1,0
496,80,220264,6,0,B|480:56|472:24,3,40
440,56,220564,2,0,B|400:48,3,40
368,24,220864,5,0
336,48,220939,1,0
304,64,221014,1,0
264,56,221089,1,0
224,40,221164,2,0,B|184:40|144:64,1,80,2|0
0,128,221464,5,6
8,168,221539,1,0
40,192,221614,1,0
80,184,221689,1,0
112,160,221764,1,0
152,152,221839,1,0
184,176,221914,1,0
192,216,221989,1,0
224,240,222064,5,0
264,232,222139,1,0
296,208,222214,1,0
336,200,222289,1,0
368,224,222364,1,0
376,264,222439,1,0
392,296,222514,1,0
424,320,222589,1,0
464,312,222664,2,0,B|480:288|496:272,5,40
472,240,223114,5,0
496,208,223189,1,0
496,168,223264,1,0
464,144,223339,1,0
424,144,223414,1,2
328,64,223564,5,0
328,64,223714,2,2,B|248:112|288:208,1,160,6|0
368,200,224164,2,0,B|336:288,1,80,2|0
376,352,224464,2,0,B|336:336|288:344,1,80,2|0
264,360,224689,2,0,B|240:320,1,40
168,288,224914,6,2,B|72:248|24:336,1,160,6|0
72,256,225364,2,0,B|88:216|96:176,1,80,2|0
48,120,225664,1,0
56,80,225739,1,0
80,48,225814,1,0
120,40,225889,1,0
160,48,225964,1,0
224,192,226114,6,2,B|312:224|368:152,1,160,6|0
312,96,226564,2,2,B|304:56|312:8,1,80,10|2
448,104,226864,2,2,B|456:144|448:192,1,80,0|2
392,240,227164,1,8
504,312,227314,6,2,B|416:280|360:352,1,160,6|0
280,328,227764,1,10
240,256,227914,1,0
240,256,228064,2,0,B|256:216|280:184,1,80,2|0
144,128,228364,2,0,B|166:157|182:197,1,80,10|0
104,304,228664,6,0,B|88:352|80:392,2,80,6|0|8
40,256,229114,1,0
40,176,229264,2,2,B|120:152,1,80,2|2
152,80,229564,1,8
224,40,229714,2,2,B|304:88|272:184,1,160
224,240,230164,1,8
280,296,230314,2,2,B|376:344|432:248,1,160
448,192,230764,1,8
400,128,230914,1,0
296,56,231064,6,2,B|200:8|144:104,1,160,6|10
80,64,231514,2,0,B|72:112|88:152,1,80,2|0
200,256,231814,2,0,B|208:208|192:168,1,80,2|8
136,296,232114,6,2,B|232:248|288:344,1,160,6|2
352,344,232564,1,10
408,288,232714,1,0
408,288,232864,2,0,B|392:240|384:200,1,80,2|0
344,72,233164,2,0,B|338:100|322:148,1,80,10|0
240,200,233464,6,2,B|200:208|160:232,2,80,6|0|10
288,264,233914,1,0
232,320,234064,1,0
152,304,234214,1,2
80,336,234364,1,10
80,336,234514,1,0
24,224,234664,5,6
16,184,234739,1,0
24,144,234814,1,0
56,120,234889,1,0
96,112,234964,1,0
136,128,235039,1,0
176,120,235114,1,0
208,96,235189,1,0
224,56,235264,6,0,B|248:40|280:48,3,40,2|0|0|0
288,16,235564,2,0,B|328:40,3,40,2|0|0|0
352,64,235864,6,2,B|392:40|432:32,2,80,6|2|8
336,144,236314,1,0
416,168,236464,2,2,B|432:208|440:256,1,80,2|0
424,320,236764,1,8
320,264,236914,6,2,B|232:224|176:296,1,160,6|2
104,264,237364,1,10
64,192,237514,1,0
96,120,237664,2,0,B|144:120|184:144,1,80,2|0
312,32,237964,2,0,B|282:50|234:50,1,80,10|0
280,152,238264,6,2,B|296:192|304:232,2,80,6|0|10
216,208,238714,1,0
240,288,238864,2,2,B|320:320,1,80,2|0
392,344,239164,1,10
456,296,239314,1,0
432,216,239464,6,2,B|448:168|448:128,1,80,2|0
392,80,239764,1,10
472,8,239914,2,2,B|427:82|331:50,1,160
256,64,240364,1,8
216,128,240514,1,0
88,80,240664,6,2,B|8:128|48:224,1,160,6|10
112,264,241114,2,2,B|152:240|200:224,1,80,0|2
296,304,241414,2,2,B|256:328|208:344,1,80,2|8
312,200,241714,6,2,B|400:168|464:240,1,160,6|0
496,304,242164,1,10
448,368,242314,1,0
376,344,242464,2,2,B|368:296|344:264,1,80,2|0
280,232,242764,2,2,B|312:144,1,80,10|0
392,88,243064,6,10,B|440:96|472:72,2,80,6|0|10
328,40,243514,1,0
248,32,243664,1,2
200,96,243814,1,0
128,72,243964,2,0,B|112:120|112:160,1,80,10|0
40,184,244264,5,6
64,216,244339,1,0
96,240,244414,1,0
136,240,244489,1,0
176,232,244564,1,0
216,216,244639,1,0
256,208,244714,1,0
288,224,244789,1,0
320,248,244864,6,0,B|328:288,3,40,6|0|0|0
360,312,245164,1,2
400,328,245239,1,0
440,328,245314,1,0
464,296,245389,1,0
480,256,245464,6,2,B|520:184|480:96,1,160,6|10
424,48,245914,1,0
344,40,246064,1,4
320,72,246139,1,0
280,88,246214,1,0
240,80,246289,1,2
200,88,246364,1,0
176,128,246439,1,0
184,168,246514,6,2,B|128:248|40:200,1,160,2|0
8,136,246964,1,10
8,136,247114,1,0
80,104,247264,2,2,B|104:64|112:24,1,80,0|2
110,30,247564,1,10
256,128,247864,6,2,B|344:96|416:160,2,160,6|10|2
192,80,248614,2,2,B|176:128|176:168,1,80,2|10
128,224,248914,2,2,B|168:232|208:248,1,80,0|2
248,312,249214,1,2
328,336,249364,1,10
376,272,249514,2,2,B|312:208|360:120,1,160,0|2
424,80,249964,1,10
216,32,250264,5,6
144,64,250414,1,0
112,136,250564,2,2,B|112:176|128:224,1,80,10|0
80,328,250864,5,6
152,360,251014,1,0
216,312,251164,2,2,B|229:273|229:233,1,80,10|0
296,80,251464,5,6
352,136,251614,1,0
320,208,251764,1,10
320,208,251914,2,2,B|408:168|472:240,1,160
488,312,252364,1,8
336,360,252664,5,6
296,368,252739,1,0
264,352,252814,2,0,B|224:344,3,40
184,360,253114,5,6
144,344,253189,1,0
128,304,253264,2,0,B|144:264,3,40
128,232,253564,5,6
144,200,253639,1,0
136,160,253714,1,0
72,112,253864,5,6
96,80,253939,1,0
128,56,254014,1,0
168,64,254089,1,0
200,88,254164,1,2
224,56,254239,1,0
264,40,254314,1,0
304,56,254389,1,0
336,80,254464,6,0,B|360:64|392:56,2,40,2|0|0
376,152,254764,2,0,B|400:168|432:176,2,40,2|0|0
320,208,255064,5,6
352,280,255214,1,0
296,336,255364,1,0
224,296,255514,1,0
240,216,255664,1,2
64,80,256264,5,6
32,152,256414,1,0
88,208,256564,1,0
160,168,256714,1,0
144,88,256864,1,2
440,32,257464,5,6
360,48,257614,1,0
352,128,257764,1,0
424,160,257914,1,0
480,104,258064,1,2
416,304,258664,5,4
416,304,258814,1,0
416,304,258964,2,2,B|344:248|264:288,1,160,6|2
232,360,259414,2,2,B|256:272|192:208,1,160,2|0
88,96,259864,5,6
88,96,260014,1,0
64,24,260164,1,0
40,160,260314,1,0
168,120,260464,1,2
416,168,261064,5,6
416,168,261214,1,0
448,88,261364,1,0
472,240,261514,1,0
328,184,261664,1,2
160,280,262264,5,6
160,280,262414,1,0
128,376,262564,1,0
96,208,262714,1,0
256,264,262864,1,2
432,328,263464,5,4
432,328,263539,1,0
432,328,263614,1,0
432,328,263689,1,0
432,328,263764,2,2,B|488:264|456:176,1,160,6|0
400,120,264214,1,0
400,120,264364,1,6
168,48,264664,6,2,B|97:102|129:190,1,160,6|8
208,160,265114,2,2,B|248:152|288:168,1,80,0|2
168,272,265414,2,2,B|128:280|80:264,1,80,2|8
0,312,265714,6,2,B|88:280|144:352,1,160,6|0
224,336,266164,1,10
264,264,266314,1,0
264,264,266464,2,0,B|280:224|304:192,1,80,2|0
168,120,266764,2,0,B|190:149|206:189,1,80,10|0
288,112,267064,6,0,B|304:64|312:24,2,80,6|0|8
312,184,267514,1,0
384,216,267664,2,2,B|408:296,1,80,2|2
360,352,267964,1,8
232,328,268114,2,2,B|152:280|184:184,1,160,6|2
224,120,268564,1,8
168,64,268714,2,2,B|72:16|16:112,1,160
0,168,269164,1,8
40,240,269314,1,0
136,192,269464,6,2,B|232:144|288:240,1,160,6|10
352,192,269914,2,0,B|360:240|344:280,1,80,2|0
440,352,270214,2,0,B|432:304|448:264,1,80,2|8
488,168,270514,6,2,B|528:88|472:16,1,160,6|2
392,0,270964,1,10
352,72,271114,1,0
352,72,271264,2,0,B|304:56|264:48,1,80,2|0
208,176,271564,2,0,B|236:170|284:154,1,80,10|0
344,208,271864,6,2,B|384:216|424:240,2,80,6|0|10
328,288,272314,1,0
264,344,272464,1,0
184,336,272614,1,2
120,288,272764,1,10
120,288,272914,1,0
40,208,273064,5,6
24,168,273139,1,0
40,136,273214,1,0
72,112,273289,1,0
112,120,273364,1,0
144,144,273439,1,0
184,144,273514,1,0
216,120,273589,1,0
232,80,273664,6,0,B|256:64|288:72,3,40,2|0|0|0
296,40,273964,2,0,B|336:64,3,40,2|0|0|0
360,88,274264,6,2,B|400:64|440:56,2,80,6|2|8
336,168,274714,1,0
408,208,274864,2,2,B|392:248|384:296,1,80,2|0
320,328,275164,1,8
264,264,275314,6,2,B|176:224|120:296,1,160,6|2
56,248,275764,1,10
72,168,275914,1,0
136,112,276064,2,0,B|136:64|112:24,1,80,2|0
216,136,276364,2,0,B|198:166|198:214,1,80,10|0
264,256,276664,6,2,B|280:296|288:336,2,80,6|0|10
304,184,277114,1,0
376,144,277264,2,2,B|456:160,1,80,2|0
488,88,277564,1,10
440,24,277714,1,0
360,48,277864,6,2,B|312:64|272:64,1,80,2|0
208,96,278164,1,10
152,40,278314,2,2,B|78:85|110:181,1,160
144,248,278764,1,8
216,272,278914,1,0
288,192,279064,6,2,B|378:154|426:234,1,160,6|10
504,224,279514,2,2,B|480:264|464:312,1,80,0|2
360,360,279814,2,2,B|336:320|320:272,1,80,2|8
216,240,280114,6,2,B|125:202|77:282,1,160,6|0
104,208,280564,1,10
40,160,280714,1,0
40,160,280864,2,2,B|48:112|72:80,1,80,2|0
16,24,281164,2,2,B|104:8,1,80,10|0
176,120,281464,6,10,B|224:136|264:144,2,80,6|0|10
168,40,281914,1,0
248,24,282064,1,2
320,64,282214,1,0
392,32,282364,2,0,B|408:80|408:120,1,80,10|0
488,176,282664,5,6
464,208,282739,1,0
432,232,282814,1,0
392,232,282889,1,0
352,224,282964,1,0
312,208,283039,1,0
272,200,283114,1,0
240,216,283189,1,0
208,240,283264,6,0,B|200:280,3,40,6|0|0|0
168,304,283564,1,2
128,320,283639,1,0
88,320,283714,1,0
64,288,283789,1,0
56,248,283864,5,4
0,184,284014,1,0
0,184,284089,1,0
0,184,284164,1,0
40,112,284314,1,0
120,128,284464,1,0
120,128,284539,1,0
120,128,284614,1,0
128,208,284764,1,0
272,176,284914,5,4
272,176,284989,1,0
272,176,285064,1,0
328,112,285214,1,0
288,40,285364,1,0
288,40,285439,1,0
288,40,285514,1,0
208,56,285664,1,0
208,56,285739,1,0
208,56,285814,1,0
200,136,285964,1,0
200,136,286039,1,0
200,136,286114,1,0
288,280,286264,5,4
224,336,286414,1,0
224,336,286489,1,0
224,336,286564,1,0
152,296,286714,1,0
168,216,286864,1,0
168,216,286939,1,0
168,216,287014,1,0
248,208,287164,1,0
248,208,287239,1,0
248,208,287314,1,0
408,232,287464,5,4
488,144,287689,1,4
384,88,287914,2,0,B|248:8|296:192|136:80,1,240,4|0
166,99,288664,5,4
224,160,288814,1,0
224,160,288889,1,0
224,160,288964,1,0
184,232,289114,1,0
104,216,289264,1,0
104,216,289339,1,0
104,216,289414,1,0
96,136,289564,1,0
256,248,289714,5,4
256,248,289789,1,0
256,248,289864,1,0
336,224,290014,1,0
376,296,290164,1,0
376,296,290239,1,0
376,296,290314,1,0
320,352,290464,1,0
320,352,290539,1,0
320,352,290614,1,0
248,328,290764,1,0
248,328,290839,1,0
248,328,290914,1,0
384,168,291064,5,4
344,96,291214,1,0
344,96,291289,1,0
344,96,291364,1,0
400,32,291514,1,0
472,72,291664,1,0
472,72,291739,1,0
472,72,291814,1,0
464,152,291964,1,0
464,152,292039,1,0
464,152,292114,1,0
512,264,292264,5,4
440,360,292489,1,4
344,288,292714,2,0,B|208:208|256:392|96:280,1,240,4|0
80,232,293314,5,0
80,232,293389,1,0
80,232,293464,1,6
352,40,294064,1,6
408,320,294664,5,6
376,296,294739,1,0
336,288,294814,1,0
296,296,294889,1,0
264,312,294964,1,0
232,328,295039,1,0
192,336,295114,1,0
152,328,295189,1,0
120,304,295264,6,2,B|104:264|96:224,1,80
160,96,295564,2,2,B|176:136|184:176,1,80
216,32,295864,5,6
256,40,295939,1,0
280,72,296014,1,0
280,112,296089,1,0
272,152,296164,1,0
296,184,296239,1,0
336,192,296314,1,0
368,176,296389,1,0
384,136,296464,6,2,B|464:104,1,80
512,264,296764,2,2,B|432:232,1,80
360,344,297064,5,6
320,344,297139,1,0
280,328,297214,1,0
264,296,297289,1,0
272,256,297364,1,0
296,224,297439,1,0
296,184,297514,1,0
272,152,297589,1,0
240,136,297664,6,2,B|240:80|272:32,1,80
152,216,297964,2,2,B|152:160|120:112,1,80,2|2
80,288,298264,5,6
112,312,298339,1,0
152,328,298414,1,0
192,328,298489,1,0
224,304,298564,1,0
240,264,298639,1,0
264,232,298714,1,0
304,224,298789,1,0
344,240,298864,6,2,B|368:296|360:344,1,80
272,136,299164,2,2,B|248:80|256:32,1,80
352,0,299464,5,6
392,8,299539,1,0
424,32,299614,1,0
432,72,299689,1,0
424,112,299764,1,0
416,152,299839,1,0
424,192,299914,1,0
456,216,299989,1,0
496,224,300064,6,0,B|512:248|520:272,3,40,6|0|0|0
488,288,300364,2,0,B|480:312|464:336,3,40,2|0|0|0
432,328,300664,5,6
392,312,300739,1,0
352,312,300814,1,0
320,328,300889,1,0
296,360,300964,1,0
264,376,301039,1,0
224,368,301114,1,0
192,344,301189,1,0
184,304,301264,5,6
200,264,301339,1,0
192,224,301414,1,0
160,200,301489,1,0
120,192,301564,1,2
40,56,301864,5,6
72,80,301939,1,0
112,88,302014,1,0
144,64,302089,1,0
184,48,302164,1,0
224,48,302239,1,0
248,80,302314,1,0
256,120,302389,1,0
240,160,302464,6,0,B|224:184|216:208,3,40,6|0|0|0
232,232,302764,2,0,B|208:248|184:256,3,40,2|0|0|0
160,240,303064,5,6
128,216,303139,1,0
88,216,303214,1,0
56,232,303289,1,0
40,272,303364,1,0
56,312,303439,1,0
88,336,303514,1,0
128,336,303589,1,0
160,312,303664,5,6
200,296,303739,1,0
240,296,303814,1,0
272,312,303889,1,0
296,344,303964,1,2
448,288,304264,5,6
448,288,304414,2,0,B|488:232|472:160,1,120,2|0
496,144,304714,2,0,B|472:104,1,40,2|0
384,32,304864,5,6
384,32,305014,2,0,B|344:88|360:160,1,120,2|0
336,176,305314,2,0,B|360:216,1,40,2|0
312,296,305464,5,6
312,296,305614,2,2,B|248:280|192:328,1,120,2|0
176,352,305914,2,0,B|136:328,1,40,2|0
120,296,306064,5,2
80,280,306139,1,0
56,248,306214,1,0
64,208,306289,1,0
88,176,306364,1,2
328,72,306664,5,6
328,72,306814,2,0,B|272:40|208:56,1,120,2|0
176,32,307114,2,0,B|152:72,1,40,2|0
200,176,307264,5,6
200,176,307414,2,0,B|256:208|320:192,1,120,2|0
352,216,307714,2,0,B|376:176,1,40,2|0
368,144,307864,5,6
400,120,307939,1,0
440,112,308014,1,0
472,136,308089,1,0
488,168,308164,1,0
496,208,308239,1,0
480,248,308314,1,0
448,272,308389,1,0
408,280,308464,6,0,B|400:304|400:336,3,40,6|0|0|0
376,352,308764,1,2
344,328,308839,1,0
304,320,308914,1,0
264,336,308989,1,0
232,312,309064,5,6
160,272,309214,2,2,B|88:256|40:304,1,120,2|0
8,280,309514,2,0,B|0:240,1,40,2|0
48,144,309664,5,6
120,184,309814,2,2,B|192:200|240:152,1,120,2|0
272,176,310114,2,0,B|280:216,1,40,2|0
376,256,310264,5,6
448,224,310414,2,2,B|480:168|472:104,1,120,2|0
504,80,310714,2,0,B|464:56,1,40,2|0
448,24,310864,5,6
408,8,310939,1,0
368,8,311014,1,0
336,32,311089,1,0
320,64,311164,1,2
392,208,311464,5,6
360,280,311614,2,2,B|304:312|240:304,1,120,2|0
216,336,311914,2,0,B|192:296,1,40,2|0
256,200,312064,5,6
224,128,312214,2,2,B|168:96|104:104,1,120,2|0
80,72,312514,2,0,B|56:112,1,40,2|0
24,128,312664,5,6
8,168,312739,1,0
16,208,312814,1,0
48,232,312889,1,0
88,240,312964,1,0
128,224,313039,1,0
168,224,313114,1,0
208,240,313189,1,0
224,272,313264,5,6
224,312,313339,1,0
208,352,313414,2,0,B|168:368,2,40,0|0|2
360,296,313864,5,4
440,320,314014,1,0
472,248,314164,1,2
440,216,314239,1,0
424,176,314314,1,0
448,144,314389,1,0
480,120,314464,6,2,B|496:80|488:32,1,80
344,168,314764,2,2,B|337:129|353:89,1,80
272,216,315064,5,6
240,232,315139,1,0
200,232,315214,1,0
168,208,315289,1,0
160,168,315364,2,0,B|176:144|184:128,3,40,2|0|0|0
176,96,315664,6,2,B|216:112|264:104,1,80
112,56,315964,2,2,B|73:49|33:65,1,80
8,176,316264,5,6
40,200,316339,1,0
56,232,316414,1,0
48,272,316489,1,0
24,304,316564,2,0,B|32:336|40:352,3,40,2|0|0|0
72,360,316864,6,2,B|160:344,1,80
136,232,317164,2,2,B|224:248,1,80,2|2
280,328,317464,5,6
320,336,317539,1,0
360,328,317614,1,0
384,296,317689,1,0
424,296,317764,2,0,B|448:336|440:352,3,40,2|0|0|0
472,352,318064,5,6
496,320,318139,1,0
512,280,318214,1,0
496,248,318289,1,0
464,224,318364,1,0
432,200,318439,1,0
416,168,318514,1,0
432,128,318589,1,0
456,96,318664,5,6
408,32,318814,1,0
336,72,318964,1,0
304,96,319039,1,0
264,112,319114,1,0
232,88,319189,1,0
208,56,319264,2,0,B|184:40|152:32,3,40,6|0|0|0
144,64,319564,2,0,B|112:72|80:96,3,40,2|0|0|0
72,56,319864,5,6
56,88,319939,1,0
56,128,320014,1,0
88,144,320089,1,0
128,152,320164,2,0,B|152:184|160:216,3,40
136,224,320464,5,6
120,256,320539,1,0
120,296,320614,1,0
152,312,320689,1,0
192,320,320764,1,2
232,160,321064,5,6
304,136,321214,1,0
336,208,321364,1,0
368,232,321439,1,0
408,248,321514,1,0
440,224,321589,1,0
464,192,321664,2,0,B|488:176|520:168,3,40,6|0|0|0
488,136,321964,2,0,B|494:130|502:98,3,40,2|0|0|0
472,72,322264,5,6
448,40,322339,1,0
416,16,322414,1,0
376,32,322489,1,0
344,56,322564,2,0,B|312:64|280:88,3,40,2|0|0|0
280,104,322864,5,6
248,120,322939,1,0
208,120,323014,1,0
176,96,323089,1,0
160,64,323164,1,2
128,40,323239,1,0
88,32,323314,1,0
56,48,323389,1,0
32,80,323464,6,2,B|-8:168|64:224,1,160,6|0
24,296,323914,2,2,B|78:225|166:265,1,160,6|2
200,240,324289,2,0,B|208:280,1,40,0|2
256,344,324514,1,2
368,288,324664,6,2,B|388:253|396:213,1,80,6|2
456,168,324964,1,0
432,96,325114,2,2,B|304:0|232:144,1,240,6|0
48,224,325864,5,6
88,216,325939,1,0
128,232,326014,1,0
152,264,326089,1,0
192,272,326164,2,0,B|232:256|272:248,1,80,2|0
336,288,326464,2,2,B|384:248|392:176,2,120,6|0|0
312,360,327064,6,2,B|371:183|170:263|219:83,1,320,6|2
400,24,328264,5,6
400,24,328414,2,2,B|488:64|448:160,1,160,0|2
488,248,328864,2,2,B|408:288|336:216,1,160,2|2
296,152,329314,1,0
224,120,329464,2,2,B|196:146|180:186,1,80,0|2
104,168,329764,2,0,B|120:248,1,80,2|0
80,312,330064,2,2,B|144:256|232:296,1,160
296,344,330514,1,0
384,256,330664,6,2,B|416:168|352:104,1,160,6|2
392,40,331114,2,2,B|312:24,1,80,0|2
232,40,331414,1,2
200,112,331564,1,0
120,88,331714,6,2,B|256:-48|496:72|344:304|144:232,1,560
80,208,332914,1,0
40,280,333064,6,2,B|48:328|64:360,1,80,4|2
136,376,333364,1,2
200,336,333514,1,0
280,344,333664,1,2
328,280,333814,1,0
280,216,333964,1,2
280,216,334114,1,0
296,136,334264,6,2,B|376:104,1,80,2|0
432,48,334564,1,2
472,64,334639,1,0
496,96,334714,1,0
488,136,334789,1,0
464,168,334864,2,2,B|448:208|440:248,1,80
472,320,335164,1,2
312,288,335464,5,4
272,280,335539,1,0
232,288,335614,1,0
208,320,335689,1,0
168,320,335764,2,0,B|144:280|152:264,3,40,2|0|0|0
120,264,336064,5,4
88,240,336139,1,0
80,200,336214,1,0
96,160,336289,1,0
88,120,336364,2,0,B|80:96|64:64,3,40,2|0|0|0
96,48,336664,5,4
128,24,336739,1,0
168,32,336814,1,0
200,56,336889,1,0
208,96,336964,1,0
192,136,337039,1,0
184,176,337114,1,0
208,208,337189,1,0
248,224,337264,6,0,B|272:232|288:248,3,40,4|0|0|0
312,272,337564,2,0,B|336:264|352:248,3,40,2|0|0|0
384,264,337864,5,6
416,248,337939,1,0
440,216,338014,1,0
440,176,338089,1,0
424,136,338164,2,0,B|432:112|448:96,3,40
480,88,338464,5,2
504,56,338539,1,0
496,16,338614,1,0
456,0,338689,1,0
424,16,338764,1,2
384,32,338839,1,0
344,24,338914,1,0
304,24,338989,1,0
272,48,339064,6,0,B|280:88|272:112,3,40,2|0|0|0
312,112,339364,2,0,B|272:136,3,40,2|0|0|0
256,168,339664,1,0
224,144,339739,1,0
184,128,339814,1,0
152,152,339889,1,0
128,184,339964,2,2,B|88:168|32:160,1,80,2|0
0,224,340264,5,4
16,264,340339,1,0
48,288,340414,1,0
88,288,340489,1,0
128,272,340564,1,2
168,256,340639,1,0
208,256,340714,1,0
240,280,340789,1,0
256,320,340864,5,2
272,360,340939,1,0
304,384,341014,1,0
344,384,341089,1,0
384,368,341164,1,2
408,336,341239,1,0
408,296,341314,1,0
392,256,341389,1,0
360,232,341464,6,0,B|320:240,3,40,4|0|0|0
296,208,341764,2,0,B|256:200,3,40,2|0|0|0
232,168,342064,5,0
216,128,342139,1,0
216,88,342214,1,0
248,64,342289,1,0
288,48,342364,1,2
464,152,342664,5,6
480,192,342739,1,0
472,232,342814,1,0
432,232,342889,1,0
392,216,342964,1,6
352,200,343039,1,0
312,200,343114,1,0
304,240,343189,1,0
320,280,343264,6,2,B|312:320|296:368,1,80
224,216,343564,2,2,B|232:176|248:128,1,80
168,48,343864,5,6
128,32,343939,1,0
88,40,344014,1,0
88,80,344089,1,0
104,120,344164,1,6
120,160,344239,1,0
120,200,344314,1,0
80,208,344389,1,0
40,200,344464,6,2,B|48:240|48:288,1,80
152,344,344764,2,2,B|151:304|159:264,1,80,2|2
248,144,345064,5,6
280,168,345139,1,0
304,200,345214,1,0
296,240,345289,1,0
280,280,345364,2,0,B|288:328,3,40,2|0|0|0
264,352,345664,5,6
304,368,345739,1,0
344,384,345814,1,0
376,352,345889,1,0
392,312,345964,1,0
384,272,346039,1,0
400,232,346114,1,0
432,216,346189,1,0
472,224,346264,5,6
504,200,346339,1,0
512,160,346414,1,0
488,128,346489,1,0
448,120,346564,1,0
416,144,346639,1,0
376,128,346714,1,0
360,88,346789,1,0
376,48,346864,2,2,B|288:0|216:64,1,160
128,264,347464,5,4
128,264,347614,1,0
56,296,347764,1,0
56,296,347839,1,0
56,296,347914,1,0
0,240,348064,1,0
40,168,348214,1,0
120,184,348364,1,0
120,184,348439,1,0
120,184,348514,1,0
168,120,348664,5,6
208,104,348739,1,0
248,112,348814,1,0
272,144,348889,1,0
296,176,348964,1,2
336,192,349039,1,0
376,184,349114,1,0
408,160,349189,1,0
416,120,349264,5,4
408,160,349339,1,0
424,200,349414,1,0
448,232,349489,1,0
440,272,349564,1,2
208,312,349864,6,0,B|240:320|256:336,3,40,6|0|0|0
272,352,350164,2,0,B|280:320|296:304,3,40,2|0|0|0
312,288,350464,6,0,B|280:280|264:264,3,40,6|0|0|0
248,248,350764,2,0,B|240:280|224:296,3,40,2|0|0|0
208,312,351064,5,6
128,336,351214,1,0
72,280,351364,1,2
56,200,351514,1,0
80,120,351664,5,6
192,152,351814,1,0
296,96,351964,1,2
328,208,352114,1,0
424,136,352264,5,6
424,136,352414,1,2
480,192,352564,1,0
496,232,352639,1,0
488,272,352714,1,0
456,296,352789,1,0
416,296,352864,5,2
416,296,353014,1,2
360,240,353164,1,0
320,224,353239,1,0
280,232,353314,1,0
256,264,353389,1,0
256,304,353464,5,2
232,336,353539,1,0
192,336,353614,1,0
160,320,353689,1,0
144,288,353764,1,0
152,248,353839,1,0
160,208,353914,1,0
144,168,353989,1,0
112,144,354064,5,2
72,144,354139,1,0
40,120,354214,1,0
32,80,354289,1,0
56,48,354364,1,2
96,40,354439,1,0
128,56,354514,1,0
168,48,354589,1,0
200,24,354664,6,0,B|224:24|256:32,3,40,4|0|0|0
272,56,354964,1,2
296,88,355039,1,0
304,128,355114,1,0
280,160,355189,1,0
240,176,355264,1,0
200,192,355339,1,0
176,224,355414,1,0
184,264,355489,1,0
208,296,355564,2,0,B|216:336|208:368,3,40
248,360,355864,5,6
288,368,355939,1,0
328,352,356014,1,0
352,320,356089,1,0
392,312,356164,1,2
432,320,356239,1,0
472,304,356314,1,0
496,272,356389,1,0
488,232,356464,5,2
464,200,356539,1,0
424,192,356614,1,0
408,152,356689,1,0
416,112,356764,1,2
448,88,356839,1,0
488,88,356914,1,0
344,168,357064,6,2,B|256:208|192:120,1,160,6|2
160,64,357514,1,0
80,40,357664,2,2,B|8:96|48:192,1,160
0,256,358114,2,2,B|48:264|80:288,1,80,0|6
128,344,358414,1,2
208,336,358564,1,0
272,288,358714,2,2,B|344:232|304:136,1,160,2|0
248,88,359164,1,2
160,216,359464,5,6
192,240,359539,1,0
232,248,359614,1,0
272,232,359689,1,0
296,200,359764,1,2
320,168,359839,1,0
360,152,359914,1,0
400,160,359989,1,0
432,184,360064,6,0,B|448:216|440:248,3,40,2|0|0|0
472,248,360364,2,0,B|464:280|440:304,3,40,2|0|0|0
448,320,360664,5,6
416,344,360739,1,0
376,344,360814,1,0
344,320,360889,1,0
304,336,360964,2,2,B|264:352|216:352,1,80
152,376,361264,5,2
120,360,361339,1,0
96,328,361414,1,0
104,288,361489,1,0
128,256,361564,1,2
32,96,361864,5,6
48,56,361939,1,0
80,32,362014,1,0
120,40,362089,1,0
152,64,362164,2,0,B|160:104|152:136,3,40,2|0|0|0
144,144,362464,5,2
160,184,362539,1,0
192,208,362614,1,0
232,200,362689,1,0
264,176,362764,2,0,B|272:136|264:104,3,40,2|0|0|0
256,96,363064,5,6
272,56,363139,1,0
304,32,363214,1,0
344,40,363289,1,0
376,64,363364,2,0,B|384:104|376:136,3,40,2|0|0|0
368,144,363664,5,2
384,184,363739,1,0
416,208,363814,1,0
456,200,363889,1,0
488,176,363964,1,2
432,336,364264,5,6
352,312,364414,1,0
280,352,364564,1,2
240,280,364714,1,0
280,208,364864,1,0
296,128,365014,1,2
240,72,365164,1,0
240,72,365314,1,2
152,24,365464,6,2,B|128:56|112:96,1,80,2|0
40,72,365764,2,2,B|56:152,1,80,2|0
24,224,366064,2,2,B|80:152|176:192,1,160
256,320,366664,5,4
256,320,366814,1,0
328,352,366964,2,0,B|368:344|408:320,1,80
424,248,367264,1,0
352,208,367414,1,0
400,144,367564,1,0
376,64,367714,1,0
296,40,367864,2,0,B|280:120,1,80
208,96,368164,2,0,B|224:152|224:184,2,80
144,56,368614,2,0,B|56:88|72:184,1,160,4|0
16,240,369064,6,2,B|48:280|64:312,1,80,6|0
40,344,369289,2,2,B|104:336|168:360,1,120
216,264,369664,6,2,B|296:248,1,80,2|0
320,216,369889,2,2,B|288:272|296:336,1,120
424,368,370264,6,2,B|408:280,1,80,2|0
440,256,370489,2,2,B|464:184|440:120,1,120
344,16,370864,6,2,B|312:56|296:88,1,80,2|0
320,120,371089,2,2,B|264:144|200:152,1,120
104,248,371464,6,2,B|192:208|256:288,1,160,6|2
280,304,371839,2,0,B|272:352,2,40
320,312,372064,5,2
352,296,372139,1,0
376,264,372214,1,0
376,224,372289,1,0
360,192,372364,1,2
320,176,372439,1,0
280,184,372514,1,0
240,168,372589,1,0
224,128,372664,6,0,B|240:88,3,40,2|0|0|0
208,64,372964,2,0,B|248:32,3,40,2|0|0|0
264,8,373264,1,0
304,16,373339,1,0
328,48,373414,6,2,B|408:104|496:48,1,160,6|0
512,152,373864,5,4
496,184,373939,1,0
464,208,374014,1,0
424,200,374089,1,0
392,184,374164,2,0,B|352:192|312:216,1,80
272,280,374464,1,0
344,312,374614,1,0
288,368,374764,1,2
120,336,375064,5,4
80,344,375139,1,0
48,328,375214,1,0
32,296,375289,1,0
48,256,375364,1,0
80,240,375439,1,0
120,248,375514,1,0
152,232,375589,1,0
168,200,375664,2,0,B|192:144|184:96,1,80
144,56,375964,1,2
288,128,376264,5,4
344,72,376414,1,2
424,56,376564,2,2,B|464:72|496:104,1,80,0|2
440,160,376864,2,2,B|456:208|456:248,1,80
408,304,377164,1,2
408,304,377239,1,0
408,304,377314,1,0
336,344,377464,5,2
264,320,377614,1,0
288,248,377764,1,0
288,248,377839,1,0
288,248,377914,1,0
256,176,378064,2,2,B|240:88,1,80
168,48,378364,1,6
88,192,378664,5,4
56,208,378739,1,0
40,240,378814,1,0
48,280,378889,1,0
80,296,378964,1,2
120,288,379039,1,0
144,256,379114,1,0
168,224,379189,1,0
208,208,379264,5,2
248,208,379339,1,0
280,224,379414,1,0
320,232,379489,1,0
360,216,379564,2,0,B|392:224|408:240,3,40,2|0|0|0
416,264,379864,5,6
432,296,379939,1,0
472,312,380014,1,0
496,280,380089,1,0
504,240,380164,1,2
480,208,380239,1,0
464,168,380314,1,0
472,128,380389,1,0
480,88,380464,5,2
464,56,380539,1,0
432,32,380614,1,0
392,40,380689,1,0
368,72,380764,1,6
208,40,381064,6,0,B|216:96,1,40,2|0
192,112,381214,1,0
216,144,381289,2,2,B|280:136|336:176,1,120
384,232,381664,5,2
376,272,381739,1,0
352,304,381814,1,0
312,296,381889,1,0
280,272,381964,1,2
240,264,382039,1,0
208,280,382114,1,0
184,312,382189,1,0
144,328,382264,6,0,B|104:320,1,40,6|0
72,296,382414,1,0
32,304,382489,2,2,B|0:248|16:160,2,120
120,224,383164,1,0
152,200,383239,1,0
168,160,383314,1,2
160,120,383389,1,0
136,88,383464,5,6
440,184,383764,1,6
168,352,384064,1,6
464,160,384364,1,6
112,64,384664,5,4
112,64,384739,1,0
112,64,384814,1,0
112,64,384889,1,0
112,64,384964,1,6
488,136,385264,5,4
488,136,385339,1,0
488,136,385414,1,0
488,136,385489,1,0
488,136,385564,1,6
144,368,385864,6,0,B|64:328|88:232,1,160,6|2
24,152,386314,2,2,B|80:80|168:120,1,160,2|2
224,176,386764,1,2
296,144,386914,2,2,B|312:232,1,80,0|6
296,304,387214,2,2,B|360:296|400:272,1,80,2|0
424,224,387514,1,2
448,152,387664,1,0
400,88,387814,2,2,B|312:136|248:40,1,160,2|0
184,24,388264,5,6
144,32,388339,1,0
112,48,388414,1,0
88,80,388489,1,0
96,120,388564,1,0
120,152,388639,1,0
152,168,388714,5,6
192,152,388789,1,0
232,160,388864,1,0
264,176,388939,1,0
288,208,389014,1,0
280,248,389089,1,0
256,280,389164,6,0,B|216:296,3,40,6|0|0|0
192,328,389464,2,2,B|152:304|104:296,1,80
48,336,389764,1,0
8,264,389914,2,2,B|24:216|24:160,1,80,2|0
64,112,390214,2,2,B|160:64|216:168,1,160,2|0
256,264,390664,5,6
280,296,390739,1,0
312,312,390814,1,0
352,304,390889,1,0
384,280,390964,1,0
400,248,391039,1,0
392,208,391114,1,0
368,176,391189,1,0
352,136,391264,6,0,B|344:96,3,40,2|0|0|0
368,64,391564,2,0,B|336:56|312:32,3,40,2|0|0|0
304,24,391864,5,6
232,64,392014,1,0
152,48,392164,1,0
112,56,392239,1,0
80,80,392314,1,0
80,120,392389,1,0
104,152,392464,2,0,B|136:160|160:176,3,40,2|0|0|0
176,144,392764,2,0,B|184:192,3,40,2|0|0|0
216,208,393064,5,6
176,280,393214,1,2
96,272,393364,1,0
176,280,393514,1,2
216,344,393664,2,2,B|264:360|312:368,1,80,2|0
280,288,393964,2,2,B|368:272,1,80
448,336,394264,5,6
480,304,394339,1,0
496,264,394414,1,0
472,232,394489,1,0
432,216,394564,1,0
392,200,394639,1,0
368,168,394714,1,0
384,128,394789,1,0
416,96,394864,5,6
384,128,394939,1,0
344,128,395014,1,0
320,96,395089,1,0
328,56,395164,1,2
296,24,395239,1,0
256,24,395314,1,0
232,56,395389,1,0
240,96,395464,5,6
168,128,395614,1,0
144,160,395689,1,0
144,200,395764,1,0
168,232,395839,1,0
208,240,395914,1,0
240,216,395989,1,0
256,176,396064,5,2
344,248,396214,1,0
368,280,396289,1,0
368,320,396364,1,0
344,352,396439,1,0
304,360,396514,1,0
272,336,396589,1,0
256,296,396664,5,2
184,264,396814,1,0
144,336,396964,1,2
64,328,397114,1,0
24,256,397264,2,2,B|8:208|16:160,1,80
80,136,397564,2,2,B|96:184|88:232,1,80
80,136,397864,5,6
96,104,397939,1,0
128,80,398014,1,0
168,88,398089,1,0
200,112,398164,1,2
240,120,398239,1,0
272,96,398314,1,0
288,64,398389,1,0
320,40,398464,6,2,B|360:16|408:24,1,80
472,120,398764,2,2,B|432:144|384:136,1,80,2|2
432,272,399064,5,6
416,240,399139,1,0
384,216,399214,1,0
344,224,399289,1,0
312,248,399364,1,2
272,256,399439,1,0
240,232,399514,1,0
224,200,399589,1,0
192,176,399664,6,2,B|152:152|104:160,1,80
40,256,399964,2,2,B|80:280|128:272,1,80,2|2
192,344,400264,5,6
232,352,400339,1,0
272,344,400414,1,0
304,320,400489,1,0
304,280,400564,1,0
288,248,400639,1,0
256,224,400714,1,0
216,216,400789,1,0
184,192,400864,5,2
168,160,400939,1,0
168,120,401014,1,0
200,96,401089,1,0
240,88,401164,1,0
280,96,401239,1,0
320,88,401314,1,0
344,56,401389,1,0
328,16,401464,5,6
416,0,401614,2,2,B|488:40|464:144,1,160
400,184,402064,1,2
368,208,402139,1,0
344,240,402214,1,0
352,280,402289,1,0
376,312,402364,1,2
224,352,402664,5,6
192,280,402814,1,0
112,264,402964,2,2,B|72:272|32:288,1,80,2|0
192,280,403264,2,2,B|232:272|272:256,1,80,2|0
168,200,403564,2,2,B|176:160|176:112,1,80,2|0
120,64,403864,5,4
120,64,403939,1,0
120,64,404014,1,0
120,64,404089,1,0
120,64,404164,1,6
392,64,404464,5,4
392,64,404539,1,0
392,64,404614,1,0
392,64,404689,1,0
392,64,404764,1,6
256,312,405064,5,4
256,192,414664,5,6
256,192,414814,12,4,418864
256,192,419464,5,6
256,192,419614,12,4,423664
64,360,424264,5,4
224,328,424564,2,2,B|264:248|224:168,1,160
152,192,425014,1,0
96,136,425164,1,0
128,64,425314,2,2,B|184:-8|280:40,3,160
320,96,426364,1,0
480,128,426664,5,6
480,128,426814,1,0
504,208,426964,1,0
440,264,427114,2,2,B|352:312|296:232,1,160
264,160,427564,1,0
184,176,427714,6,2,B|112:232|144:320,1,160,6|2
208,368,428164,1,2
248,296,428314,1,0
328,280,428464,2,0,B|416:304,1,80,2|0
472,168,428764,2,0,B|392:184,1,80,2|0
416,104,429064,6,2,B|368:24|272:72,1,160,6|0
208,32,429514,2,2,B|160:104|192:192,1,160,6|0
240,248,429964,1,2
240,248,430114,1,0
184,304,430264,6,2,B|96:336|40:264,1,160,6|0
72,136,430714,2,2,B|160:104|216:176,1,160,6|0
240,248,431164,1,2
240,248,431314,1,0
360,160,431464,5,6
256,192,431539,12,0,433789
368,48,433864,6,6,B|440:104|400:192,1,160,6|0
464,264,434314,2,2,B|408:344|320:304,1,160
280,240,434764,1,0
312,168,434914,1,0
224,112,435064,6,0,B|176:112|144:128,1,80,6|2
64,112,435364,1,0
32,184,435514,2,2,B|-16:264|56:336,1,160
128,360,435964,1,2
184,304,436114,1,0
336,336,436264,6,0,B|424:360|488:288,1,160,6|0
440,152,436714,2,0,B|352:128|288:200,1,160,6|0
288,272,437164,1,2
288,272,437314,1,0
176,304,437464,6,0,B|88:328|24:256,1,160,6|0
72,120,437914,2,0,B|160:96|224:168,1,160,6|0
224,240,438364,1,2
224,240,438439,1,0
224,240,438514,1,0
304,312,438664,5,6
368,264,438814,2,0,B|384:224|384:176,1,80,2|0
456,160,439114,2,2,B|360:192|312:104,1,160
264,56,439564,1,2
184,72,439714,1,0
104,144,439864,6,0,B|88:184|96:224,1,80,6|0
64,296,440164,1,0
136,336,440314,2,2,B|232:368|280:280,1,160
240,216,440764,1,2
296,160,440914,1,0
392,184,441064,6,0,B|328:120|368:32,1,160,6|2
440,64,441514,2,2,B|376:0|288:32,1,160
216,0,441964,2,2,B|224:88,1,80,2|0
184,176,442264,5,6
184,176,442339,1,0
184,176,442414,1,0
256,208,442564,1,2
288,184,442639,1,0
328,176,442714,1,0
368,192,442789,1,0
400,216,442864,1,0
400,256,442939,1,0
384,296,443014,1,0
352,320,443089,1,0
312,336,443164,2,0,B|304:384,2,40
224,296,443464,6,2,B|144:248|72:320,1,160,6|2
0,376,443914,2,2,B|64:320|40:224,1,160,2|0
0,160,444364,1,2
32,88,444514,1,0
128,56,444664,6,0,B|176:64|208:80,1,80,6|0
272,120,444964,1,0
304,192,445114,2,2,B|232:136|264:40,1,160,2|2
336,16,445564,1,2
408,40,445714,1,0
448,136,445864,6,0,B|368:184|408:280,1,160,6|0
368,200,446314,2,2,B|288:144|224:216,1,160
184,288,446764,1,2
248,336,446914,1,0
320,304,447064,6,0,B|336:344|344:384,2,80,6|0|0
256,256,447514,2,2,B|208:176|272:104,1,160
328,48,447964,5,0
344,88,448039,1,0
376,112,448114,1,0
416,112,448189,1,0
456,96,448264,2,0,B|472:128|488:144,5,40,6|0|0|0|0|0
504,160,448714,2,0,B|488:208,5,40,6|0|0|0|0|0
504,232,449164,5,6
488,272,449239,1,0
464,296,449314,1,0
424,288,449389,1,0
392,264,449464,2,0,B|360:272|336:288,5,40,6|0|0|0|0|0
336,312,449914,2,0,B|296:296,5,40,6|0|0|0|0|0
264,320,450364,5,6
240,288,450439,1,0
208,264,450514,1,0
168,272,450589,1,0
136,296,450664,6,2,B|128:256|112:216,1,80,6|2
24,80,450964,2,2,B|32:120|48:160,1,80
136,120,451264,1,2
248,168,451414,1,2
352,64,451564,1,2
352,64,451639,1,0
352,64,451714,2,0,B|368:96,4,20,0|0|0|0|6
464,40,452164,5,2
64,240,452464,1,6
480,352,452764,1,6
136,24,453064,5,4
112,48,453139,1,0
112,80,453214,1,0
128,112,453289,1,0
160,120,453364,1,4
192,120,453439,1,0
216,96,453514,1,0
240,72,453589,1,0
264,48,453664,5,4
296,48,453739,1,0
328,56,453814,1,0
344,88,453889,1,0
344,120,453964,1,4
320,144,454039,1,0
304,176,454114,1,0
304,208,454189,1,0
312,240,454264,5,4
320,272,454339,1,0
320,304,454414,1,0
304,336,454489,1,0
280,360,454564,1,4
248,368,454639,1,0
216,360,454714,1,0
184,344,454789,1,0
168,312,454864,6,0,B|176:272,3,40,4|0|0|0
208,256,455164,2,0,B|168:224,3,40,4|0|0|0
160,200,455464,5,4
128,192,455539,1,0
96,200,455614,1,0
64,208,455689,1,0
32,200,455764,1,4
8,176,455839,1,0
0,144,455914,1,0
8,112,455989,1,0
32,96,456064,5,4
64,88,456139,1,0
96,96,456214,1,0
128,104,456289,1,0
160,96,456364,1,4
184,80,456439,1,0
208,56,456514,1,0
240,40,456589,1,0
272,48,456664,5,4
296,64,456739,1,0
312,96,456814,1,0
312,128,456889,1,0
296,160,456964,1,4
304,192,457039,1,0
328,216,457114,1,0
360,216,457189,1,0
392,200,457264,6,0,B|432:224,3,40,4|0|0|0
456,208,457564,2,0,B|464:256,3,40,4|0|0|0
480,272,457864,5,4
496,304,457939,1,0
488,336,458014,1,0
464,352,458089,1,0
432,352,458164,1,4
408,336,458239,1,0
376,328,458314,1,0
344,336,458389,1,0
312,352,458464,5,4
280,360,458539,1,0
248,352,458614,1,0
224,328,458689,1,0
224,296,458764,1,4
240,264,458839,1,0
272,248,458914,1,0
304,256,458989,1,0
336,248,459064,5,4
360,224,459139,1,0
360,192,459214,1,0
344,160,459289,1,0
312,144,459364,1,4
280,152,459439,1,0
248,144,459514,1,0
232,120,459589,1,0
200,112,459664,5,4
176,128,459739,1,0
176,160,459814,1,0
152,184,459889,1,0
120,176,459964,1,4
104,152,460039,1,0
72,144,460114,1,0
48,168,460189,1,0
48,200,460264,5,4
48,200,460339,1,0
48,200,460414,1,0
48,200,460489,1,0
48,200,460564,1,0
464,272,460864,5,4
464,272,460939,1,0
464,272,461014,1,0
464,272,461089,1,0
464,272,461164,1,0
80,336,461464,5,4
80,336,461539,1,0
80,336,461614,1,0
80,336,461689,1,0
80,336,461764,1,0
432,136,462064,5,4
432,136,462139,1,0
432,136,462214,1,0
432,136,462289,1,0
256,240,462664,5,6
256,192,462739,12,6,463864
384,312,464164,5,6
80,224,464464,1,6
352,56,464764,1,6
48,216,465064,5,4
72,312,465214,1,0
168,288,465364,1,0
256,320,465514,1,0
344,272,465664,6,0,B|368:312|376:352,1,80,4|0
272,184,465964,2,0,B|248:144|240:104,1,80,0|0
288,24,466264,5,4
384,48,466414,1,0
368,144,466564,1,0
432,216,466714,1,0
360,280,466864,5,4
360,280,467014,1,0
360,280,467164,1,0
360,280,467314,1,0
360,280,467464,1,6
256,192,467539,12,6,468589
256,192,468664,5,6
256,192,468814,1,6
