osu file format v9

[General]
AudioFilename: DragonForce-My_Spirit_Will_Go_On.mp3
AudioLeadIn: 0
PreviewTime: -1
Countdown: 0
SampleSet: Soft
StackLeniency: 0.4
Mode: 0
LetterboxInBreaks: 1

[Editor]
Bookmarks: 20230,62250,81430,91030,107830,110230,129430,149830,200230,219430,242255,261450,298932,318132,356532,375732,394932,414132,438132
DistanceSpacing: 1
BeatDivisor: 4
GridSize: 8

[Metadata]
Title:My Spirit Will Go On
Artist:DragonForce
Creator:winber1
Version:Legend
Source:
Tags:DragonForce Discography Sonic Firestorm

[Difficulty]
HPDrainRate:5
CircleSize:5
OverallDifficulty:5
ApproachRate:8
SliderMultiplier:1.4
SliderTickRate:2

[Events]
//Background and Video events
0,0,"Ice_plasma_digital_wallpaper.jpg"
//Break Periods
2,129655,147905
2,241255,251105
//Storyboard Layer 0 (Background)
//Storyboard Layer 1 (Fail)
//Storyboard Layer 2 (Pass)
//Storyboard Layer 3 (Foreground)
//Storyboard Sound Samples
//Background Colour Transformations
3,100,163,162,255

[TimingPoints]
1055,300,4,2,0,5,1,0
1055,-166.666666666667,4,2,0,5,0,0
20245,-83.3333333333333,4,1,1,45,0,0
39605,-83.3333333333333,4,2,0,45,0,0
39755,-83.3333333333333,4,2,0,45,0,0
40655,-83.3333333333333,4,1,1,45,0,0
105455,-83.3333333333333,4,1,1,45,0,1
107855,-83.3333333333333,4,2,0,45,0,0
110255,-83.3333333333333,4,1,1,45,0,1
129455,-83.3333333333333,4,1,1,45,0,0
149780,-83.3333333333333,4,1,1,5,0,0
149855,-83.3333333333333,4,1,1,45,0,0
150980,-83.3333333333333,4,1,1,5,0,0
151055,-83.3333333333333,4,1,1,45,0,0
151130,-83.3333333333333,4,1,1,5,0,0
152255,-83.3333333333333,4,1,1,45,0,0
195455,-83.3333333333333,4,1,1,45,0,1
197855,-83.3333333333333,4,2,0,45,0,0
200255,-83.3333333333333,4,1,1,45,0,1
219455,-83.3333333333333,4,1,1,45,0,0
242255,-83.3333333333333,4,2,1,35,0,0
251855,-83.3333333333333,4,1,1,35,0,0
261450,352.941176470588,4,1,1,45,1,0
261455,-100,4,1,1,45,0,0
261626,-83.3333333333333,4,1,1,45,0,0
284038,-83.3333333333333,4,1,1,45,0,1
295332,600,6,1,1,45,1,0
295347,-100,6,1,1,45,0,0
298923,-83.3333333333333,6,1,1,45,0,0
298932,300,4,1,1,45,1,0
298932,-83.3333333333333,4,1,1,45,0,1
318132,-83.3333333333333,4,1,1,45,0,0
334632,-50,4,1,1,45,0,0
334932,-83.3333333333333,4,1,1,45,0,0
356532,-83.3333333333333,4,1,1,45,0,1
375732,-83.3333333333333,4,1,1,45,0,0
394932,-83.3333333333333,4,1,1,45,0,0
409332,-83.3333333333333,4,1,1,45,0,1
411732,-83.3333333333333,4,1,1,45,0,0
414132,-83.3333333333333,4,1,1,45,0,1
432057,-83.3333333333333,4,1,1,0,0,0
432132,-83.3333333333333,4,1,1,45,0,0
457332,-83.3333333333333,4,1,1,45,0,1
460932,-83.3333333333333,4,1,1,45,0,0
470082,-83.3333333333333,4,1,1,45,0,1
470307,-83.3333333333333,4,1,1,45,0,0

[Colours]
Combo1 : 249,233,176
Combo2 : 52,108,203
Combo3 : 51,115,105
Combo4 : 137,51,145

[HitObjects]
416,256,20255,5,4
368,328,20405,2,0,B|280:344,1,84.0000020027161,2|8
208,312,20705,1,0
136,352,20855,2,0,B|36:328|56:208,1,168.000004005432,2|10
104,160,21305,1,0
40,64,21455,6,0,B|80:56|136:24,1,84.0000020027161,0|2
192,88,21755,2,0,B|235:91|288:104,1,84.0000020027161,0|0
336,40,22055,2,0,B|440:32|456:136,1,168.000004005432,10|2
424,208,22505,1,0
280,144,22655,6,0,B|248:176|208:224,1,84.0000020027161,0|2
120,232,22955,2,0,B|160:320,1,84.0000020027161,8|0
216,368,23255,1,2
280,312,23405,1,0
360,336,23555,1,10
360,336,23705,1,0
504,288,23855,5,0
488,208,24005,1,2
408,192,24155,2,0,B|304:216,1,84.0000020027161,8|0
248,184,24455,1,2
216,104,24605,1,0
232,24,24755,2,0,B|192:16|144:32,1,84.0000020027161,10|0
48,96,25055,6,0,B|16:192|88:248,1,168.000004005432,2|8
16,296,25505,2,0,B|48:320|88:368,1,84.0000020027161,2|0
104,320,25730,2,0,B|124:309|144:312,1,42.0000010013581
224,336,25955,1,2
224,336,26030,1,0
224,336,26105,1,0
376,360,26255,6,0,B|367:317|421:238|405:194,1,168.000004005432,2|8
480,160,26705,2,0,B|448:136|408:88,1,84.0000020027161,2|0
408,64,26930,2,0,B|387:74|368:72,1,42.0000010013581
304,120,27155,2,0,B|328:168,2,42.0000010013581,10|0|0
192,40,27455,6,0,B|112:72,1,84.0000020027161,0|2
64,144,27755,2,0,B|160:176|136:288,1,168.000004005432,8|2
120,312,28130,2,0,B|176:320,1,42.0000010013581
240,280,28355,1,10
240,280,28430,1,0
240,280,28505,1,0
256,144,28655,6,0,B|336:112,1,84.0000020027161,0|2
408,160,28955,2,0,B|312:192|336:304,1,168.000004005432,8|2
352,328,29330,2,0,B|296:320,1,42.0000010013581
240,280,29555,1,10
240,280,29630,1,0
240,280,29705,1,0
256,192,29855,5,2
200,128,30005,2,0,B|136:40,1,84.0000020027161
64,48,30305,1,2
32,128,30455,1,0
72,200,30605,1,0
24,328,30755,6,0,B|110:268|181:358,1,168.000004005432,10|2
192,264,31205,2,0,B|176:168,1,84.0000020027161
272,216,31505,1,2
272,216,31655,2,0,B|296:112,1,84.0000020027161
280,304,31955,6,0,B|377:351|448:256,1,168.000004005432,10|2
464,192,32405,2,0,B|464:152|448:96,1,84.0000020027161
376,64,32705,1,2
320,128,32855,2,0,B|272:128|224:104,1,84.0000020027161
112,48,33155,6,0,B|24:88|56:192,1,168.000004005432,10|2
88,264,33605,1,0
160,320,33755,2,0,B|200:336|256:344,1,84.0000020027161,0|2
272,264,34055,2,0,B|296:296|328:344,1,84.0000020027161
216,208,34355,6,0,B|320:184|296:72,1,168.000004005432,10|2
400,128,34805,1,0
459,196,34955,1,0
416,274,35105,1,2
416,274,35180,1,0
416,274,35255,1,0
329,258,35405,1,0
320,168,35555,6,0,B|265:88|168:128,1,168.000004005432,10|2
176,232,36005,1,0
87,249,36155,1,0
79,336,36305,1,2
79,336,36380,1,0
79,336,36455,1,0
159,374,36605,1,0
223,312,36755,6,0,B|252:216|352:232,1,168.000004005432,10|2
272,136,37205,1,0
216,64,37355,1,0
128,48,37505,1,2
128,48,37580,1,0
128,48,37655,2,0,B|86:26|40:8,1,84.0000020027161
176,120,37955,6,0,B|96:192|168:272,1,168.000004005432,10|2
64,200,38405,2,0,B|56:160|40:112,1,84.0000020027161
88,272,38705,2,0,B|176:256|233:337,1,168.000004005432,2|0
304,296,39155,1,10
304,296,39305,1,0
264,224,39455,5,6
224,152,39605,5,2
288,88,39755,1,0
304,88,39830,1,0
320,88,39905,1,2
400,120,40055,1,0
392,144,40130,1,0
384,168,40205,1,2
376,192,40280,1,0
368,216,40355,1,0
360,240,40430,1,2
352,264,40505,1,2
344,288,40580,1,0
336,312,40655,1,4
64,96,40955,5,0
464,144,41255,1,0
256,344,41555,1,0
120,272,41855,6,2,B|224:256|264:360,1,168.000004005432,2|8
336,312,42305,2,0,B|448:336|472:208,1,168.000004005432,2|0
456,152,42755,1,10
376,136,42905,1,0
376,136,43055,2,2,B|323:46|215:98,1,168.000004005432,2|8
216,8,43505,2,2,B|256:104|160:176,1,168.000004005432,2|0
104,208,43955,1,8
152,280,44105,1,0
72,312,44255,6,2,B|112:272|192:352|232:312,1,168.000004005432,2|8
200,232,44705,2,0,B|215:193|240:152,1,84.0000020027161,2|0
312,192,45005,1,0
384,136,45155,1,2
416,224,45305,1,0
488,168,45455,6,2,B|392:104|256:248|160:168,1,336.000008010864,2|2
120,168,46130,1,0
88,192,46205,1,0
88,232,46280,1,0
120,256,46355,1,2
160,256,46430,1,0
192,280,46505,1,0
192,320,46580,1,0
168,360,46655,5,0
320,288,46955,1,0
264,224,47105,1,2
280,144,47255,1,0
40,280,47555,2,0,B|80:184|192:232,2,168.000004005432,2|2|8
96,344,48305,1,2
232,128,48605,1,0
208,208,48755,2,0,B|229:248|242:289,1,84.0000020027161,10|0
352,264,49055,5,2
416,208,49205,1,0
352,152,49355,1,0
408,104,49505,2,0,B|312:136|264:40,1,168.000004005432,2|0
344,16,49955,1,10
176,16,50255,5,10
136,40,50330,1,0
120,80,50405,1,0
128,120,50480,1,0
152,144,50555,1,0
192,160,50630,1,0
224,184,50705,1,10
240,224,50780,1,0
224,264,50855,2,0,B|176:280,3,42.0000010013581,0|0|2|0
144,264,51155,2,0,B|104:304,3,42.0000010013581,8|8|10|8
112,336,51455,6,0,B|204:364|264:296,1,168.000004005432,6|8
392,288,51905,2,0,B|288:264|296:152,1,168.000004005432,2|0
264,88,52355,2,0,B|280:48|304:0,1,84.0000020027161,10|0
408,96,52655,2,0,B|392:136|368:184,1,84.0000020027161,10|0
304,224,52955,1,0
352,320,53105,2,2,B|297:244|202:268,1,168.000004005432,2|0
136,320,53555,1,10
56,296,53705,1,0
16,176,53855,6,0,B|16:72|128:55,1,168.000004005432,2|8
104,144,54305,2,0,B|160:224|264:184,1,168.000004005432,2|0
280,104,54755,1,8
336,40,54905,1,0
456,64,55055,6,2,B|543:113|504:208,1,168.000004005432,2|8
440,256,55505,1,2
456,344,55655,5,0
424,320,55730,1,0
384,312,55805,1,0
344,320,55880,1,0
312,336,55955,2,0,B|256:320,3,42.0000010013581,10|0|0|0
232,312,56255,6,2,B|144:288|128:168,1,168.000004005432,2|8
80,120,56705,2,2,B|176:117|206:26,1,168.000004005432,2|0
288,24,57155,1,10
328,96,57305,1,0
440,112,57455,6,0,B|472:192,1,84.0000020027161,2|0
432,264,57755,1,8
352,256,57905,1,2
296,320,58055,2,0,B|228:244|128:304,2,168.000004005432,0|10|2
352,256,58805,1,0
304,184,58955,1,8
168,168,59105,6,0,B|196:69|96:40,1,168.000004005432,2|0
88,128,59555,1,10
168,168,59705,1,0
299,22,59855,5,10
288,61,59930,1,8
300,102,60005,2,0,B|358:137,3,42.0000010013581,8|0|0|0
356,160,60305,5,8
345,199,60380,1,8
309,217,60455,2,0,B|260:193,3,42.0000010013581,8|0|0|0
234,174,60755,5,8
184,176,60830,1,8
152,200,60905,1,10
152,248,60980,1,8
176,280,61055,1,12
176,280,62255,5,2
232,344,62405,2,0,B|272:328|304:304,1,84.0000020027161,0|8
384,336,62705,2,0,B|400:296|416:248,1,84.0000020027161,2|0
472,200,63005,1,0
440,120,63155,1,10
360,128,63305,1,0
272,40,63455,5,2
192,56,63605,2,0,B|127:147|220:218,1,168.000004005432,2|0
288,224,64055,2,2,B|334:235|377:229,1,84.0000020027161,2|0
448,192,64355,1,10
504,256,64505,1,0
472,368,64655,6,0,B|400:296|312:360,1,168.000004005432,0|8
240,328,65105,1,2
160,312,65255,2,0,B|64:264|120:160,2,168.000004005432,0|8|2
216,248,66005,1,2
296,264,66155,1,8
376,232,66305,2,0,B|392:192|400:136,1,84.0000020027161,2|0
376,72,66605,1,0
312,24,66755,1,10
232,48,66905,1,0
144,128,67055,6,0,B|114:93|91:51,2,84.0000020027161,2|0|8
224,160,67505,2,0,B|280:76|376:120,1,168.000004005432,2|0
440,168,67955,1,10
432,248,68105,1,0
256,264,68255,6,0,B|234:300|184:352,2,84.0000020027161,2|0|8
328,232,68705,2,0,B|344:128|232:112,1,168.000004005432,2|0
160,136,69155,1,8
160,136,69305,1,0
72,232,69455,5,10
112,248,69530,1,8
152,240,69605,1,8
176,208,69680,1,0
176,168,69755,2,0,B|224:136,3,42.0000010013581,8|0|2|0
224,104,70055,5,8
200,64,70130,1,8
208,24,70205,1,8
248,0,70280,1,0
288,8,70355,1,10
312,48,70430,1,0
312,88,70505,1,0
336,120,70580,1,0
376,112,70655,6,0,B|432:104,5,42.0000010013581,10|8|8|0|0|0
424,144,71105,2,0,B|464:184,5,42.0000010013581,10|8|8|0|0|0
472,208,71555,2,8,B|456:280,3,42.0000010013581,10|8|10|8
424,256,71855,6,0,B|328:296,1,84.0000020027161,4|0
272,240,72155,1,8
272,240,72305,2,2,B|212:311|112:280,1,168.000004005432,2|2
88,168,72755,2,0,B|148:97|248:128,1,168.000004005432,8|2
320,152,73205,1,0
368,88,73355,1,8
320,16,73505,1,2
240,48,73655,1,0
240,48,73805,1,0
160,16,73955,2,0,B|80:56,1,84.0000020027161,10|0
32,168,74255,5,2
112,200,74405,1,2
64,272,74555,1,8
120,336,74705,2,2,B|152:312|256:360|288:336,1,168.000004005432
368,312,75155,2,0,B|388:274|400:216,1,84.0000020027161,8|0
344,160,75455,5,2
267,117,75605,1,0
200,176,75755,1,8
240,256,75905,1,2
328,248,76055,2,0,B|408:280,1,84.0000020027161,0|0
488,256,76355,1,0
504,176,76505,1,0
464,48,76655,6,0,B|424:41|370:41,2,84.0000020027161,2|0|8
304,64,77105,6,2,B|248:152|136:104,1,168.000004005432,2|0
16,96,77555,6,0,B|40:184,1,84.0000020027161,10|0
104,320,77855,6,0,B|112:224,1,84.0000020027161,2|0
144,160,78155,1,8
237,257,78305,6,2,B|326:310|405:217,1,168.000004005432,2|0
448,120,78755,5,10
448,120,78905,1,0
304,48,79055,5,2
264,32,79130,1,0
224,40,79205,1,0
200,80,79280,1,0
216,120,79355,1,8
256,136,79430,1,0
296,128,79505,1,2
336,144,79580,1,0
360,176,79655,2,0,B|368:224,3,42.0000010013581,0|0|8|0
400,248,79955,2,0,B|384:304,3,42.0000010013581,2|0|0|0
368,328,80255,5,10
320,336,80330,1,0
280,320,80405,1,8
264,280,80480,1,0
280,240,80555,1,8
264,200,80630,1,8
224,184,80705,1,10
184,200,80780,1,0
168,240,80855,1,8
128,256,80930,1,8
88,240,81005,1,8
64,208,81080,1,0
72,168,81155,1,10
104,136,81230,1,8
120,96,81305,1,10
112,56,81380,1,0
80,32,81455,6,2,B|60:126|143:176,1,168.000004005432,0|8
224,184,81905,1,0
304,192,82055,2,2,B|394:225|393:322,1,168.000004005432,2|8
416,240,82505,1,0
456,168,82655,1,2
376,136,82805,2,0,B|336:112|288:104,1,84.0000020027161,2|8
240,48,83105,2,2,B|200:132|104:138,2,168.000004005432,2|8|8
272,128,83855,6,0,B|272:224,1,84.0000020027161,2|0
344,168,84155,2,0,B|381:256,1,84.0000020027161,8|0
392,112,84455,2,0,B|452:186,1,84.0000020027161,2|0
456,264,84755,1,8
296,328,84905,6,0,B|240:256|144:280,1,168.000004005432,2|0
80,224,85355,2,0,B|72:176|80:112,1,84.0000020027161,10|0
152,104,85655,2,0,B|248:120,1,84.0000020027161,2|0
304,64,85955,1,10
376,112,86105,1,0
464,224,86255,5,0
408,280,86405,2,0,B|328:304,1,84.0000020027161,0|10
256,264,86705,1,0
200,328,86855,2,0,B|108:295|120:192,1,168.000004005432,0|10
152,120,87305,1,0
192,48,87455,6,0,B|272:96,1,84.0000020027161,2|0
240,176,87755,1,8
304,232,87905,1,2
376,184,88055,1,0
359,100,88205,1,0
416,40,88355,2,0,B|464:112,1,84.0000020027161,10|0
432,272,88655,6,0,B|352:304,1,84.0000020027161,2|0
288,352,88955,1,8
288,352,89105,2,0,B|264:264|168:240,1,168.000004005432,2|0
96,280,89555,2,0,B|168:224|144:128,1,168.000004005432,8|2
280,40,90155,6,0,B|240:72,3,42.0000010013581,14|0|0|0
232,104,90455,1,0
232,144,90530,1,0
264,176,90605,1,0
304,176,90680,1,0
328,144,90755,1,10
328,104,90830,1,8
352,72,90905,1,8
392,64,90980,1,8
432,80,91055,6,2,B|376:160|440:256,1,168.000004005432,6|8
424,320,91505,1,0
336,320,91655,2,2,B|256:264|160:328,1,168.000004005432,2|8
88,320,92105,1,0
85,237,92255,2,0,B|141:157|72:64,1,168.000004005432,2|8
176,80,92705,2,0,B|208:176,1,84.0000020027161,2|0
208,240,93005,2,0,B|168:344,1,84.0000020027161,0|10
178,318,93305,1,0
320,280,93455,6,0,B|354:266|354:266|424:305|484:243,1,168.000004005432,2|8
408,200,93905,2,0,B|408:368,2,168.000004005432,2|8|8
496,120,94655,2,0,B|463:133|463:133|392:95|332:157,1,168.000004005432,6|0
264,208,95105,2,0,B|231:194|231:194|160:233|100:171,2,168.000004005432,10|8|0
304,120,95855,6,2,B|280:160|328:248|304:288,1,168.000004005432,6|8
306,285,96305,1,0
336,368,96455,2,2,B|280:376|256:352|256:352|232:376|176:368,1,168.000004005432,2|8
206,285,96905,1,0
206,285,97055,2,2,B|182:245|230:157|206:117,1,168.000004005432,2|8
136,72,97505,2,0,B|88:160,1,84.0000020027161,2|0
176,192,97805,2,0,B|240:120,1,84.0000020027161,0|10
232,129,98105,1,0
304,80,98255,5,2
344,72,98330,1,0
384,80,98405,2,0,B|432:120,3,42.0000010013581,8|0|0|0
440,144,98705,5,10
440,184,98780,1,0
416,216,98855,2,0,B|376:256,3,42.0000010013581,8|0|0|0
360,280,99155,5,10
320,296,99230,1,0
280,296,99305,1,0
240,280,99380,1,0
200,264,99455,1,10
160,264,99530,1,0
120,280,99605,2,0,B|64:296,3,42.0000010013581,0|0|8|0
40,272,99905,5,2
24,232,99980,1,0
40,192,100055,2,0,B|72:152,3,42.0000010013581,0|0|0|0
104,144,100355,5,10
144,152,100430,1,8
184,168,100505,1,10
216,192,100580,1,8
256,192,100655,5,4
160,56,100955,1,8
160,56,101105,1,0
160,56,101255,1,2
352,288,101555,1,8
416,224,101705,1,0
440,312,101855,1,2
256,112,102155,1,8
256,112,102305,1,2
256,288,102605,1,8
40,224,102905,1,0
96,160,103055,6,0,B|112:64,2,84.0000020027161,10|0|8
152,224,103505,2,0,B|192:200|280:248|320:224,2,168.000004005432,2|8|8
200,296,104255,2,0,B|184:392,2,84.0000020027161,6|0|8
280,328,104705,2,0,B|327:250|296:160,1,168.000004005432,2|0
384,160,105155,2,0,B|416:240,1,84.0000020027161,8|0
360,304,105455,6,0,B|400:336,4,42.0000010013581,2|0|0|0|8
384,192,105905,2,0,B|432:192,4,42.0000010013581,2|0|0|0|0
360,80,106355,2,0,B|400:48,2,42.0000010013581,10|0|0
152,80,106655,6,0,B|112:48,4,42.0000010013581,2|0|0|0|8
128,192,107105,2,0,B|80:192,4,42.0000010013581,2|0|0|0|0
152,304,107555,2,0,B|112:336,2,42.0000010013581,10|0|0
256,320,107855,5,2
256,256,108305,1,0
256,192,108755,1,2
256,192,109055,1,2
256,128,109505,1,0
256,64,109955,1,2
256,64,110255,5,4
432,104,110855,2,2,B|336:128|344:240,1,168.000004005432,2|0
112,272,111455,2,0,B|144:296|248:248|280:272,1,168.000004005432,2|8
300,354,111905,2,2,B|401:340|399:196|297:181,1,252.000006008148,2|10
72,144,112655,6,0,B|104:56|208:64,1,168.000004005432,2|0
232,144,113105,2,0,B|325:152|361:54,1,168.000004005432,2|0
424,112,113555,2,0,B|392:192,1,84.0000020027161,2|0
416,272,113855,1,2
200,200,114155,6,2,B|133:112|256:-8|382:112|312:200,1,336.000008010864,2|8
256,64,115055,5,4
136,184,115655,2,2,B|159:280|57:325,1,168.000004005432,2|0
64,152,116255,2,0,B|96:176|200:128|232:152,1,168.000004005432,2|8
296,96,116705,2,2,B|364:16|486:92|445:189,1,252.000006008148,2|8
384,240,117305,1,0
360,320,117455,6,0,B|288:264|192:304,1,168.000004005432,2|0
120,312,117905,2,0,B|87:280|156:200|120:152,1,168.000004005432,2|0
64,88,118355,2,0,B|144:48,1,84.0000020027161,2|0
139,50,118655,1,2
312,200,118955,6,2,B|379:112|256:-8|130:112|200:200,1,336.000008010864,2|8
256,152,119855,5,4
72,152,120155,2,0,B|112:232,1,84.0000020027161,10|0
192,192,120455,2,0,B|176:288,1,84.0000020027161,0|0
280,272,120755,2,0,B|216:352,1,84.0000020027161,10|0
464,272,121055,2,0,B|424:192,1,84.0000020027161,2|0
344,232,121355,2,0,B|360:136,1,84.0000020027161,8|2
256,152,121655,2,0,B|320:72,1,84.0000020027161,0|0
224,40,121955,2,0,B|320:0,1,84.0000020027161,10|0
440,40,122255,5,6
48,336,122555,1,8
48,336,122705,1,2
256,192,123155,1,8
120,80,123455,6,2,B|168:96|224:88|256:15|256:15|288:88|344:96|392:80,1,336.000008010864,2|8
256,192,124355,1,8
408,264,124655,6,0,B|456:176,1,84.0000020027161,2|0
368,328,124955,1,8
256,192,125105,6,0,B|256:96,1,84.0000020027161,2|0
256,264,125405,1,8
104,264,125555,6,0,B|56:176,1,84.0000020027161,2|0
144,328,125855,6,0,B|192:336|240:352,1,84.0000020027161,2|0
304,320,126155,1,8
416,184,126305,6,0,B|368:176|320:160,1,84.0000020027161,2|0
256,192,126605,1,0
176,40,126755,6,0,B|152:144,1,84.0000020027161,10|0
256,192,127055,5,4
256,192,127205,12,0,128255
256,112,129155,5,0
256,272,129455,1,4
256,192,148655,12,0,149780
256,192,149855,5,0
256,192,149930,12,0,150980
256,192,151055,5,0
256,192,151130,12,0,152180
256,112,152255,1,4
184,64,152405,1,0
112,112,152555,1,8
144,192,152705,1,0
84,251,152855,2,0,B|188:227|220:339,2,168.000004005432,2|8|2
12,206,153605,1,2
25,125,153755,1,8
192,144,153905,5,2
192,144,154055,1,0
256,200,154205,1,0
336,168,154355,2,0,B|400:232,1,84.0000020027161,10|0
336,80,154655,5,2
336,80,154805,1,0
256,48,154955,2,0,B|216:33|160:32,1,84.0000020027161,8|2
88,48,155255,2,0,B|100:154|-8:168,2,168.000004005432,0|8|2
168,72,156005,1,2
160,152,156155,1,8
96,280,156305,5,2
144,344,156455,2,0,B|232:352,1,84.0000020027161,0|0
312,336,156755,1,10
352,264,156905,1,0
456,192,157055,5,2
456,192,157130,1,0
456,192,157205,1,0
392,136,157355,1,8
304,40,157505,6,0,B|208:88,1,84.0000020027161,2|0
144,56,157805,1,0
176,176,157955,6,0,B|216:184|256:200,1,84.0000020027161,10|0
280,320,158255,5,2
280,320,158330,1,0
280,320,158405,1,0
192,336,158555,1,8
64,280,158705,6,0,B|128:192|40:128,1,168.000004005432,2|0
176,176,159155,6,0,B|160:288,1,84.0000020027161,10|0
272,192,159455,5,10
296,224,159530,1,8
336,240,159605,1,8
376,224,159680,1,0
416,200,159755,2,0,B|464:192,3,42.0000010013581,8|8|10|0
464,152,160055,5,8
472,112,160130,1,0
456,72,160205,1,8
424,48,160280,1,0
384,48,160355,1,10
344,64,160430,1,0
320,104,160505,1,8
328,144,160580,1,0
336,184,160655,6,0,B|352:232,5,42.0000010013581,2|0|8|0|8|0
376,248,161105,2,0,B|344:296,5,42.0000010013581,10|0|8|0|0|0
320,304,161555,5,10
280,312,161630,1,8
240,304,161705,1,10
208,272,161780,1,8
192,232,161855,6,0,B|96:192,1,84.0000020027161,4|0
168,136,162155,1,10
168,136,162305,2,2,B|228:207|328:176,1,168.000004005432,2|0
352,64,162755,2,2,B|292:-7|192:24,1,168.000004005432,10|2
96,104,163205,1,2
80,192,163355,1,8
80,192,163505,2,0,B|112:280,1,84.0000020027161,2|0
192,256,163805,1,0
192,256,163955,2,0,B|272:296,1,84.0000020027161,10|0
392,240,164255,5,2
448,176,164405,1,0
416,96,164555,1,8
336,112,164705,2,0,B|272:184|184:128,1,168.000004005432,2|0
136,200,165155,1,10
216,232,165305,1,0
256,336,165455,6,0,B|192:280|88:296,1,168.000004005432,2|8
64,216,165905,1,2
64,216,166205,1,0
144,184,166355,2,0,B|224:152,1,84.0000020027161,10|0
336,112,166655,5,2
336,112,166730,1,0
336,112,166805,1,0
360,32,166955,1,8
440,56,167105,1,2
440,56,167180,1,0
440,56,167255,1,0
416,136,167405,1,0
456,256,167555,5,10
456,256,167630,1,0
456,256,167705,1,0
328,288,167855,5,2
328,288,167930,1,0
328,288,168005,1,0
255,330,168155,1,8
213,258,168305,1,2
213,258,168380,1,0
213,258,168455,1,0
285,215,168605,1,0
176,152,168755,5,10
176,152,168905,1,0
208,32,169055,5,10
248,32,169130,1,8
288,40,169205,2,0,B|328:80,3,42.0000010013581,8|8|8|0
336,104,169505,5,10
320,144,169580,1,8
288,168,169655,2,0,B|240:176,3,42.0000010013581,8|8|8|0
208,176,169955,5,10
168,176,170030,1,8
128,192,170105,1,8
96,224,170180,1,0
80,264,170255,1,10
88,304,170330,1,0
112,336,170405,1,0
152,352,170480,1,0
192,352,170555,1,0
232,336,170630,1,0
264,304,170705,1,10
288,272,170780,1,0
320,240,170855,1,0
352,216,170930,1,0
392,216,171005,1,0
432,232,171080,1,0
448,272,171155,6,8,B|432:328,3,42.0000010013581,10|8|10|8
400,336,171455,5,0
320,336,171605,1,0
232,224,171755,2,2,B|192:312|96:304,1,168.000004005432,10|0
16,280,172205,1,2
40,200,172355,2,0,B|80:112|176:120,1,168.000004005432,10|2
256,136,172805,1,2
328,96,172955,1,8
448,152,173105,2,0,B|416:240|480:312,2,168.000004005432,2|8|10
480,48,173855,6,0,B|424:120|320:96,1,168.000004005432,6|10
280,160,174305,1,0
280,160,174455,2,2,B|192:112,1,84.0000020027161
136,160,174755,1,8
72,288,174905,6,0,B|128:216|224:240,1,168.000004005432,2|2
280,296,175355,1,8
352,256,175505,1,0
336,176,175655,1,2
400,120,175805,1,2
336,64,175955,1,10
336,64,176105,1,2
200,40,176255,5,4
200,40,176405,2,0,B|120:64,1,84.0000020027161,0|8
72,136,176705,1,0
72,136,176855,2,0,B|164:169|152:272,1,168.000004005432,2|8
224,312,177305,1,0
352,352,177455,6,2,B|432:304,1,84.0000020027161
472,240,177755,1,8
488,160,177905,1,2
440,88,178055,1,0
360,56,178205,1,0
304,112,178355,2,0,B|256:184,1,84.0000020027161,10|0
120,112,178655,6,0,B|128:208|32:264,1,168.000004005432,2|10
56,376,179105,2,2,B|80:288|176:264,1,168.000004005432
248,304,179555,2,0,B|176:248|200:152,1,168.000004005432,10|0
224,120,179930,5,0
264,96,180005,1,0
304,104,180080,1,0
344,120,180155,2,8,B|368:160,3,42.0000010013581,2|0|0|0
408,168,180455,1,0
408,208,180530,1,0
376,232,180605,1,10
336,232,180680,1,0
296,216,180755,1,8
257,196,180830,1,8
216,195,180905,1,10
176,208,180980,1,8
144,224,181055,6,0,B|200:144|136:48,1,168.000004005432,4|8
232,32,181505,1,0
256,112,181655,2,2,B|224:144|296:240|256:272,1,168.000004005432,2|8
280,352,182105,1,0
364,318,182255,2,2,B|308:238|377:145,1,168.000004005432,2|8
432,112,182705,1,2
456,32,182855,1,0
456,32,183005,1,0
344,40,183155,2,0,B|312:120,1,84.0000020027161,10|0
176,176,183455,6,0,B|144:208|144:208|72:216|40:152,1,168.000004005432,2|8
136,104,183905,2,2,B|168:72|168:72|240:64|272:128,2,168.000004005432,2|8|8
176,176,184655,2,2,B|209:189|209:189|280:151|340:213,1,168.000004005432,6|8
384,272,185105,2,2,B|360:184|432:120,2,168.000004005432,10|8|8
336,368,185855,6,0,B|280:376|256:352|256:352|232:376|176:368,1,168.000004005432,0|10
112,320,186305,1,0
88,240,186455,2,2,B|192:104,1,168.000004005432,2|8
256,160,186905,1,0
321,106,187055,2,2,B|424:240,1,168.000004005432,2|8
334,245,187505,2,0,B|257:201|174:245,1,168.000004005432,2|0
144,168,187955,1,8
144,168,188105,1,0
80,80,188255,5,10
112,56,188330,1,8
152,48,188405,2,0,B|200:48,3,42.0000010013581,8|0|0|0
216,88,188705,5,10
256,88,188780,1,8
288,64,188855,2,0,B|352:96,3,42.0000010013581,8|0|0|0
360,104,189155,5,10
384,136,189230,1,8
384,176,189305,1,8
360,208,189380,1,0
320,232,189455,5,10
280,232,189530,1,8
240,216,189605,1,8
200,200,189680,1,0
160,208,189755,1,0
120,224,189830,1,0
96,256,189905,2,0,B|96:304,3,42.0000010013581,10|8|8|0
112,336,190205,5,0
152,344,190280,1,0
192,328,190355,1,10
224,304,190430,1,8
264,288,190505,1,10
304,296,190580,1,8
344,320,190655,5,12
416,160,190955,1,10
416,160,191105,1,0
368,72,191255,2,2,B|320:144|216:128,1,168.000004005432,2|8
128,96,191705,1,0
32,192,191855,6,0,B|128:192|160:288,1,168.000004005432,2|8
264,272,192305,2,2,B|176:280|128:368,2,168.000004005432,2|8|8
296,128,193055,5,2
296,128,193205,1,0
344,200,193355,1,8
448,144,193505,2,2,B|424:184|472:272|448:312,2,168.000004005432,2|8|8
416,64,194255,1,2
416,64,194405,1,0
336,32,194555,1,10
224,64,194705,2,2,B|184:40|96:88|56:64,1,168.000004005432
96,144,195155,2,0,B|64:224,1,84.0000020027161,8|0
168,336,195455,5,10
208,344,195530,1,8
248,328,195605,2,0,B|288:288,3,42.0000010013581,8|0|0|0
240,240,195905,2,0,B|280:200,5,42.0000010013581,10|8|8|0|0|0
296,176,196355,5,10
320,96,196505,1,0
448,40,196655,5,10
448,80,196730,1,8
440,120,196805,2,0,B|408:160,3,42.0000010013581,8|0|0|0
376,216,197105,2,0,B|400:264,5,42.0000010013581,10|8|8|0|0|0
408,296,197555,5,10
328,328,197705,1,0
192,288,197855,5,2
456,168,198305,1,0
64,48,198755,1,2
64,48,199055,1,2
456,168,199505,1,0
96,360,199955,1,2
128,240,200255,5,4
304,224,200855,2,2,B|376:152|480:192,1,168.000004005432,2|8
248,160,201455,2,2,B|176:232|72:192,1,168.000004005432,2|8
48,280,201905,2,2,B|120:176|128:40,1,252.000006008148,2|8
248,160,202655,6,2,B|280:72|384:80,1,168.000004005432,2|8
408,0,203105,2,0,B|400:94|498:130,1,168.000004005432,2|0
464,208,203555,1,10
384,240,203705,1,0
424,312,203855,2,0,B|360:256|264:264,1,168.000004005432,2|8
208,192,204305,2,2,B|128:40,2,168.000004005432,2|10|10
256,64,205055,5,4
440,232,205655,2,2,B|341:243|334:354,1,168.000004005432,2|8
256,192,206255,2,2,B|224:216|120:168|88:192,1,168.000004005432,2|8
64,272,206705,1,2
64,272,207005,1,0
192,328,207155,6,2,B|264:272|360:312,2,168.000004005432,10|0|10
144,256,207905,2,2,B|177:224|108:144|144:96,1,168.000004005432
216,56,208355,1,8
280,104,208505,1,0
376,64,208655,2,0,B|288:112|296:208,1,168.000004005432,2|8
400,264,209105,2,2,B|488:216|480:120,2,168.000004005432,2|10|10
256,288,209855,5,4
112,192,210155,5,10
72,120,210305,1,0
128,56,210455,1,0
200,96,210605,1,0
280,64,210755,2,0,B|376:112,1,84.0000020027161,10|0
464,168,211055,2,0,B|368:160|320:248,1,168.000004005432,2|8
256,160,211505,2,0,B|160:296,1,168.000004005432,2|0
80,280,211955,1,10
48,200,212105,1,0
80,56,212255,6,2,B|158:104|240:56,1,168.000004005432,2|8
288,128,212705,2,2,B|366:80|448:128,1,168.000004005432
448,256,213155,2,0,B|370:304|288:256,1,168.000004005432,8|2
216,216,213605,2,0,B|128:248|96:344,1,168.000004005432,8|10
32,264,214055,1,0
88,200,214205,1,0
80,120,214355,1,2
152,80,214505,1,0
312,48,214655,6,0,B|352:64,5,42.0000010013581,10|8|8|0|8|0
392,80,215105,5,10
424,160,215255,1,0
368,248,215405,5,8
328,224,215480,1,8
288,240,215555,1,10
256,264,215630,1,0
216,280,215705,1,8
176,280,215780,1,0
136,256,215855,2,0,B|112:208,5,42.0000010013581,10|8|8|0|8|0
112,176,216305,5,10
136,96,216455,1,8
240,160,216605,5,8
264,128,216680,1,8
304,112,216755,1,10
344,120,216830,1,0
376,144,216905,1,8
392,184,216980,1,0
384,224,217055,1,4
256,192,217130,12,0,218255
192,264,219155,5,0
192,264,219455,1,4
304,48,219755,5,8
304,48,219905,1,0
240,104,220055,1,2
240,104,220205,1,0
160,88,220355,2,0,B|96:160,1,84.0000020027161,8|0
112,288,220655,5,2
112,288,220805,1,0
192,264,220955,1,8
192,264,221105,1,0
264,312,221255,1,2
328,256,221405,1,0
304,176,221555,1,10
376,72,221705,2,2,B|336:160|216:144,1,168.000004005432
80,88,222155,6,0,B|152:136|136:240,1,168.000004005432,8|2
168,312,222605,1,0
248,304,222755,2,0,B|320:232,1,84.0000020027161,8|0
296,160,223055,1,2
216,136,223205,1,0
224,56,223355,1,8
224,56,223505,1,0
312,48,223655,2,0,B|360:40|408:32,1,84.0000020027161
472,72,223955,1,10
376,184,224105,2,2,B|481:180|496:296,1,168.000004005432
336,328,224555,5,8
336,328,224705,1,0
256,296,224855,2,0,B|160:368,1,84.0000020027161,2|0
104,352,225155,1,8
104,352,225305,1,0
56,208,225455,6,0,B|104:112|216:152,2,168.000004005432,2|8|2
104,272,226205,1,0
104,272,226355,1,10
216,224,226505,2,2,B|264:128|176:48,1,168.000004005432
120,48,226955,5,8
120,48,227105,1,0
152,128,227255,1,2
152,128,227405,1,0
136,216,227555,1,10
232,328,227705,2,2,B|304:256|408:312,1,168.000004005432
432,232,228155,6,0,B|344:216,1,84.0000020027161,10|0
320,136,228455,2,0,B|408:152,2,84.0000020027161,2|0|8
264,72,228905,2,2,B|256:168|158:211,1,168.000004005432
80,112,229355,6,0,B|40:200,1,84.0000020027161,8|0
56,272,229655,1,2
128,312,229805,1,0
200,264,229955,1,8
200,264,230105,1,0
368,344,230255,6,0,B|440:272|392:176,2,168.000004005432,2|8|2
312,280,231005,1,0
312,280,231155,1,8
368,160,231305,2,2,B|328:136|240:184|200:160,1,168.000004005432
136,112,231755,5,10
64,160,231905,1,0
88,240,232055,1,0
168,248,232205,1,0
232,336,232355,1,10
232,336,232505,1,0
368,280,232655,6,0,B|440:208|384:128,2,168.000004005432,2|8|2
288,272,233405,1,2
336,200,233555,1,10
360,64,233705,6,2,B|360:152|256:200,1,168.000004005432
192,152,234155,1,10
192,152,234305,1,0
136,88,234455,2,0,B|32:88|0:192,1,168.000004005432,0|10
32,256,234905,1,0
136,344,235055,6,0,B|248:360|280:248,1,168.000004005432,2|8
232,200,235505,1,0
264,120,235655,1,2
336,80,235805,1,0
416,96,235955,1,10
456,168,236105,2,2,B|400:248|280:208,1,168.000004005432
264,144,236555,5,8
240,64,236705,1,0
160,40,236855,1,2
80,72,237005,1,0
80,72,237155,1,8
64,192,237305,2,2,B|128:256|184:328,1,168.000004005432
256,344,237755,5,8
352,320,237905,1,0
424,256,238055,1,2
464,168,238205,1,0
456,72,238355,1,10
456,72,238505,1,0
256,192,238655,12,4,239855
256,192,241055,5,4
256,192,251855,5,4
256,192,252305,1,0
256,192,252755,1,8
400,32,253055,5,4
72,136,253505,1,0
448,192,253955,1,8
408,312,254255,5,4
272,48,254705,1,0
88,336,255155,1,8
128,192,255455,5,4
472,120,255905,1,0
64,48,256355,1,8
256,192,256655,5,4
256,192,257105,1,0
256,192,257555,1,8
424,336,257855,5,4
48,256,258305,1,0
480,192,258755,1,8
448,32,259055,5,4
56,104,259505,1,0
392,192,259955,1,8
432,312,260255,5,4
112,40,260705,1,0
152,312,261155,1,8
80,152,261450,5,2
184,64,261626,2,2,B|280:40|328:128,1,168.000004005432,2|10
400,160,262155,1,8
360,232,262332,1,0
392,312,262508,2,2,B|348:223|250:242,1,168.000004005432,10|0
256,144,263038,2,2,B|264:248|152:280,1,168.000004005432,2|8
264,352,263567,1,2
296,320,263655,1,0
336,304,263744,1,0
376,312,263832,1,0
408,328,263920,2,0,B|464:336|504:288,1,84.0000020027161,10|0
448,160,264273,5,0
376,88,264449,1,2
296,152,264626,1,0
216,216,264802,1,10
144,144,264979,1,0
216,216,265155,1,0
296,152,265332,1,0
296,152,265420,1,0
296,152,265508,1,10
256,336,265685,5,0
384,288,265861,1,2
256,40,266038,5,8
128,96,266214,1,0
392,96,266391,6,2,B|384:192|472:240,1,168.000004005432,2|0
72,200,267097,5,2
88,160,267185,1,0
120,136,267273,1,8
160,136,267361,1,0
200,152,267449,2,0,B|264:136,3,42.0000010013581,0|0|8|0
304,200,267802,6,0,B|240:216,3,42.0000010013581,2|0|8|0
344,224,268155,1,0
384,232,268244,1,0
424,216,268332,1,8
448,184,268420,1,0
448,144,268508,5,2
432,104,268597,1,0
392,88,268685,1,8
352,88,268773,1,0
312,104,268861,2,0,B|288:56,3,42.0000010013581,0|0|8|0
304,200,269214,6,0,B|328:248,3,42.0000010013581,2|0|8|0
320,280,269567,1,0
296,312,269655,1,0
256,328,269744,1,8
216,328,269832,1,0
184,304,269920,5,6
96,224,270097,2,2,B|136:120|264:160,1,168.000004005432,2|8
136,120,270626,1,0
184,32,270802,1,10
288,48,270979,1,0
352,128,271155,1,8
307,218,271332,1,0
215,260,271508,2,2,B|304:224|376:288,1,168.000004005432,10|8
384,168,272038,1,0
376,168,272126,1,0
368,168,272214,2,0,B|264:168,1,84.0000020027161,10|0
128,272,272744,5,2
160,304,272832,1,0
200,312,272920,1,8
240,304,273008,1,0
272,272,273097,1,0
288,232,273185,1,0
304,192,273273,1,10
328,160,273361,1,0
368,144,273449,1,2
464,184,273626,1,8
376,288,273802,5,0
344,264,273891,1,0
328,224,273979,1,10
320,184,274067,1,0
304,144,274155,1,0
272,120,274244,1,0
232,112,274332,1,10
200,136,274420,1,0
184,176,274508,1,0
184,216,274597,1,0
168,248,274685,1,10
128,264,274773,1,0
88,248,274861,2,0,B|72:192,3,42.0000010013581,2|0|8|0
44,178,275214,6,0,B|108:114|212:138,1,168.000004005432,0|2
224,168,275655,1,0
256,192,275744,1,8
296,192,275832,1,0
328,168,275920,1,0
344,128,276008,1,0
360,88,276097,1,8
392,64,276185,1,0
432,72,276273,2,0,B|472:104|488:144,1,84.0000020027161,2|0
464,176,276538,1,0
432,208,276626,1,0
392,224,276714,1,0
360,248,276802,1,8
336,280,276891,1,0
304,312,276979,6,0,B|240:320,3,42.0000010013581,2|0|8|0
224,336,277332,2,0,B|160:312,3,42.0000010013581,2|0|8|0
152,296,277685,1,2
139,255,277773,1,0
160,224,277861,1,10
200,216,277949,1,0
240,232,278038,1,2
280,232,278126,1,0
312,208,278214,1,10
328,168,278302,1,0
312,128,278391,5,2
160,96,278567,1,0
312,128,278744,1,10
160,96,278920,1,0
72,216,279097,6,0,B|120:224,3,42.0000010013581
152,280,279449,2,0,B|200:264,3,42.0000010013581,10|0|0|0
232,264,279802,5,2
392,312,279979,1,0
232,264,280155,1,10
392,312,280332,1,0
456,208,280508,5,0
456,168,280597,1,0
432,136,280685,1,0
400,120,280773,1,0
360,136,280861,1,10
336,168,280949,1,0
296,184,281038,1,0
256,176,281126,1,0
232,144,281214,5,2
96,256,281391,1,0
232,144,281567,1,10
96,256,281744,1,0
112,144,281920,6,0,B|152:112,1,42.0000010013581
136,160,282097,2,0,B|96:192,1,42.0000010013581
160,176,282273,2,0,B|200:144,1,42.0000010013581,10|0
184,192,282449,2,0,B|144:224,1,42.0000010013581
256,168,282626,6,0,B|256:112,15,42.0000010013581,0|0|0|0|8|0|0|0|0|0|0|0|8|0|0|0
240,208,284038,5,2
256,256,284126,1,0
288,280,284214,1,0
336,288,284302,1,0
376,264,284391,2,0,B|432:232,3,42.0000010013581,0|0|2|0
448,264,284744,5,0
472,232,284832,1,0
472,192,284920,1,0
448,152,285008,1,0
408,144,285097,1,10
368,152,285185,1,0
328,152,285273,1,0
288,136,285361,1,0
264,104,285449,2,0,B|208:80,3,42.0000010013581,2|0|0|0
192,64,285802,2,0,B|120:88,3,42.0000010013581,8|0|0|0
120,104,286155,5,4
256,192,286199,12,4,286861
256,192,286905,12,4,287567
256,192,287611,12,4,288273
256,192,288317,12,4,288979
208,160,289685,5,2
240,184,289773,1,0
280,192,289861,1,0
320,184,289949,1,0
352,160,290038,2,8,B|384:120,3,42.0000010013581,8|0|0|0
392,88,290391,5,2
424,112,290479,1,0
440,152,290567,1,2
432,192,290655,1,0
416,232,290744,2,0,B|384:280,3,42.0000010013581,10|0|0|0
360,296,291097,5,2
320,296,291185,1,0
288,264,291273,1,0
296,224,291361,1,0
288,184,291449,1,8
248,168,291538,1,0
208,184,291626,1,2
200,224,291714,1,0
216,264,291802,2,0,B|380:258|384:112,1,252.000006008148,0|0
288,40,292508,6,0,B|344:40,3,42.0000010013581,2|0|0|0
224,112,292861,2,0,B|168:112,3,42.0000010013581,8|0|0|0
288,184,293214,2,0,B|344:184,3,42.0000010013581,2|0|0|0
224,256,293567,2,0,B|168:256,3,42.0000010013581,8|0|0|0
288,336,293920,5,10
248,328,294008,1,0
208,304,294097,1,0
200,264,294185,1,0
224,232,294273,1,2
264,216,294361,1,0
304,224,294449,1,8
344,224,294538,1,0
376,192,294626,1,2
376,152,294714,1,0
344,128,294802,1,0
304,120,294891,1,0
264,128,294979,1,10
224,120,295067,1,8
200,80,295155,1,8
216,40,295244,1,8
256,16,295332,5,4
496,192,295932,1,4
256,384,296532,1,4
0,192,297132,1,4
256,192,297732,1,4
256,96,298932,5,2
256,96,299082,1,0
320,40,299232,2,0,B|360:56|400:88,1,84.0000020027161,8|0
448,144,299532,1,2
480,224,299682,1,0
432,296,299832,1,8
432,296,299982,1,2
312,296,300132,6,0,B|360:280,5,42.0000010013581,10|8|8|0|8|0
288,328,300582,2,0,B|240:344,5,42.0000010013581,10|8|8|0|0|0
216,344,301032,5,10
184,336,301107,1,8
152,328,301182,1,8
120,320,301257,1,8
88,312,301332,6,0,B|56:216,1,84.0000020027161,2|0
120,144,301632,2,0,B|224:144,1,84.0000020027161,10|0
264,232,301932,2,0,B|240:336,1,84.0000020027161,2|0
392,96,302232,2,0,B|368:176,1,84.0000020027161,10|0
416,272,302532,5,2
384,256,302607,1,0
352,256,302682,1,0
320,272,302757,1,0
296,296,302832,2,0,B|256:312|200:304,1,84.0000020027161,8|0
96,112,303132,5,2
128,128,303207,1,0
160,128,303282,1,0
192,112,303357,1,0
216,88,303432,2,0,B|256:72|312:80,1,84.0000020027161,8|0
376,120,303732,5,2
328,192,303882,1,0
248,160,304032,1,8
200,232,304182,1,0
40,192,304332,5,10
40,232,304407,1,8
48,272,304482,1,8
72,304,304557,1,0
112,320,304632,2,0,B|168:336,3,42.0000010013581,8|0|0|0
192,328,304932,5,2
280,256,305082,1,0
384,296,305232,1,8
456,208,305382,1,0
344,152,305532,5,10
328,120,305607,1,8
304,96,305682,1,8
272,80,305757,1,0
240,72,305832,2,0,B|192:72|144:96,1,84.0000020027161,8|0
232,184,306132,5,2
152,160,306282,1,0
104,232,306432,1,10
64,160,306582,2,2,B|88:248|176:288,1,168.000004005432,10|2
272,272,307032,1,8
272,272,307182,2,2,B|432:192,1,168.000004005432,2|10
272,176,307632,5,8
272,176,307782,2,0,B|224:192|176:224,1,84.0000020027161,0|4
128,72,308532,6,0,B|88:128|96:208,1,126.000003004074,2|0
64,208,308832,2,0,B|120:184|200:224,1,126.000003004074,10|0
216,200,309132,2,0,B|184:336,1,126.000003004074,2|0
187,322,309432,2,0,B|232:344|288:336,1,84.0000020027161,10|0
352,296,309732,5,2
344,200,309882,1,0
264,248,310032,1,8
216,112,310182,2,0,B|120:160|56:80,2,168.000004005432,2|8|8
328,128,310932,5,2
360,96,311007,1,0
400,96,311082,1,0
432,120,311157,1,0
432,160,311232,2,0,B|456:216,3,42.0000010013581,8|0|0|0
408,208,311532,2,0,B|376:264,3,42.0000010013581,2|0|0|0
344,256,311832,5,10
352,296,311907,1,0
328,336,311982,1,0
288,344,312057,1,0
256,320,312132,1,10
256,320,312207,1,8
256,320,312282,1,8
256,320,312357,1,0
256,320,312432,1,0
184,280,312582,1,8
48,272,312732,6,0,B|96:192|64:104,1,168.000004005432,2|0
136,56,313182,1,0
264,80,313332,6,0,B|232:120,3,42.0000010013581,2|0|0|0
208,144,313632,2,0,B|216:200,3,42.0000010013581,8|0|0|0
240,224,313932,1,2
272,248,314007,1,0
312,256,314082,1,0
352,248,314157,1,0
392,232,314232,1,8
416,200,314307,1,0
424,160,314382,1,0
424,120,314457,1,0
408,80,314532,6,0,B|368:64,3,42.0000010013581,2|0|0|0
336,40,314832,2,0,B|288:64,3,42.0000010013581
272,96,315132,1,2
272,136,315207,1,0
248,168,315282,1,0
208,176,315357,1,0
176,152,315432,1,8
168,112,315507,1,0
144,80,315582,1,0
104,80,315657,1,0
72,112,315732,5,0
72,152,315807,1,0
96,184,315882,1,0
216,256,316032,1,0
336,144,316182,5,8
376,128,316257,1,0
416,128,316332,1,0
448,152,316407,1,0
464,192,316482,1,0
456,232,316557,1,0
432,264,316632,1,10
320,328,316782,6,2,B|296:288,1,42.0000010013581
296,248,316932,2,0,B|232:312|128:288,1,168.000004005432,8|0
80,232,317382,1,8
56,88,317532,2,0,B|144:120|208:48|304:88,1,252.000006008148
384,128,318132,5,2
432,200,318282,1,0
384,264,318432,1,8
304,240,318582,2,0,B|191:232|192:368,2,168.000004005432,2|8|10
304,160,319332,1,2
288,120,319407,1,0
256,96,319482,1,0
216,88,319557,1,0
176,96,319632,1,8
80,16,319782,2,0,B|160:72|128:192,2,168.000004005432,2|8|10
56,128,320532,5,2
40,168,320607,1,0
48,208,320682,1,0
72,240,320757,1,0
112,256,320832,2,0,B|160:272|200:304,1,84.0000020027161,8|0
264,328,321132,1,2
328,272,321282,1,0
408,296,321432,1,8
408,296,321582,1,0
456,232,321732,6,0,B|368:200,1,84.0000020027161,2|0
296,96,322032,2,0,B|384:128,1,84.0000020027161,8|0
216,96,322332,2,0,B|293:248|120:328,1,252.000006008148,2|0
40,272,322932,5,2
32,232,323007,1,0
40,192,323082,1,0
64,160,323157,1,0
104,144,323232,1,8
144,152,323307,1,0
176,176,323382,1,0
200,216,323457,1,0
216,256,323532,5,2
248,280,323607,1,0
288,280,323682,1,0
328,256,323757,1,0
344,216,323832,1,8
328,176,323907,1,0
296,144,323982,1,0
256,128,324057,1,0
216,104,324132,6,0,B|240:56,3,42.0000010013581,2|0|0|0
272,56,324432,2,0,B|328:32,3,42.0000010013581,10|0|0|0
336,64,324732,5,2
376,48,324807,1,0
416,48,324882,1,0
456,64,324957,1,0
480,96,325032,1,8
480,136,325107,1,0
456,168,325182,1,0
424,192,325257,1,0
400,224,325332,1,0
392,264,325407,1,0
408,304,325482,5,2
320,264,325632,1,2
224,360,325782,1,2
80,144,326082,5,0
64,184,326157,1,0
72,224,326232,1,8
104,256,326307,1,0
144,256,326382,1,0
176,224,326457,1,0
200,192,326532,1,2
240,176,326607,1,0
280,200,326682,1,0
288,240,326757,1,0
280,280,326832,1,8
304,312,326907,1,0
344,320,326982,1,0
168,128,327732,5,2
192,88,327807,1,0
232,80,327882,1,0
272,96,327957,1,0
288,136,328032,1,10
264,176,328107,1,0
256,216,328182,1,0
264,256,328257,1,0
296,280,328332,2,0,B|344:296,3,42.0000010013581
376,280,328632,2,0,B|432:264,3,42.0000010013581,10|0|0|0
448,240,328932,5,2
456,200,329007,1,0
432,168,329082,1,0
392,168,329157,1,0
360,192,329232,1,8
320,192,329307,1,0
288,176,329382,1,2
272,136,329457,1,0
280,96,329532,1,8
264,56,329607,1,8
224,40,329682,1,10
184,48,329757,1,8
160,80,329832,1,4
112,328,330132,5,2
152,320,330207,1,0
184,296,330282,1,0
184,256,330357,1,0
160,224,330432,1,10
144,184,330507,1,0
152,144,330582,1,0
192,128,330657,1,0
232,128,330732,2,0,B|280:160,3,42.0000010013581
312,160,331032,2,0,B|320:224,3,42.0000010013581,10|0|0|0
312,240,331332,5,2
304,280,331407,1,0
320,320,331482,1,0
360,336,331557,1,0
400,328,331632,1,8
416,288,331707,1,0
408,248,331782,1,2
424,208,331857,1,0
464,200,331932,1,0
496,168,332007,1,8
504,128,332082,1,10
480,96,332157,1,8
440,80,332232,6,0,B|344:88|288:152,1,168.000004005432,12|2
256,168,332607,1,0
224,200,332682,1,0
184,208,332757,1,0
144,184,332832,1,10
136,144,332907,1,0
160,112,332982,1,0
184,72,333057,1,0
168,32,333132,2,0,B|104:32,3,42.0000010013581,2|0|2|0
96,56,333432,2,0,B|72:112,3,42.0000010013581,8|0|2|0
80,136,333732,5,0
112,160,333807,1,0
152,160,333882,1,0
192,144,333957,1,0
216,112,334032,1,10
256,104,334107,1,0
296,112,334182,1,2
320,144,334257,1,0
328,184,334332,1,8
312,224,334407,1,8
272,240,334482,1,10
224,232,334557,1,8
192,216,334632,2,0,B|129:186|163:106|209:110,1,140
56,192,334932,5,2
64,232,335007,1,0
88,264,335082,1,0
128,280,335157,1,0
168,280,335232,2,0,B|224:304,3,42.0000010013581,10|0|0|0
240,320,335532,5,2
280,328,335607,1,0
320,312,335682,1,2
336,272,335757,1,0
320,232,335832,1,8
288,208,335907,1,0
248,192,335982,1,2
216,168,336057,1,0
192,128,336132,5,0
192,88,336207,1,0
216,48,336282,1,0
256,32,336357,1,0
296,40,336432,1,10
328,64,336507,1,0
352,96,336582,1,2
360,136,336657,1,0
376,176,336732,1,0
416,192,336807,1,0
456,184,336882,1,2
480,152,336957,1,0
472,112,337032,1,8
272,112,337332,6,2,B|232:56|136:64,2,126.000003004074,2|8|2
336,264,338082,1,0
256,272,338232,2,0,B|212:284|160:312,1,84.0000020027161,10|0
104,360,338532,2,2,B|32:344|24:264,2,126.000003004074,2|8|2
88,112,339282,6,0,B|128:136|192:152,1,84.0000020027161,0|10
248,152,339582,1,0
336,96,339732,2,2,B|400:96|456:160,2,126.000003004074,2|8|2
184,288,340482,5,0
256,240,340632,1,10
384,312,340782,1,0
256,240,340932,1,10
384,312,341082,2,0,B|440:256|432:144,1,168.000004005432,2|0
400,56,341532,6,0,B|368:88,3,42.0000010013581,10|0|0|0
336,104,341832,1,8
296,112,341907,1,0
256,112,341982,1,2
216,104,342057,1,0
176,80,342132,5,2
48,176,342357,1,8
192,240,342582,2,0,B|272:192|360:232,1,168.000004005432,2|0
432,208,343032,2,0,B|464:248|480:288,1,84.0000020027161,10|0
384,336,343332,5,2
216,352,343557,1,8
288,208,343782,2,0,B|192:176|104:232,1,168.000004005432,2|0
48,176,344232,1,10
48,176,344382,1,0
136,48,344532,6,2,B|208:104|304:80,1,168.000004005432,2|8
368,128,344982,2,2,B|416:219|320:280,1,168.000004005432,2|0
248,264,345432,2,0,B|160:248,1,84.0000020027161,10|0
80,248,345732,5,2
64,208,345807,1,0
64,168,345882,1,2
88,136,345957,1,0
120,112,346032,1,8
160,104,346107,1,0
200,112,346182,1,2
232,136,346257,1,0
256,168,346332,5,2
288,192,346407,1,0
328,200,346482,1,0
368,184,346557,1,0
392,152,346632,1,8
400,104,346707,1,0
376,64,346782,1,2
344,40,346857,1,0
304,56,346932,6,0,B|256:56,3,42.0000010013581,2|0|0|0
288,104,347232,2,0,B|240:104,3,42.0000010013581,10|0|0|0
200,112,347532,1,2
168,136,347607,1,0
152,176,347682,1,0
168,216,347757,1,0
208,240,347832,1,10
248,232,347907,1,0
288,232,347982,1,0
312,264,348057,1,0
312,304,348132,5,2
336,336,348207,1,0
376,344,348282,1,2
416,328,348357,1,0
424,288,348432,1,8
408,248,348507,1,0
424,216,348582,1,2
456,184,348657,1,0
472,144,348732,1,8
464,104,348807,1,8
432,80,348882,1,10
392,88,348957,1,8
368,120,349032,1,10
96,256,349332,5,2
112,216,349407,1,0
112,176,349482,1,0
120,128,349557,1,0
152,96,349632,1,10
192,80,349707,1,0
232,80,349782,1,0
272,96,349857,1,0
304,128,349932,5,2
320,168,350007,1,0
320,208,350082,1,2
304,248,350157,1,0
288,288,350232,1,10
296,328,350307,1,0
328,352,350382,1,0
368,344,350457,1,0
400,320,350532,6,0,B|408:272,3,42.0000010013581,2|0|2|0
392,240,350832,1,8
368,208,350907,1,0
328,192,350982,1,2
288,184,351057,1,0
248,200,351132,5,0
216,232,351207,1,0
184,264,351282,1,2
144,280,351357,1,0
104,272,351432,2,0,B|72:248|72:184,1,84.0000020027161,8|0
136,96,351732,5,2
144,136,351807,1,0
168,176,351882,1,0
200,208,351957,1,0
240,224,352032,1,10
280,232,352107,1,0
320,216,352182,1,0
360,208,352257,1,0
400,224,352332,5,2
416,264,352407,1,0
400,304,352482,1,2
368,328,352557,1,0
328,336,352632,1,8
288,336,352707,1,0
248,328,352782,1,0
208,328,352857,1,0
168,336,352932,6,0,B|112:360,3,42.0000010013581,2|0|2|0
88,344,353232,1,8
56,320,353307,1,0
48,280,353382,1,0
64,240,353457,1,0
104,224,353532,1,10
136,192,353607,1,8
152,152,353682,1,10
144,112,353757,1,8
112,88,353832,1,8
376,112,354132,5,2
336,104,354207,1,0
312,72,354282,1,0
288,40,354357,1,0
248,24,354432,1,2
208,40,354507,1,0
192,80,354582,1,0
216,112,354657,1,0
248,144,354732,5,2
264,184,354807,1,0
240,224,354882,1,2
200,224,354957,1,0
176,184,355032,1,10
136,168,355107,1,0
96,192,355182,1,0
88,232,355257,1,0
104,272,355332,6,0,B|144:288,3,42.0000010013581,2|0|2|0
176,312,355632,1,8
200,344,355707,1,0
240,360,355782,1,2
280,344,355857,1,0
304,304,355932,1,8
296,264,356007,1,8
320,232,356082,1,10
360,216,356157,1,8
400,224,356232,1,8
432,344,356832,5,0
104,368,357132,1,10
80,40,357432,1,0
408,16,357732,2,2,B|376:96|264:112,1,168.000004005432,2|8
200,96,358182,1,2
240,320,358482,1,0
240,320,358632,1,10
112,224,358932,5,2
128,184,359007,1,2
160,160,359082,1,2
200,152,359157,1,0
232,176,359232,1,10
256,208,359307,1,0
280,240,359382,1,0
320,256,359457,1,0
360,240,359532,2,0,B|392:208|416:168,1,84.0000020027161,2|0
368,104,359832,2,0,B|336:136|312:176,1,84.0000020027161,10|0
296,64,360132,6,0,B|256:48,3,42.0000010013581,2|0|0|0
216,56,360432,2,0,B|176:40,3,42.0000010013581,10|0|0|0
136,40,360732,2,0,B|88:64|56:96,1,84.0000020027161,2|2
120,152,361032,1,8
72,216,361182,1,2
160,344,361332,5,2
160,344,361482,2,2,B|208:272|304:264,1,168.000004005432,10|0
384,272,361932,1,10
384,272,362082,1,0
456,232,362232,2,0,B|474:193|496:136,1,84.0000020027161,2|0
392,88,362532,6,2,B|384:184|280:216,1,168.000004005432,2|8
208,144,362982,2,2,B|216:48|320:16,2,168.000004005432,2|8|10
128,168,363732,5,10
136,208,363807,1,0
160,240,363882,2,0,B|200:264,3,42.0000010013581
232,280,364182,5,10
272,280,364257,1,0
312,264,364332,2,0,B|368:272,3,42.0000010013581
392,280,364632,5,10
424,256,364707,1,8
424,216,364782,1,8
392,184,364857,1,0
352,184,364932,1,10
312,192,365007,1,0
272,200,365082,1,0
232,184,365157,1,0
208,152,365232,1,2
224,112,365307,1,0
256,88,365382,1,8
264,48,365457,1,0
232,24,365532,5,2
200,48,365607,1,0
168,72,365682,1,10
128,80,365757,1,0
88,64,365832,5,10
96,104,365907,1,8
96,144,365982,1,10
88,184,366057,1,8
64,224,366132,6,0,B|96:272,3,42.0000010013581,2|2|2|0
128,272,366432,1,10
272,336,366582,1,0
136,272,366732,5,8
280,336,366882,1,0
368,304,367032,2,0,B|400:272|432:232,1,84.0000020027161,2|0
432,112,367332,6,0,B|392:128,3,42.0000010013581,2|2|2|0
352,136,367632,1,2
208,96,367782,1,0
344,136,367932,5,0
200,96,368082,1,0
112,128,368232,2,0,B|152:208,1,84.0000020027161,2|0
128,280,368532,5,2
272,344,368682,1,0
128,280,368832,2,2,B|59:213|112:128,1,168.000004005432,2|0
232,208,369282,1,0
336,232,369432,2,2,B|432:232|472:152,1,168.000004005432,2|0
496,128,369807,2,0,B|448:112,1,42.0000010013581
368,56,370032,5,2
328,48,370107,1,0
288,56,370182,1,0
256,80,370257,1,0
240,120,370332,2,0,B|176:120,3,42.0000010013581,2|0|0|0
168,144,370632,1,2
160,184,370707,1,0
184,216,370782,1,0
224,232,370857,1,0
224,272,370932,5,2
264,280,371007,1,0
304,280,371082,1,0
344,264,371157,1,0
376,240,371232,1,0
400,208,371307,1,0
416,168,371382,1,2
416,128,371457,1,0
440,96,371532,5,0
424,56,371607,1,0
384,40,371682,1,0
344,56,371757,1,0
336,96,371832,1,2
328,136,371907,1,0
296,160,371982,1,2
256,152,372057,1,0
232,120,372132,5,2
120,208,372282,2,0,B|145:246|152:304,2,84.0000020027161,0|0|2
64,144,372732,2,0,B|94:52|201:59,1,168.000004005432,0|2
280,72,373182,1,0
224,208,373332,5,2
240,248,373407,1,0
280,264,373482,1,0
320,248,373557,1,0
336,208,373632,1,2
376,192,373707,1,0
416,208,373782,5,0
448,184,373857,1,0
456,144,373932,1,2
432,112,374007,1,0
392,104,374082,1,2
352,112,374157,1,0
312,128,374232,5,2
272,136,374307,1,0
232,120,374382,1,2
192,112,374457,1,0
160,136,374532,6,0,B|152:192,3,42.0000010013581,2|0|0|0
176,208,374832,1,0
216,224,374907,1,0
256,208,374982,1,2
288,184,375057,1,0
328,176,375132,5,0
296,152,375207,1,0
280,112,375282,1,0
288,72,375357,1,0
304,32,375432,1,6
448,320,375732,6,0,B|400:256|256:376|208:320,2,252.000006008148,0|0|8
344,248,376932,5,2
32,184,377382,1,10
400,64,377832,2,8,B|448:48,3,42.0000010013581,10|8|8|8
472,64,378132,5,2
32,184,378582,1,10
440,232,379032,1,10
336,336,379332,5,2
272,280,379482,1,0
192,312,379632,1,8
64,280,379782,2,0,B|160:280|200:168,1,168.000004005432,2|0
136,120,380232,2,0,B|136:72|152:32,1,84.0000020027161,10|0
224,72,380532,5,2
224,72,380682,1,0
256,152,380832,1,8
360,48,380982,2,0,B|458:64|456:176,1,168.000004005432,2|0
488,240,381432,2,0,B|480:288|480:328,1,84.0000020027161,10|0
368,248,381732,5,2
304,304,381882,1,0
240,248,382032,1,8
160,320,382182,6,0,B|176:224|272:184,1,168.000004005432,2|0
304,120,382632,2,0,B|288:80|248:40,1,84.0000020027161,10|0
176,40,382932,5,4
336,336,383532,1,4
440,240,384132,5,2
440,200,384207,1,0
432,160,384282,1,0
416,120,384357,1,0
384,96,384432,1,0
344,80,384507,1,0
304,96,384582,1,2
272,128,384657,1,0
256,168,384732,1,0
240,208,384807,1,0
208,240,384882,1,0
168,256,384957,1,0
128,240,385032,1,2
96,208,385107,1,0
80,168,385182,1,0
72,128,385257,1,0
72,88,385332,5,2
480,144,385632,1,8
480,144,385782,2,0,B|416:176,5,42.0000010013581,2|0|0|0|0|0
408,184,386232,5,10
384,216,386307,1,0
368,256,386382,1,0
352,296,386457,1,0
320,320,386532,5,2
280,328,386607,1,0
240,320,386682,2,0,B|208:288,3,42.0000010013581,0|0|8|0
200,248,386982,5,2
176,216,387057,1,0
136,208,387132,2,0,B|96:200,3,42.0000010013581
56,176,387432,5,10
40,136,387507,1,0
48,96,387582,1,0
72,64,387657,1,0
112,40,387732,5,2
152,40,387807,1,0
192,56,387882,2,0,B|232:88,3,42.0000010013581,0|0|8|0
232,120,388182,5,2
232,160,388257,1,0
216,200,388332,2,0,B|184:232,3,42.0000010013581
152,256,388632,5,10
136,296,388707,1,0
144,336,388782,1,0
176,360,388857,1,0
216,368,388932,5,2
256,352,389007,1,0
288,328,389082,1,0
296,288,389157,1,0
304,248,389232,1,8
336,216,389307,1,0
376,200,389382,5,2
416,208,389457,1,0
448,232,389532,1,0
448,272,389607,1,0
432,312,389682,1,0
392,328,389757,1,0
352,320,389832,2,0,B|304:296,3,42.0000010013581,10|0|0|0
232,304,390132,6,0,B|320:240|248:128,1,168.000004005432,2|8
312,88,390582,2,0,B|248:0|136:72,1,168.000004005432,2|0
104,112,391032,2,0,B|131:146|144:200,1,84.0000020027161,10|0
48,272,391332,6,0,B|104:200|208:216,1,168.000004005432,2|8
264,272,391782,1,2
344,296,391932,1,0
424,264,392082,1,0
472,192,392232,2,0,B|448:160|416:112,1,84.0000020027161,10|0
480,32,392532,6,0,B|440:112|328:96,1,168.000004005432,2|8
296,168,392982,1,0
416,192,393132,6,0,B|310:120|224:280|96:192,1,336.000008010864,2|0
80,96,393882,5,8
112,72,393957,1,8
144,48,394032,1,8
216,144,394182,1,8
256,136,394257,1,8
296,128,394332,1,8
328,32,394482,1,0
424,56,394632,1,8
448,88,394707,1,8
464,128,394782,1,8
456,168,394857,1,8
432,208,394932,6,0,B|338:214|296:128,1,168.000004005432,0|8
254,55,395382,1,0
204,124,395532,2,0,B|308:260,1,168.000004005432,2|8
258,329,395982,1,0
216,256,396132,2,2,B|176:175|80:176,1,168.000004005432,2|8
40,104,396582,1,2
120,88,396732,1,0
168,24,396882,1,0
248,32,397032,2,0,B|257:75|280:112,1,84.0000020027161,10|0
368,256,397332,6,0,B|416:176|512:176,1,168.000004005432,2|8
400,128,397782,2,0,B|352:144|352:144|312:200|224:192,1,168.000004005432,10|8
80,120,398382,1,0
80,120,398532,2,0,B|93:153|93:153|55:224|117:284,1,168.000004005432,14|8
160,208,398982,2,2,B|259:227|312:136,2,168.000004005432,2|8|10
144,104,399732,6,0,B|176:200|80:256,1,168.000004005432,4|8
176,232,400182,1,0
176,312,400332,2,0,B|256:355|336:312,1,168.000004005432,2|8
336,232,400782,1,0
420,248,400932,2,0,B|340:199|368:104,1,168.000004005432,2|10
333,27,401382,2,2,B|256:71|173:27,2,168.000004005432,2|8|10
328,144,402132,5,10
288,152,402207,1,8
256,176,402282,2,0,B|208:184,3,42.0000010013581,8|0|0|0
176,200,402582,5,10
136,192,402657,1,8
104,160,402732,2,0,B|40:192,3,42.0000010013581,8|0|0|0
40,208,403032,5,10
32,248,403107,1,8
48,288,403182,1,8
88,304,403257,1,0
128,304,403332,5,10
160,280,403407,1,8
176,240,403482,1,8
176,200,403557,1,0
184,160,403632,1,0
200,120,403707,1,0
224,88,403782,2,0,B|272:80,3,42.0000010013581,10|8|8|0
304,104,404082,5,0
312,144,404157,1,0
296,184,404232,1,10
296,224,404307,1,8
312,264,404382,1,8
352,280,404457,1,8
392,272,404532,5,12
440,64,404832,1,10
472,144,404982,1,0
392,128,405132,2,0,B|340:54|240:72,1,168.000004005432,2|8
192,136,405582,1,0
64,120,405732,6,0,B|160:120|192:216,1,168.000004005432,2|8
272,216,406182,2,2,B|184:224|136:312,2,168.000004005432,2|8|10
456,336,406932,5,2
480,256,407082,1,0
408,208,407232,1,8
440,128,407382,2,0,B|472:224|368:304,2,168.000004005432,2|8|10
368,80,408132,1,2
304,128,408282,1,0
328,208,408432,1,8
272,272,408582,2,2,B|232:248|144:296|104:272,1,168.000004005432
64,200,409032,1,10
64,200,409182,1,0
160,64,409332,5,10
200,48,409407,1,0
240,64,409482,2,0,B|280:104,3,42.0000010013581,0|0|8|0
240,160,409782,2,0,B|280:200,5,42.0000010013581,10|0|0|0|8|0
264,232,410232,5,10
320,312,410382,1,8
440,216,410532,5,10
456,176,410607,1,0
448,136,410682,2,0,B|416:96,3,42.0000010013581,0|0|8|0
344,96,410982,2,0,B|312:56,5,42.0000010013581,10|0|0|0|8|0
280,56,411432,5,10
192,104,411582,1,8
56,56,411732,5,8
96,144,411882,1,8
96,144,411957,1,8
96,144,412032,1,8
56,280,412182,1,8
56,280,412257,1,8
56,280,412332,2,8,B|88:312|144:320,1,84.0000020027161
184,256,412632,1,8
264,240,412782,1,8
408,328,412932,5,0
432,296,413007,1,0
440,256,413082,2,0,B|432:208,3,42.0000010013581
384,152,413382,5,0
344,160,413457,1,0
304,144,413532,2,0,B|264:120,3,42.0000010013581
200,80,413832,5,0
168,104,413907,1,0
144,144,413982,1,0
144,184,414057,1,0
160,224,414132,5,0
432,344,414732,1,2
40,224,415032,1,8
480,176,415332,1,2
168,32,415632,1,8
232,80,415782,2,0,B|264:104|368:56|400:80,1,168.000004005432,2|0
400,160,416232,1,10
400,160,416382,1,0
352,280,416532,6,2,B|320:192|216:200,1,168.000004005432,2|8
256,120,416982,2,2,B|176:170|206:270,1,168.000004005432,2|0
144,320,417432,1,8
80,264,417582,1,2
104,184,417732,2,0,B|160:96|91:17,1,168.000004005432,2|8
184,32,418182,5,2
328,352,418482,1,8
256,304,418632,2,0,B|232:264,3,42.0000010013581,10|8|8|8
200,216,418932,5,4
64,56,419532,1,2
472,80,419832,1,8
112,320,420132,1,2
248,96,420432,1,8
336,128,420582,2,0,B|400:200|344:288,1,168.000004005432,2|0
248,344,421032,6,0,B|320:288|416:328,2,168.000004005432,10|0|10
192,280,421782,2,0,B|225:248|156:168|192:120,1,168.000004005432,2|2
264,72,422232,1,10
320,136,422382,1,0
352,56,422532,2,0,B|264:104|272:200,1,168.000004005432,2|8
368,256,422982,2,2,B|456:208|448:112,1,168.000004005432
328,208,423432,2,0,B|280:264,3,42.0000010013581,10|8|8|8
256,288,423732,5,4
48,128,424032,5,10
112,72,424182,1,0
184,112,424332,1,0
256,152,424482,1,0
312,96,424632,2,0,B|408:144,1,84.0000020027161,10|0
464,168,424932,2,0,B|368:160|320:248,1,168.000004005432,2|8
304,320,425382,1,2
184,112,425682,1,0
208,192,425832,1,10
184,112,425982,1,0
80,56,426132,6,0,B|158:104|240:56,1,168.000004005432,2|8
328,80,426582,2,0,B|414:108|430:202,1,168.000004005432,2|0
496,256,427032,2,2,B|418:208|336:256,1,168.000004005432,10|2
264,304,427482,2,0,B|177:340|88:292,1,168.000004005432,8|10
32,248,427932,1,0
72,176,428082,1,0
152,208,428232,1,10
232,176,428382,1,0
352,256,428532,6,0,B|400:224,5,42.0000010013581,10|8|8|0|8|0
416,200,428982,5,10
432,120,429132,1,0
312,48,429282,5,0
288,80,429357,1,0
256,96,429432,1,10
216,104,429507,1,8
176,120,429582,1,8
144,152,429657,1,0
136,192,429732,2,0,B|160:240,5,42.0000010013581,10|8|8|0|8|0
152,272,430182,5,10
232,328,430332,1,0
400,312,430482,5,8
408,272,430557,1,0
392,232,430632,1,10
352,208,430707,1,8
312,192,430782,1,8
288,160,430857,1,8
288,120,430932,1,12
256,192,431082,12,0,432057
168,88,432132,5,10
136,112,432207,1,8
112,152,432282,1,8
112,192,432357,1,0
128,232,432432,1,0
160,256,432507,1,0
200,264,432582,1,10
240,256,432657,1,8
272,232,432732,2,0,B|312:240,3,42.0000010013581,8|0|0|0
352,264,433032,2,0,B|408:248,3,42.0000010013581,10|8|8|0
432,232,433332,5,10
440,192,433407,1,8
432,152,433482,2,0,B|400:120,3,42.0000010013581,8|0|0|0
344,80,433782,5,10
328,120,433857,1,8
312,160,433932,2,0,B|272:192,3,42.0000010013581,8|0|0|0
240,200,434232,5,10
96,136,434382,1,0
64,216,434532,5,10
56,256,434607,1,8
80,288,434682,2,0,B|136:320,3,42.0000010013581,8|0|0|0
184,344,434982,5,10
216,312,435057,1,8
224,272,435132,2,0,B|264:224,3,42.0000010013581,8|0|0|0
288,224,435432,5,10
432,288,435582,1,8
456,208,435732,5,10
456,168,435807,1,0
448,128,435882,1,0
424,96,435957,1,0
384,88,436032,1,10
344,104,436107,1,0
328,144,436182,1,0
336,184,436257,1,0
352,224,436332,1,10
344,264,436407,1,0
304,280,436482,1,8
264,272,436557,1,0
240,240,436632,2,0,B|216:192,3,42.0000010013581,10|8|10|8
256,136,436932,5,0
256,192,437007,12,4,438132
288,192,438432,5,8
240,264,438582,1,0
176,208,438732,1,10
96,232,438882,2,0,B|88:280|96:328,1,84.0000020027161,0|8
48,176,439182,1,0
48,176,439332,2,2,B|72:88|176:72,1,168.000004005432,2|8
208,0,439782,2,2,B|168:96|264:168,1,168.000004005432,2|0
328,144,440232,1,8
400,184,440382,1,0
440,328,440532,6,2,B|400:288|320:368|280:328,1,168.000004005432,2|8
240,256,440982,1,0
160,288,441132,1,2
104,224,441282,2,0,B|80:184|64:144,1,84.0000020027161,0|8
96,72,441582,1,0
168,32,441732,6,0,B|264:48|272:152,1,168.000004005432,2|8
352,112,442182,1,0
448,232,442332,5,10
408,216,442407,1,0
368,232,442482,1,0
344,264,442557,1,0
320,296,442632,1,10
288,320,442707,1,8
248,328,442782,1,10
208,312,442857,1,0
176,288,442932,5,0
112,80,443232,1,8
112,80,443382,1,2
192,48,443532,1,0
272,80,443682,1,0
352,88,443832,2,0,B|258:84|224:176,2,168.000004005432,10|2|8
424,128,444582,5,0
456,208,444732,2,0,B|456:248|448:304,1,84.0000020027161
376,248,445032,2,0,B|355:288|342:329,1,84.0000020027161,10|0
216,240,445332,5,2
136,224,445482,1,0
184,152,445632,1,8
96,128,445782,2,0,B|192:160|240:64,1,168.000004005432,2|0
296,8,446232,1,10
432,272,446532,5,10
408,312,446607,1,0
368,328,446682,1,0
328,320,446757,1,0
304,296,446832,1,0
288,256,446907,1,0
264,224,446982,1,10
224,208,447057,1,8
184,224,447132,2,0,B|168:272,3,42.0000010013581,8|0|2|0
184,304,447432,2,0,B|144:344,3,42.0000010013581,8|8|10|8
112,320,447732,6,0,B|140:228|72:168,1,168.000004005432,6|8
0,128,448182,2,0,B|104:104|96:-8,1,168.000004005432,2|0
176,24,448632,2,0,B|192:64|216:112,1,84.0000020027161,10|0
152,160,448932,1,2
208,224,449082,1,0
208,224,449232,1,8
288,152,449382,2,2,B|208:200|224:296,1,168.000004005432,2|0
288,344,449832,1,10
328,272,449982,1,0
480,208,450132,5,2
392,184,450282,1,0
435,108,450432,1,8
435,108,450582,2,0,B|379:188|275:148,1,168.000004005432,2|0
272,72,451032,2,0,B|232:48,3,42.0000010013581,10|8|8|8
200,32,451332,6,0,B|96:48|80:160,1,168.000004005432,2|8
32,200,451782,1,2
120,304,451932,5,0
176,240,452082,1,2
256,272,452232,1,8
256,352,452382,1,2
400,296,452532,5,2
360,224,452682,1,0
440,200,452832,1,8
432,120,452982,2,0,B|336:117|306:26,1,168.000004005432,2|0
232,88,453432,1,10
176,24,453582,1,0
136,160,453732,6,0,B|104:240,1,84.0000020027161,2|0
112,320,454032,1,8
192,312,454182,1,2
184,232,454332,2,0,B|256:176|352:216,1,168.000004005432,0|10
128,64,454932,5,10
160,96,455007,1,8
200,104,455082,1,8
240,96,455157,1,0
272,64,455232,1,10
304,40,455307,1,0
344,40,455382,1,8
384,64,455457,1,0
400,104,455532,2,0,B|408:144,3,42.0000010013581,10|0|8|0
440,168,455832,2,0,B|416:224,3,42.0000010013581,10|0|8|0
432,248,456132,5,10
344,336,456282,1,2
432,248,456432,1,2
280,184,456582,2,2,B|312:288|200:336,1,168.000004005432,10|2
136,328,457032,1,8
256,56,457332,1,8
256,192,457369,12,4,457932
256,192,457969,12,4,458532
256,192,458570,12,4,459132
48,80,459732,5,10
48,80,459807,1,8
48,80,459882,1,8
48,80,459957,1,8
48,80,460032,1,8
464,128,460332,5,10
464,128,460407,1,8
464,128,460482,1,8
464,128,460557,1,8
464,128,460632,1,8
88,312,460932,5,2
120,336,461007,1,0
160,336,461082,1,0
192,312,461157,1,0
216,280,461232,2,0,B|264:248,3,42.0000010013581
296,256,461532,5,0
336,264,461607,1,0
368,240,461682,1,0
376,200,461757,1,0
352,168,461832,2,0,B|304:152,3,42.0000010013581
272,160,462132,5,0
232,168,462207,1,0
192,176,462282,1,0
152,176,462357,1,0
112,152,462432,1,0
104,112,462507,1,0
120,80,462582,1,0
160,64,462657,1,0
192,64,462732,1,0
232,80,462807,1,0
272,88,462882,1,0
312,96,462957,1,0
352,88,463032,2,0,B|392:56,3,42.0000010013581
416,32,463332,5,4
256,192,463407,12,4,470082
256,192,470307,5,4
