osu file format v9

[General]
AudioFilename: DragonForce-My_Spirit_Will_Go_On.mp3
AudioLeadIn: 0
PreviewTime: -1
Countdown: 0
SampleSet: Soft
StackLeniency: 0.4
Mode: 0
LetterboxInBreaks: 1

[Editor]
Bookmarks: 20230,62250,81430,91030,107830,110230,129430,149830,200230,205655,219430,242255,261450,298932,318132,356532,375732,394932,414132,438132
DistanceSpacing: 1
BeatDivisor: 4
GridSize: 8

[Metadata]
Title:My Spirit Will Go On
Artist:DragonForce
Creator:winber1
Version:Insane
Source:
Tags:DragonForce Discography Sonic Firestorm

[Difficulty]
HPDrainRate:4
CircleSize:4
OverallDifficulty:4
ApproachRate:7
SliderMultiplier:1.4
SliderTickRate:2

[Events]
//Background and Video events
0,0,"Ice_plasma_digital_wallpaper.jpg"
//Break Periods
2,129655,147755
2,241255,250955
//Storyboard Layer 0 (Background)
//Storyboard Layer 1 (Fail)
//Storyboard Layer 2 (Pass)
//Storyboard Layer 3 (Foreground)
//Storyboard Sound Samples
//Background Colour Transformations
3,100,163,162,255

[TimingPoints]
1055,300,4,2,0,5,1,0
1055,-166.666666666667,4,2,0,5,0,0
20245,-83.3333333333333,4,1,1,45,0,0
39605,-83.3333333333333,4,2,0,45,0,0
39755,-83.3333333333333,4,2,0,45,0,0
40655,-83.3333333333333,4,1,1,45,0,0
105455,-83.3333333333333,4,1,1,45,0,1
107855,-83.3333333333333,4,2,0,45,0,0
110255,-83.3333333333333,4,1,1,45,0,1
129455,-83.3333333333333,4,1,1,45,0,0
151130,-83.3333333333333,4,1,1,5,0,0
152255,-83.3333333333333,4,1,1,45,0,0
195455,-83.3333333333333,4,1,1,45,0,1
197855,-83.3333333333333,4,2,0,45,0,0
200255,-83.3333333333333,4,1,1,45,0,1
219455,-83.3333333333333,4,1,1,45,0,0
242255,-83.3333333333333,4,2,1,35,0,0
251855,-83.3333333333333,4,1,1,35,0,0
261450,352.941176470588,4,1,1,45,1,0
261455,-100,4,1,1,45,0,0
261626,-83.3333333333333,4,1,1,45,0,0
284038,-83.3333333333333,4,1,1,45,0,1
295332,600,6,1,1,45,1,0
295347,-100,6,1,1,45,0,0
298923,-83.3333333333333,6,1,1,45,0,0
298932,300,4,1,1,45,1,0
298932,-83.3333333333333,4,1,1,45,0,1
318132,-83.3333333333333,4,1,1,45,0,0
334632,-50,4,1,1,45,0,0
334932,-83.3333333333333,4,1,1,45,0,0
356532,-83.3333333333333,4,1,1,45,0,1
375732,-83.3333333333333,4,1,1,45,0,0
394932,-83.3333333333333,4,1,1,45,0,0
409332,-83.3333333333333,4,1,1,45,0,1
411732,-83.3333333333333,4,1,1,45,0,0
414132,-83.3333333333333,4,1,1,45,0,1
432057,-83.3333333333333,4,1,1,0,0,0
432132,-83.3333333333333,4,1,1,45,0,0
457332,-83.3333333333333,4,1,1,45,0,1
460932,-83.3333333333333,4,1,1,45,0,0
470082,-83.3333333333333,4,1,1,45,0,1
470307,-83.3333333333333,4,1,1,45,0,0

[Colours]
Combo1 : 249,233,176
Combo2 : 52,108,203
Combo3 : 51,115,105
Combo4 : 137,51,145

[HitObjects]
416,152,20255,5,4
336,120,20405,2,0,B|292:122|248:112,1,84.0000020027161,2|8
168,96,20705,1,0
104,40,20855,2,0,B|71:80|88:120,3,84.0000020027161,2|0|10|0
56,216,21455,6,0,B|96:216|152:224,1,84.0000020027161,0|2
192,288,21755,2,0,B|231:276|296:264,1,84.0000020027161
352,288,22055,2,0,B|359:236|324:209,3,84.0000020027161,2|0|10|0
224,160,22655,6,0,B|248:124|296:80,1,84.0000020027161,0|2
360,72,22955,1,0
360,72,23105,1,0
431,37,23255,2,0,B|451:84|424:118,3,84.0000020027161,2|0|10|0
488,224,23855,5,0
448,296,24005,1,2
368,296,24155,2,0,B|264:320,1,84.0000020027161,8|0
224,256,24455,2,0,B|192:289|205:337,3,84.0000020027161,2|0|10|0
120,344,25055,6,0,B|108:251|180:184,1,168.000004005432,2|8
136,112,25505,2,0,B|192:192|288:176,1,168.000004005432,2|0
344,128,25955,2,0,B|360:72,2,42.0000010013581,10|0|0
360,208,26255,6,0,B|448:264|389:374,1,168.000004005432,2|8
319,324,26705,2,0,B|231:268|290:158,1,168.000004005432,2|8
344,128,27155,2,0,B|368:80,2,42.0000010013581,10|0|0
264,96,27455,6,0,B|224:72|184:64,2,84.0000020027161,0|2|0
280,176,27905,2,0,B|256:272|144:272,1,168.000004005432,2|2
88,232,28355,2,0,B|48:264,2,42.0000010013581,10|0|0
120,152,28655,6,0,B|104:120|99:68,2,84.0000020027161,0|2|0
192,200,29105,2,0,B|296:232|345:135,1,168.000004005432,2|2
400,88,29555,2,0,B|440:120,2,42.0000010013581,10|0|0
320,56,29855,6,0,B|320:144,2,84.0000020027161,2|0|0
232,56,30305,2,0,B|232:144,2,84.0000020027161,2|0|0
144,56,30755,2,0,B|144:144,1,84.0000020027161,10|0
40,264,31055,6,0,B|120:224,2,84.0000020027161,2|0|0
152,304,31505,2,0,B|232:344,2,84.0000020027161,2|0|0
264,264,31955,2,0,B|344:224,1,84.0000020027161,10|0
339,142,32255,6,0,B|435:142,2,84.0000020027161,2|0|0
425,225,32705,2,0,B|305:225,2,84.0000020027161,2|0|0
339,308,33155,2,0,B|435:308,1,84.0000020027161,10|0
258,308,33455,2,0,B|224:160|64:168,2,252.000006008148
320,56,34655,6,0,B|320:144,2,84.0000020027161,2|0|0
402,140,35105,2,0,B|402:52,2,84.0000020027161,2|0|0
485,55,35555,2,0,B|485:143,1,84.0000020027161,10|0
480,256,35855,6,0,B|376:256,2,84.0000020027161,2|0|0
438,336,36305,2,0,B|342:336,2,84.0000020027161,2|0|0
396,256,36755,2,0,B|308:256,1,84.0000020027161,10|0
208,176,37055,6,0,B|184:136|136:96,2,84.0000020027161,2|0|0
293,158,37505,2,0,B|340:157|399:136,2,84.0000020027161,2|0|0
266,241,37955,2,0,B|243:282|232:343,1,84.0000020027161,10|0
160,272,38255,2,0,B|224:216|336:328|400:272,2,252.000006008148
88,80,39455,5,6
168,96,39605,1,2
248,112,39755,1,0
328,128,39905,1,2
344,48,40055,5,0
328,128,40205,1,2
312,208,40355,2,2,B|304:256,3,42.0000010013581
296,288,40655,6,0,B|208:320|144:240,3,168.000004005432
80,88,41855,6,2,B|184:72|224:176,1,168.000004005432,2|8
264,232,42305,2,2,B|310:326|418:299,1,168.000004005432,2|8
472,264,42755,1,10
472,264,43055,6,2,B|448:176|344:160,1,168.000004005432,2|8
309,83,43505,2,2,B|342:181|241:246,1,168.000004005432,2|0
176,248,43955,1,10
176,248,44255,6,2,B|136:208|216:128|176:88,1,168.000004005432,2|8
96,96,44705,2,0,B|128:200|248:160,1,168.000004005432,2|0
304,128,45155,1,10
304,128,45455,2,0,B|401:53|429:187|392:215|340:179|297:176|288:280|352:320|424:249,1,336.000008010864,2|0
440,248,46130,2,8,B|480:304,6,42.0000010013581
456,328,46655,5,2
256,280,46955,1,8
256,280,47105,2,0,B|168:240|192:136,1,168.000004005432,2|0
264,104,47555,2,0,B|352:144|328:248,2,168.000004005432,10|0|8
190,141,48305,2,0,B|200:240|102:277,1,168.000004005432,2|0
192,272,48755,2,0,B|213:312|226:353,1,84.0000020027161,10|0
312,336,49055,6,0,B|296:240|448:208|408:80,2,252.000006008148,2|2|10
272,176,50255,5,10
216,104,50405,1,8
120,104,50555,1,8
80,184,50705,1,10
144,256,50855,2,8,B|120:312,7,42.0000010013581,8|8|8|8|10|8|10|8
112,336,51455,6,0,B|204:364|264:296,1,168.000004005432,6|8
352,288,51905,2,0,B|248:264|256:152,1,168.000004005432,2|0
272,88,52355,1,2
272,88,52655,6,0,B|328:176|432:128,1,168.000004005432,2|0
436,54,53105,2,2,B|488:64|527:129|480:192,1,168.000004005432,2|0
400,216,53555,2,2,B|357:247|351:323|420:359,1,168.000004005432,2|0
208,224,54155,2,0,B|168:240|128:272,1,84.0000020027161,0|2
304,160,54605,2,0,B|344:144|384:112,1,84.0000020027161,0|10
256,16,55055,6,2,B|184:72|336:192|256:248,1,252.000006008148,2|0
256,336,55655,1,8
312,264,55805,2,8,B|344:232,2,42.0000010013581
200,264,56105,2,8,B|168:232,1,42.0000010013581
144,208,56255,6,2,B|105:115|192:64,1,168.000004005432,14|0
272,88,56705,2,2,B|308:183|224:232,1,168.000004005432,14|0
164,291,57155,1,2
400,328,57455,5,2
456,168,57755,2,0,B|432:136|384:96,1,84.0000020027161,8|2
448,40,58055,2,0,B|376:96|280:56,2,168.000004005432,0|10|2
288,176,58955,1,8
288,176,59105,6,0,B|245:263|144:232,1,168.000004005432,2|0
88,176,59555,1,10
88,176,59855,5,10
144,112,60005,1,0
192,48,60155,1,0
261,95,60305,5,10
205,159,60455,1,0
157,223,60605,1,0
232,264,60755,5,10
272,272,60830,1,8
312,272,60905,1,10
352,256,60980,1,8
384,224,61055,1,12
384,224,62255,5,2
312,72,62555,1,8
312,72,62705,2,2,B|210:36|154:150,1,168.000004005432,2|0
144,208,63155,1,10
264,328,63455,6,0,B|352:328,1,84.0000020027161,2|2
400,256,63755,1,8
320,256,63905,2,2,B|224:256,2,84.0000020027161,2|0|0
400,256,64355,2,0,B|448:232|447:172,1,84.0000020027161,10|0
360,184,64655,6,0,B|256:160|280:40,1,168.000004005432,2|8
208,112,65105,2,0,B|144:32|48:104,1,168.000004005432,2|0
16,168,65555,1,10
160,256,65855,2,0,B|144:296|128:352,2,84.0000020027161,2|0|10
200,184,66305,2,0,B|248:152|312:160|344:224,1,168.000004005432,2|0
368,304,66755,1,10
448,128,67055,6,0,B|400:32|280:80,1,168.000004005432,2|8
280,152,67505,2,0,B|328:248|448:200,1,168.000004005432,2|0
365,142,67955,1,10
200,184,68255,6,0,B|242:282|128:343,1,168.000004005432,2|8
73,302,68705,2,0,B|31:201|144:142,1,168.000004005432,2|0
138,242,69155,1,10
220,83,69455,6,0,B|268:163|372:139,1,168.000004005432,2|8
448,160,69905,1,0
440,240,70055,2,0,B|368:216|312:264|312:264|272:240,1,168.000004005432,2|8
216,192,70505,2,0,B|176:139|104:136|56:200,1,168.000004005432,2|0
32,256,70955,1,10
184,328,71255,1,10
328,240,71555,2,0,B|360:192,3,42.0000010013581,10|8|8|8
392,192,71855,6,0,B|456:112|384:32,1,168.000004005432,2|8
304,40,72305,2,2,B|244:111|144:80,1,168.000004005432,2|2
112,8,72755,2,0,B|145:94|69:167,1,168.000004005432,8|2
64,248,73205,2,0,B|120:320,1,84.0000020027161,0|8
200,296,73505,2,0,B|128:200,1,84.0000020027161,2|0
192,160,73805,2,0,B|248:232,1,84.0000020027161,0|10
288,296,74105,1,0
400,328,74255,6,0,B|344:240|432:160,1,168.000004005432,2|8
464,104,74705,2,2,B|432:80|328:128|296:104,1,168.000004005432
232,56,75155,1,8
88,144,75455,5,2
160,192,75605,1,0
184,272,75755,1,8
160,352,75905,2,0,B|128:256|216:200,1,168.000004005432,2|0
288,176,76355,2,2,B|332:172|376:192,1,84.0000020027161,10|0
398,274,76655,6,0,B|460:263|486:174|430:130,1,168.000004005432,2|8
400,64,77105,2,0,B|365:90|304:104,1,84.0000020027161,2|0
240,88,77405,1,0
160,56,77555,2,0,B|136:144,1,84.0000020027161,10|0
32,168,77855,6,0,B|144:144|168:256,1,168.000004005432,2|8
248,232,78305,2,0,B|240:280|240:336,1,84.0000020027161,2|0
304,368,78605,1,0
384,344,78755,2,0,B|392:296|392:240,1,84.0000020027161,10|0
432,192,79055,6,8,B|496:216,2,42.0000010013581,10|8|8
368,136,79355,1,0
375,53,79505,1,10
296,24,79655,1,8
245,86,79805,1,0
286,155,79955,2,0,B|246:203,3,42.0000010013581,10|0|8|0
216,200,80255,6,0,B|200:256,5,42.0000010013581,10|8|8|0|0|0
224,280,80705,2,0,B|176:304,5,42.0000010013581,10|8|8|0|0|0
144,296,81155,5,10
104,272,81230,1,8
88,232,81305,1,10
88,192,81380,1,8
104,152,81455,5,12
248,64,81755,2,2,B|288:152|384:144,1,168.000004005432,10|0
382,228,82205,1,0
309,270,82355,2,2,B|269:182|173:190,1,168.000004005432,10|0
131,261,82805,2,2,B|164:354|274:344,2,168.000004005432,2|8|8
131,261,83555,1,0
208,112,83855,5,2
360,184,84155,1,8
288,336,84455,1,2
288,336,84605,1,8
288,336,84905,6,0,B|344:264|440:288,1,168.000004005432,10|0
240,264,85505,2,0,B|184:336|88:312,1,168.000004005432,2|0
32,248,85955,2,0,B|5:216|8:136,1,84.0000020027161,10|0
48,96,86255,5,2
208,56,86555,1,8
352,136,86855,2,0,B|431:79|509:148,2,168.000004005432,2|8|2
288,192,87605,2,0,B|208:248|130:179,2,168.000004005432,2|8|8
368,216,88355,2,0,B|398:248|416:288,1,84.0000020027161,10|0
368,352,88655,6,0,B|337:320|320:280,1,84.0000020027161,10|0
256,232,88955,1,8
184,187,89105,2,0,B|168:82|273:57,1,168.000004005432,2|0
336,104,89555,2,0,B|351:204|256:232,1,168.000004005432,2|0
120,328,90155,5,10
96,248,90305,1,0
120,168,90455,1,0
96,88,90605,1,10
176,56,90755,1,0
256,88,90905,1,8
336,64,91055,6,2,B|280:144|344:240,1,168.000004005432,6|8
416,200,91505,1,0
416,200,91655,2,2,B|472:280|408:376,1,168.000004005432,2|8
336,328,92105,1,0
256,296,92255,2,0,B|176:352|83:283,1,168.000004005432,2|8
98,209,92705,2,2,B|170:265|266:153|346:217,1,252.000006008148,2|8
400,160,93305,1,0
360,88,93455,6,0,B|326:74|326:74|256:113|196:51,1,168.000004005432,2|8
120,64,93905,2,0,B|120:232,2,168.000004005432,2|8|8
200,80,94655,2,0,B|200:128|200:128|227:152|227:152|200:176|200:176|200:224,1,168.000004005432,6|0
280,222,95105,2,0,B|278:287|212:326|150:290,2,168.000004005432,10|8|0
336,160,95855,6,2,B|312:200|360:288|336:328,1,168.000004005432,6|8
424,336,96305,1,0
448,256,96455,2,2,B|424:216|472:128|448:88,1,168.000004005432,2|8
368,80,96905,1,0
336,160,97055,2,2,B|300:212|234:228|168:176,1,168.000004005432,2|8
160,104,97505,2,2,B|192:152|192:224|88:264,2,168.000004005432,2|0|0
80,112,98255,6,0,B|74:60|128:27,1,84.0000020027161,10|8
160,104,98555,2,0,B|166:156|112:189,1,84.0000020027161,0|10
48,184,98855,2,0,B|42:132|96:99,1,84.0000020027161,8|0
128,176,99155,2,0,B|134:228|80:261,1,84.0000020027161,2|0
128,328,99455,6,0,B|216:328,1,84.0000020027161,10|8
192,248,99755,2,0,B|280:248,1,84.0000020027161,0|10
256,168,100055,2,0,B|344:168,1,84.0000020027161,8|0
320,88,100355,2,0,B|408:88,1,84.0000020027161,10|0
488,88,100655,5,12
384,248,100955,2,0,B|378:300|432:333,1,84.0000020027161,10|8
464,256,101255,2,0,B|469:197|410:141|352:152,1,168.000004005432,2|8
280,184,101705,1,0
200,216,101855,2,0,B|146:240|73:204|63:146,1,168.000004005432,2|8
72,72,102305,1,2
280,184,102605,1,8
152,344,102905,1,0
216,288,103055,6,0,B|232:192,2,84.0000020027161,10|0|8
144,248,103505,2,0,B|184:224|272:272|312:248,2,168.000004005432,2|8|8
104,176,104255,2,0,B|88:80,2,84.0000020027161,6|0|8
184,160,104705,2,0,B|240:88|345:109,1,168.000004005432,2|0
408,144,105155,2,0,B|432:179|440:224,1,84.0000020027161,10|0
400,296,105455,5,10
256,88,105905,1,10
112,296,106355,1,10
256,216,106655,5,10
320,152,106805,1,8
256,88,106955,1,8
192,152,107105,1,10
256,352,107555,1,10
256,216,107855,5,2
504,184,108305,1,0
256,176,108755,1,2
88,152,109055,1,2
336,112,109505,1,0
88,72,109955,1,2
256,48,110255,5,4
480,120,110855,2,2,B|384:144|392:256,1,168.000004005432,2|8
240,320,111455,2,0,B|400:240,1,168.000004005432,2|8
416,328,111905,2,2,B|511:288|485:187|448:156|376:156,1,252.000006008148,2|10
216,168,112655,6,0,B|184:80|80:88,1,168.000004005432,2|8
40,160,113105,2,0,B|72:247|176:238,1,168.000004005432,2|0
256,240,113555,2,0,B|304:208|376:272|424:240,1,168.000004005432,10|2
296,144,114155,6,2,B|224:0|224:0|114:56|184:144,1,336.000008010864,2|8
256,240,115055,5,4
32,264,115655,2,2,B|128:240|120:128,1,168.000004005432,2|8
120,139,116255,2,0,B|216:96|288:176,1,168.000004005432,2|8
344,120,116705,2,0,B|408:176|408:176|320:192|384:304|304:304,1,252.000006008148,2|10
84,340,117455,6,0,B|158:396|241:333,1,168.000004005432,2|8
253,248,117905,2,0,B|314:177|408:223,1,168.000004005432,2|0
480,256,118355,2,0,B|495:223|495:223|484:142|378:121,1,168.000004005432,10|2
216,240,118955,6,2,B|248:296|288:384|288:384|398:328|328:240,1,336.000008010864,2|8
256,144,119855,5,4
64,216,120155,1,10
312,288,120455,1,0
320,80,120755,1,10
448,192,121055,1,0
312,288,121355,2,0,B|320:192,1,84.0000020027161,8|2
152,88,121805,2,0,B|144:176,1,84.0000020027161,0|10
408,120,122255,5,6
104,264,122555,1,8
104,264,122705,1,2
256,192,123155,1,8
152,128,123455,6,2,B|168:40|253:32|253:32|256:16|256:16|258:32|258:32|344:40|360:128,1,336.000008010864,2|8
256,192,124355,1,8
137,310,124655,6,0,B|113:286|113:286|128:255|133:197|55:160,1,168.000004005432,2|8
40,248,125105,2,0,B|144:256|208:152,1,168.000004005432,2|0
224,104,125555,2,0,B|276:125|272:201,1,84.0000020027161,10|0
240,280,125855,6,0,B|271:292|296:280|296:280|328:240|328:240|352:225|384:240,1,168.000004005432,2|8
448,296,126305,2,0,B|494:249|468:157|379:154,1,168.000004005432,2|0
368,88,126755,2,0,B|320:104|256:48,1,84.0000020027161,10|0
216,24,127055,5,4
256,192,127205,12,0,128255
256,192,129155,5,0
256,192,129455,1,4
256,192,148655,12,0,149855
256,192,151055,5,0
88,120,152255,5,2
184,256,152555,1,8
208,176,152705,2,2,B|254:78|374:119,1,168.000004005432,2|0
400,40,153155,2,0,B|336:128|416:200,1,168.000004005432,10|2
472,248,153605,6,0,B|472:296|432:352,1,84.0000020027161,2|8
368,344,153905,2,2,B|328:320|280:312,1,84.0000020027161
152,120,154355,1,10
152,120,154505,1,0
232,152,154655,6,0,B|336:176|312:296,1,168.000004005432,2|8
248,320,155105,2,0,B|147:301|165:182,1,168.000004005432,2|0
152,120,155555,1,10
352,128,155855,2,0,B|368:88|384:32,2,84.0000020027161,2|0|10
312,200,156305,2,0,B|264:232|200:224|168:160,1,168.000004005432,2|0
144,80,156755,1,10
75,259,157055,6,0,B|83:291|83:291|139:347|208:295,1,168.000004005432,2|8
216,224,157505,2,0,B|208:192|208:192|152:136|83:188,1,168.000004005432,2|0
147,242,157955,1,10
295,163,158255,6,0,B|326:173|326:173|404:156|396:70,1,168.000004005432,2|8
341,25,158705,2,0,B|310:15|310:15|233:33|240:119,1,168.000004005432,2|0
320,95,159155,1,10
384,248,159455,6,0,B|336:328|232:304,1,168.000004005432,2|8
160,272,159905,2,0,B|72:216|96:120,1,168.000004005432,2|8
128,56,160355,1,8
248,168,160655,5,8
328,184,160805,1,0
408,200,160955,1,10
440,80,161105,1,8
360,96,161255,1,10
280,112,161405,1,0
200,136,161555,2,0,B|168:184,3,42.0000010013581,10|8|8|8
136,176,161855,6,0,B|72:256|144:336,1,168.000004005432,2|8
224,336,162305,2,2,B|284:265|384:296,1,168.000004005432,2|2
424,360,162755,2,0,B|391:274|467:201,1,168.000004005432,8|2
464,120,163205,2,0,B|447:76|408:48,1,84.0000020027161,0|8
376,128,163505,2,0,B|375:170|352:216,1,84.0000020027161,2|0
272,224,163805,2,0,B|234:192|216:152,1,84.0000020027161,0|10
216,72,164105,1,0
112,56,164255,6,0,B|168:144|80:224,1,168.000004005432,2|8
128,288,164705,2,2,B|160:312|264:264|296:288,1,168.000004005432
360,336,165155,1,8
280,192,165455,5,2
296,112,165605,1,0
368,64,165755,1,8
448,96,165905,2,0,B|352:128|296:40,1,168.000004005432,2|0
216,24,166355,2,2,B|172:20|128:40,1,84.0000020027161,10|0
152,120,166655,6,0,B|90:131|64:220|120:264,1,168.000004005432,2|8
152,328,167105,2,0,B|187:302|248:288,1,84.0000020027161,2|0
280,224,167405,1,0
360,248,167555,2,0,B|384:160,1,84.0000020027161,10|0
464,136,167855,6,0,B|352:160|328:48,1,168.000004005432,2|8
256,40,168305,2,0,B|248:88|248:144,1,84.0000020027161,2|0
296,192,168605,2,0,B|288:240|271:293,1,84.0000020027161,10|0
200,296,168905,1,0
128,256,169055,6,8,B|64:232,2,42.0000010013581,10|8|8
160,176,169355,1,0
112,112,169505,1,10
136,32,169655,1,8
216,24,169805,1,0
272,88,169955,2,0,B|336:112,3,42.0000010013581,10|0|8|0
352,120,170255,6,0,B|424:112,5,42.0000010013581,10|8|8|0|0|0
432,96,170705,2,0,B|480:136,5,42.0000010013581,10|8|8|0|0|0
488,160,171155,5,10
496,200,171230,1,8
480,240,171305,1,10
456,272,171380,1,8
416,288,171455,5,12
264,320,171755,2,2,B|224:232|128:240,1,168.000004005432,10|0
130,156,172205,1,0
72,88,172355,2,2,B|112:176|208:168,1,168.000004005432,10|0
288,144,172805,2,2,B|386:134|423:238,2,168.000004005432,2|8|8
224,88,173555,1,0
216,256,173855,5,2
368,184,174155,1,8
368,352,174455,1,2
368,352,174605,1,8
216,256,174905,6,0,B|160:328|64:304,1,168.000004005432,10|0
256,184,175505,2,0,B|312:112|408:136,1,168.000004005432,2|0
488,168,175955,2,0,B|515:200|512:280,1,84.0000020027161,10|0
480,328,176255,5,2
328,256,176555,1,8
120,312,176855,2,0,B|27:281|37:177,2,168.000004005432,2|8|2
174,248,177605,2,0,B|254:192|332:261,2,168.000004005432,2|8|8
144,168,178355,2,0,B|114:136|96:96,1,84.0000020027161,10|0
144,32,178655,6,0,B|175:64|192:104,1,84.0000020027161,10|0
256,152,178955,1,8
336,120,179105,2,0,B|441:104|466:209,1,168.000004005432,2|0
416,264,179555,2,0,B|376:240|288:296|248:264,1,168.000004005432
88,248,180155,5,10
144,184,180305,1,0
200,248,180455,1,0
256,184,180605,1,10
312,248,180755,1,0
368,184,180905,1,8
448,160,181055,6,2,B|400:74|286:90,1,168.000004005432,6|8
224,112,181505,1,0
256,184,181655,2,2,B|303:269|417:253,1,168.000004005432,2|8
432,336,182105,1,0
352,344,182255,2,0,B|306:334|224:352|184:344,1,168.000004005432,2|8
104,344,182705,2,0,B|48:272|160:176|96:96,1,252.000006008148,2|8
160,48,183305,1,0
240,48,183455,6,0,B|240:96|240:96|213:120|213:120|240:144|240:144|240:192,1,168.000004005432,6|0
320,216,183905,2,0,B|416:240|480:144,2,168.000004005432,2|8|8
353,143,184655,2,0,B|416:185|396:258|396:258|416:288,1,168.000004005432,2|8
406,368,185105,2,0,B|470:372|516:311|487:245,2,168.000004005432,10|8|0
328,328,185855,6,2,B|280:304|280:304|208:304|160:240,1,168.000004005432,6|8
96,240,186305,1,0
96,152,186455,2,2,B|144:176|144:176|216:176|264:240,1,168.000004005432,6|8
328,240,186905,1,0
408,256,187055,2,2,B|460:220|476:154|424:88,1,168.000004005432,2|8
368,160,187505,2,0,B|336:112|336:40|440:0,2,168.000004005432
280,168,188255,6,0,B|228:162|195:216,1,84.0000020027161,10|8
202,277,188555,2,0,B|254:283|287:229,1,84.0000020027161,0|10
202,277,188855,2,0,B|150:271|117:325,1,84.0000020027161,8|0
48,272,189155,2,0,B|48:232|72:160,1,84.0000020027161,2|0
112,120,189455,6,0,B|200:120,1,84.0000020027161,10|8
239,47,189755,2,0,B|151:47,1,84.0000020027161,0|10
197,120,190055,2,0,B|285:120,1,84.0000020027161,8|0
325,48,190355,2,0,B|237:48,1,84.0000020027161,10|0
280,120,190655,5,12
344,272,190955,2,0,B|384:238|441:265,1,84.0000020027161,10|8
394,334,191255,2,0,B|347:370|264:344|264:261,1,168.000004005432,2|8
296,200,191705,1,0
280,120,191855,2,0,B|271:61|193:22|135:82,1,168.000004005432,2|8
96,136,192305,1,2
176,280,192605,1,8
384,200,192905,1,0
344,272,193055,6,0,B|328:368,2,84.0000020027161,10|0|8
416,312,193505,2,0,B|376:336|288:288|248:312,2,168.000004005432,2|8|8
464,248,194255,1,0
432,168,194405,1,0
432,168,194555,1,0
376,104,194705,2,0,B|320:32|215:53,1,168.000004005432,2|0
160,104,195155,2,0,B|136:139|128:184,1,84.0000020027161,10|0
128,264,195455,5,10
312,88,195905,1,10
416,336,196355,1,10
296,224,196655,5,10
344,160,196805,1,8
416,208,196955,1,8
368,272,197105,1,10
256,48,197555,1,10
112,136,197855,5,2
256,344,198305,1,0
400,136,198755,1,2
256,48,199055,1,2
112,256,199505,1,0
400,256,199955,1,2
256,344,200255,5,4
32,264,200855,2,2,B|128:240|120:128,1,168.000004005432,2|8
272,72,201455,2,2,B|367:112|341:213|304:244|232:244,2,252.000006008148
96,304,202655,6,0,B|192:320|242:244,1,168.000004005432,2|8
248,160,203105,2,0,B|341:147|382:243,1,168.000004005432,2|0
424,312,203555,2,0,B|376:344|304:280|256:312,1,168.000004005432,10|2
256,112,204155,6,2,B|232:24|232:24|176:128|56:0|8:96,1,336.000008010864,2|8
256,192,205055,5,4
480,120,205655,2,2,B|384:144|392:256,1,168.000004005432,2|8
240,320,206255,2,0,B|136:344|96:224,1,168.000004005432,2|8
48,184,206705,2,2,B|112:152|232:208|296:176,1,252.000006008148
456,128,207455,6,0,B|360:144|310:68,1,168.000004005432,2|8
240,16,207905,2,0,B|146:3|105:99,1,168.000004005432,2|8
120,184,208355,1,10
256,272,208655,1,0
256,272,208955,6,2,B|280:360|280:360|336:256|456:384|504:288,1,336.000008010864,2|8
256,192,209855,5,4
400,104,210155,1,10
168,120,210455,1,0
192,296,210755,1,10
336,192,211055,1,0
168,120,211355,2,0,B|160:216,1,84.0000020027161,8|2
336,192,211805,2,0,B|344:104,1,84.0000020027161,0|10
256,312,212255,5,6
256,72,212555,1,8
256,72,212705,1,2
256,192,213155,1,8
384,264,213455,6,2,B|344:328|280:336|280:336|256:307|256:307|232:336|232:336|168:328|128:264,1,336.000008010864,2|8
256,192,214355,1,8
352,40,214655,6,0,B|385:46|385:46|449:95|405:177,1,168.000004005432,2|8
345,118,215105,2,0,B|321:174|333:233|402:269,1,168.000004005432,2|0
469,281,215555,2,0,B|459:336|384:348,1,84.0000020027161,10|0
330,340,215855,6,0,B|320:308|295:295|295:295|244:295|244:295|217:285|209:251,1,168.000004005432,2|8
283,212,216305,2,0,B|255:152|160:143|125:225,1,168.000004005432,2|0
99,124,216755,2,0,B|52:144|50:203,1,84.0000020027161,10|0
64,272,217055,5,4
256,192,217205,12,0,218255
256,192,219155,5,0
256,192,219455,1,4
360,64,219755,6,0,B|392:104|416:152,1,84.0000020027161,8|0
456,200,220055,2,0,B|424:232|400:296,1,84.0000020027161,2|0
376,344,220355,2,0,B|328:336|288:320,1,84.0000020027161,8|0
280,240,220655,2,0,B|240:256|184:264,1,84.0000020027161,2|0
128,312,220955,2,0,B|112:264|64:216,1,84.0000020027161
88,152,221255,2,0,B|128:136|176:128,1,84.0000020027161,2|0
240,80,221555,1,10
320,96,221705,2,2,B|424:120|400:232,1,168.000004005432
368,296,222155,6,0,B|328:320|272:336,1,84.0000020027161,8|0
232,272,222455,2,0,B|192:272|144:256,1,84.0000020027161,2|0
136,176,222755,2,0,B|96:160|64:128,1,84.0000020027161,8|0
80,48,223055,2,0,B|120:64|152:96,1,84.0000020027161,2|0
224,48,223355,2,0,B|248:88|248:152,1,84.0000020027161,8|0
328,144,223655,2,0,B|328:192|296:240,1,84.0000020027161,2|0
232,272,223955,1,10
159,321,224105,2,2,B|58:302|50:182,1,168.000004005432
34,124,224555,6,0,B|116:118|134:195|134:195|184:224,1,168.000004005432,8|2
120,48,225155,1,8
53,207,225455,2,0,B|101:111|213:151,2,168.000004005432,2|8|2
240,224,226355,1,10
240,224,226505,2,2,B|192:128|280:48,1,168.000004005432
344,80,226955,2,2,B|392:176|304:256,1,168.000004005432,10|2
144,280,227555,1,10
224,312,227705,2,2,B|296:240|400:296,1,168.000004005432
464,280,228155,6,0,B|484:244|488:192,1,84.0000020027161,10|0
432,136,228455,2,0,B|411:172|408:224,2,84.0000020027161,2|0|8
488,72,228905,2,2,B|424:0|328:40,1,168.000004005432
256,56,229355,6,0,B|216:144,1,84.0000020027161,8|0
152,80,229655,2,0,B|112:168,1,84.0000020027161,2|0
64,216,229955,2,0,B|104:304,1,84.0000020027161,8|0
176,256,230255,2,0,B|240:328|344:280,2,168.000004005432,2|8|2
400,232,231155,1,8
432,152,231305,2,2,B|408:112|408:112|336:72|288:160,1,168.000004005432
360,192,231755,6,0,B|320:232|256:208,1,84.0000020027161,8|0
216,168,232055,2,0,B|160:156|120:211,1,84.0000020027161,2|0
96,264,232355,2,0,B|128:288|176:320,1,84.0000020027161,8|0
240,352,232655,2,0,B|341:353|360:257,2,168.000004005432,2|8|2
432,208,233555,1,10
464,128,233705,2,2,B|416:112|344:144|296:128,1,168.000004005432
240,72,234155,5,10
96,152,234455,2,0,B|200:152|232:256,1,168.000004005432,0|10
360,344,235055,2,0,B|472:360|504:248,1,168.000004005432,2|8
368,160,235655,1,2
160,272,235955,1,10
192,344,236105,2,2,B|232:314|232:314|302:296|314:211,1,168.000004005432
344,120,236555,6,2,B|304:150|304:150|234:168|222:253,2,168.000004005432,10|2|10
360,40,237305,2,2,B|416:48|460:124|396:182,1,168.000004005432
344,224,237755,6,0,B|304:240|256:224,1,84.0000020027161,8|0
216,144,238055,2,0,B|176:160|152:200,1,84.0000020027161,2|0
112,272,238355,1,10
112,272,238505,1,0
256,192,238655,12,4,239855
256,192,241055,5,4
256,192,251855,5,4
256,192,252305,1,0
256,192,252755,1,8
152,64,253055,6,0,B|192:96|240:56|240:56|256:81|256:81|272:56|272:56|320:96|360:64,2,252.000006008148,4|0|8
152,264,254255,6,0,B|96:168|96:168|8:216|48:288,2,252.000006008148,4|0|8
360,264,255455,6,0,B|416:168|416:168|504:216|464:288,2,252.000006008148
256,104,256655,6,0,B|216:168|296:280|256:352,2,252.000006008148,4|0|8
152,64,257855,5,4
360,64,258305,1,0
256,224,258755,1,8
256,104,259055,5,4
128,312,259505,1,0
384,312,259955,1,8
256,224,260255,5,4
104,32,260705,1,0
408,32,261155,1,8
256,104,261450,5,2
168,120,261626,2,2,B|80:160|112:272,1,168.000004005432,2|10
160,336,262155,2,0,B|192:368|248:360,1,84.0000020027161
328,344,262509,2,2,B|376:336|376:336|432:288|392:208,1,168.000004005432,10|0
480,152,263038,2,2,B|414:233|311:180,1,168.000004005432,2|8
256,136,263567,1,2
168,160,263744,2,0,B|176:208,1,42.0000010013581
192,248,263920,2,0,B|224:296|284:285,1,84.0000020027161,10|0
344,240,264273,5,0
264,200,264450,2,0,B|296:128|398:140|415:188,1,168.000004005432,2|0
440,256,264979,1,0
376,320,265155,1,2
280,320,265332,2,0,B|240:344,2,42.0000010013581
192,288,265685,6,0,B|152:272|112:232,1,84.0000020027161,2|2
48,184,266038,2,0,B|64:144|104:120,1,84.0000020027161,10|0
192,88,266391,2,2,B|288:93|323:187,1,168.000004005432,2|0
440,320,267097,6,0,B|392:336,3,42.0000010013581,2|0|8|0
352,344,267450,1,0
272,296,267626,1,8
144,280,267803,6,0,B|112:232,3,42.0000010013581,2|0|8|0
96,208,268156,1,0
128,120,268332,1,8
232,48,268508,6,0,B|224:88|232:144,1,84.0000020027161,2|8
296,192,268861,2,0,B|304:232|296:288,1,84.0000020027161,0|8
368,336,269214,6,0,B|432:320,3,42.0000010013581,2|0|8|0
456,312,269567,1,0
472,224,269744,1,8
432,104,269920,5,6
352,56,270097,2,2,B|240:48|216:174,1,168.000004005432,2|8
168,216,270626,2,0,B|176:264|224:296,1,84.0000020027161,0|10
280,224,270979,2,0,B|320:256|320:312,1,84.0000020027161
256,360,271332,1,0
256,360,271508,2,2,B|167:396|95:332,1,168.000004005432,10|8
64,248,272038,1,0
64,248,272126,1,0
64,248,272214,2,0,B|61:203|80:152,1,84.0000020027161,10|0
224,56,272744,6,0,B|240:104|296:104,1,84.0000020027161,2|0
376,120,273097,2,0,B|360:72|304:72,1,84.0000020027161,8|2
296,160,273450,2,0,B|264:248,1,84.0000020027161,2|0
328,304,273802,2,0,B|368:200,1,84.0000020027161,8|2
432,168,274155,6,0,B|464:208|440:264,1,84.0000020027161,0|2
373,306,274508,2,0,B|341:266|365:210,1,84.0000020027161,8|2
352,136,274861,2,0,B|280:72,1,84.0000020027161,2|0
200,48,275214,2,0,B|96:40|72:160,1,168.000004005432,8|2
80,232,275744,5,0
168,200,275920,2,0,B|216:208|232:264,1,84.0000020027161,8|2
200,344,276273,2,0,B|152:336|136:280,1,84.0000020027161,2|0
168,200,276626,2,0,B|224:128,1,84.0000020027161,8|0
312,136,276979,6,0,B|248:224,1,84.0000020027161,2|0
312,280,277332,2,0,B|360:264|424:296,1,84.0000020027161,10|0
448,352,277685,2,0,B|496:320|476:248,1,84.0000020027161,2|2
424,208,278038,2,0,B|392:168|432:120,1,84.0000020027161,10|2
384,48,278391,6,0,B|304:0|216:64,1,168.000004005432,2|10
80,168,279097,2,0,B|128:176,3,42.0000010013581
152,208,279450,2,8,B|200:192,3,42.0000010013581,10|0|0|0
224,216,279802,6,0,B|272:296|368:280,1,168.000004005432,2|10
432,80,280508,1,0
344,112,280685,1,8
416,168,280861,1,10
328,200,281038,1,8
248,144,281214,6,0,B|192:128|136:160|80:144,1,168.000004005432,2|10
160,312,281920,2,0,B|200:288,3,42.0000010013581
240,304,282273,2,8,B|296:304,3,42.0000010013581,10|0|0|0
328,320,282626,6,0,B|360:296|416:288,1,84.0000020027161,2|0
376,200,282979,2,0,B|344:224|288:232,1,84.0000020027161,10|0
216,192,283332,1,10
128,232,283508,1,2
136,136,283685,1,10
136,136,283861,1,2
208,72,284038,6,0,B|256:64,7,42.0000010013581,0|0|0|0|10|0|0|0
296,64,284744,1,0
384,96,284920,1,2
472,128,285097,2,0,B|480:176|448:216,1,84.0000020027161,10|0
368,240,285450,6,0,B|312:216,3,42.0000010013581,2|0|0|0
288,208,285802,2,0,B|216:232,3,42.0000010013581,8|0|2|0
200,216,286155,5,4
256,192,286200,12,4,286861
256,192,286906,12,4,287567
256,192,287611,12,4,288273
256,192,288317,12,4,288979
80,80,289685,6,0,B|104:160,1,84.0000020027161,2|0
184,112,290038,2,0,B|208:192,1,84.0000020027161,8|0
288,144,290391,2,0,B|312:224,1,84.0000020027161,2|0
392,184,290744,2,0,B|416:264,1,84.0000020027161,8|0
336,304,291097,6,0,B|312:224,1,84.0000020027161,2|0
232,272,291450,2,0,B|208:192,1,84.0000020027161,8|0
144,128,291802,2,2,B|240:32|352:224|456:120,1,336.000008010864,2|0
384,64,292685,5,0
312,120,292861,2,0,B|344:200,1,84.0000020027161,8|0
432,232,293214,2,0,B|392:312,1,84.0000020027161,0|2
304,288,293567,2,0,B|208:288,1,84.0000020027161,8|2
184,202,293920,6,0,B|168:162,5,42.0000010013581,2|0|0|0|0|0
208,138,294450,2,0,B|224:98,5,42.0000010013581,10|0|0|0|0|0
264,122,294979,2,0,B|312:106,3,42.0000010013581,10|8|8|8
344,90,295332,5,4
154,104,295932,1,4
168,294,296532,1,4
358,280,297132,1,4
256,192,297732,1,4
240,40,298932,6,0,B|256:80|264:136,1,84.0000020027161,2|0
336,80,299232,2,0,B|368:104|408:128,1,84.0000020027161,8|0
496,112,299532,2,0,B|488:200,3,84.0000020027161,2|0|8|0
400,216,300132,6,8,B|320:184,1,84.0000020027161,10|8
328,280,300432,2,8,B|248:248,1,84.0000020027161,8|10
256,344,300732,2,8,B|176:312,1,84.0000020027161,0|0
168,224,301032,5,10
168,224,301182,1,8
104,160,301332,6,0,B|72:64,1,84.0000020027161,2|0
160,40,301632,2,0,B|204:53|264:40,1,84.0000020027161,10|0
336,64,301932,2,0,B|304:96|312:168,1,84.0000020027161,2|0
400,128,302232,2,0,B|408:176|376:208,1,84.0000020027161,10|0
400,296,302532,6,0,B|360:288,3,42.0000010013581,10|8|8|0
312,280,302832,2,0,B|272:264|216:288,1,84.0000020027161,8|0
112,240,303132,6,0,B|104:200,3,42.0000010013581,10|8|8|0
128,160,303432,2,0,B|176:152|216:112,1,84.0000020027161,8|0
264,48,303732,6,0,B|320:128,1,84.0000020027161,2|0
392,112,304032,2,0,B|392:160|376:208,1,84.0000020027161,8|0
456,232,304332,2,0,B|360:192|309:287,1,168.000004005432,2|8
240,320,304782,1,0
160,320,304932,6,0,B|128:296|88:248,1,84.0000020027161,2|0
136,184,305232,2,0,B|104:152|112:88,1,84.0000020027161,8|0
176,48,305532,2,0,B|280:8|320:112,1,168.000004005432,2|8
392,128,305982,1,0
384,208,306132,6,2,B|422:236|438:296,2,84.0000020027161,2|2|10
304,176,306582,2,10,B|200:168|168:272,1,168.000004005432,10|10
272,272,307032,1,8
272,272,307182,2,2,B|432:192,1,168.000004005432,2|10
448,112,307632,2,0,B|456:72|448:16,2,84.0000020027161
272,272,308532,6,0,B|320:192|424:208,1,168.000004005432,2|8
256,168,309132,2,0,B|208:248|104:232,1,168.000004005432,2|8
48,176,309582,1,0
88,104,309732,2,0,B|73:63|48:32,2,84.0000020027161,2|0|10
160,144,310182,2,0,B|264:136|288:232,1,168.000004005432,2|0
384,40,310932,6,0,B|416:120,1,84.0000020027161,2|0
328,120,311232,2,0,B|360:200,1,84.0000020027161,8|0
312,272,311532,1,2
240,312,311682,1,0
160,296,311832,1,8
112,232,311982,1,0
120,152,312132,6,8,B|136:96,3,42.0000010013581,10|8|8|8
168,88,312432,2,0,B|224:80|256:104,2,84.0000020027161,0|8|0
328,120,313032,1,8
328,120,313182,1,2
280,192,313332,6,0,B|248:232,3,42.0000010013581,2|0|0|0
216,248,313632,2,0,B|224:304,3,42.0000010013581,8|0|0|0
248,320,313932,2,2,B|288:344|352:320,1,84.0000020027161
384,264,314232,2,0,B|344:240|280:264,1,84.0000020027161,8|0
216,248,314532,6,0,B|176:232,3,42.0000010013581,2|0|0|0
136,240,314832,2,0,B|104:184,3,42.0000010013581,8|0|0|0
112,160,315132,2,2,B|120:112|152:80,1,84.0000020027161
224,48,315432,2,0,B|304:104,1,84.0000020027161,8|0
384,72,315732,5,2
384,72,315807,1,0
384,72,315882,2,0,B|389:122|384:185,1,84.0000020027161,0|8
440,216,316182,1,2
392,288,316332,2,0,B|328:224|232:272,1,168.000004005432,2|8
160,232,316782,6,2,B|136:192,1,42.0000010013581
120,160,316932,2,0,B|168:72|288:120,1,168.000004005432,0|8
336,152,317382,1,8
408,192,317532,2,0,B|360:136|216:248|168:192,1,252.000006008148,2|0
96,160,318132,6,0,B|104:64|200:40,1,168.000004005432,2|8
256,96,318582,2,0,B|248:192|152:216,1,168.000004005432,2|0
88,264,319032,2,0,B|104:304|152:336,1,84.0000020027161,10|0
224,312,319332,6,0,B|256:296|256:296|295:325|368:314|384:242,1,168.000004005432,2|8
304,232,319782,2,0,B|312:336|424:328,2,168.000004005432,2|8|10
336,152,320532,6,0,B|368:112,3,42.0000010013581,6|0|2|0
384,80,320832,2,0,B|344:48|296:32,1,84.0000020027161,8|2
240,80,321132,2,0,B|184:88|144:96,1,84.0000020027161,0|2
112,160,321432,1,8
112,160,321582,1,2
144,240,321732,6,0,B|232:272,1,84.0000020027161,2|0
248,184,322032,2,0,B|336:216,1,84.0000020027161,8|2
408,240,322332,2,2,B|464:262|464:262|441:399|302:319,1,252.000006008148,0|0
240,320,322932,6,0,B|200:336,3,42.0000010013581,2|0|0|0
160,328,323232,2,0,B|104:312,3,42.0000010013581,10|0|0|0
88,288,323532,2,2,B|64:208,1,84.0000020027161
144,200,323832,2,0,B|112:104,1,84.0000020027161,10|0
176,56,324132,6,0,B|208:152,1,84.0000020027161,2|0
264,80,324432,2,0,B|296:176,1,84.0000020027161,8|2
376,144,324732,2,0,B|416:168,3,42.0000010013581,2|0|0|0
448,200,325032,1,10
456,240,325107,1,0
440,280,325182,1,0
408,312,325257,1,0
368,320,325332,1,2
312,256,325482,6,0,B|272:240|216:232,2,84.0000020027161,2|10|2
112,152,326082,2,0,B|144:232,1,84.0000020027161,0|10
104,304,326382,2,0,B|152:328|200:296,1,84.0000020027161,0|2
256,256,326682,2,0,B|304:232|352:264,1,84.0000020027161,0|10
408,304,326982,1,0
440,96,327732,6,0,B|424:144|392:176,1,84.0000020027161,2|0
312,168,328032,2,0,B|272:152,3,42.0000010013581,10|0|0|0
256,112,328332,2,0,B|216:88|160:64,1,84.0000020027161,0|0
104,112,328632,2,0,B|88:160,3,42.0000010013581,10|0|0|0
64,184,328932,2,0,B|112:192|152:224,1,84.0000020027161,2|0
96,288,329232,2,0,B|128:320|184:328,1,84.0000020027161,10|0
256,320,329532,1,0
296,312,329607,1,0
328,288,329682,1,0
360,256,329757,1,0
376,216,329832,1,10
392,48,330132,6,0,B|368:80|344:128,1,84.0000020027161,2|0
280,176,330432,2,0,B|240:160,3,42.0000010013581,10|0|0|0
200,168,330732,2,0,B|176:208|184:264,1,84.0000020027161
112,296,331032,2,0,B|96:248,3,42.0000010013581,10|0|0|0
64,232,331332,2,0,B|80:192|72:136,1,84.0000020027161,2|0
128,80,331632,2,0,B|160:112|216:120,1,84.0000020027161,10|0
280,88,331932,1,0
320,96,332007,1,0
352,120,332082,1,0
368,160,332157,1,0
376,200,332232,2,0,B|368:304|288:336,1,168.000004005432,10|2
216,288,332682,5,0
136,312,332832,2,0,B|112:272,3,42.0000010013581,10|0|0|0
80,248,333132,1,0
56,168,333282,1,0
120,112,333432,2,0,B|168:160,3,42.0000010013581,10|0|2|0
192,152,333732,1,2
272,128,333882,1,0
344,168,334032,2,0,B|320:264,1,84.0000020027161,10|0
384,312,334332,1,0
424,304,334407,1,0
456,280,334482,1,0
480,248,334557,1,0
488,208,334632,2,0,B|501:140|416:120|392:160,1,140,10|2
344,72,334932,6,0,B|296:152,1,84.0000020027161,2|0
224,112,335232,2,0,B|176:80,3,42.0000010013581,10|0|0|0
144,80,335532,2,0,B|128:120|80:152,1,84.0000020027161
104,224,335832,2,0,B|152:272,3,42.0000010013581,2|0|2|0
168,280,336132,1,2
216,352,336282,1,0
296,320,336432,2,0,B|320:224,1,84.0000020027161,10|0
240,200,336732,1,0
264,168,336807,1,0
304,152,336882,1,0
344,152,336957,1,0
384,168,337032,1,10
192,112,337332,6,2,B|110:149|56:64,2,126.000003004074,2|8|2
344,48,338082,1,0
416,88,338232,2,0,B|440:128|456:184,1,84.0000020027161,10|0
496,240,338532,2,2,B|480:312|400:320,2,126.000003004074,2|8|2
248,160,339282,2,0,B|296:168|320:216,2,84.0000020027161,2|8|0
160,152,339732,2,2,B|120:208|40:192,2,126.000003004074,2|8|2
184,320,340482,2,0,B|112:272,2,84.0000020027161,0|10|0
264,288,340932,1,10
336,336,341082,2,0,B|432:304|416:200,1,168.000004005432,2|0
376,136,341532,6,0,B|344:168,3,42.0000010013581,10|0|0|0
304,152,341832,2,0,B|248:144,3,42.0000010013581,2|0|0|0
232,112,342132,2,2,B|168:80|96:128,2,126.000003004074,2|8|2
160,264,342882,1,0
208,336,343032,2,0,B|240:304|280:280,1,84.0000020027161,10|0
352,256,343332,2,2,B|416:224|408:152,2,126.000003004074,2|8|2
120,176,344082,1,0
120,176,344232,1,10
120,176,344382,1,0
80,104,344532,6,2,B|144:24|248:72,1,168.000004005432,10|8
304,104,344982,2,2,B|400:152|469:59,1,168.000004005432,10|8
472,160,345432,2,0,B|400:240,1,84.0000020027161,10|0
360,288,345732,5,0
360,288,345882,2,0,B|264:336|192:240,1,168.000004005432,10|8
144,200,346332,2,0,B|160:152,4,42.0000010013581,2|0|0|0|0
64,216,346782,1,0
40,136,346932,6,0,B|64:80,3,42.0000010013581,2|0|0|0
56,64,347232,2,0,B|82:23|144:32,1,84.0000020027161,10|0
136,112,347532,2,0,B|192:112|211:50,1,84.0000020027161
288,48,347832,1,10
288,48,347982,1,0
328,120,348132,6,0,B|376:136,3,42.0000010013581,2|0|0|0
408,120,348432,2,0,B|432:208,1,84.0000020027161,10|0
360,248,348732,2,0,B|384:336,2,84.0000020027161,0|0|10
192,264,349332,6,0,B|208:200,3,42.0000010013581,2|0|0|0
184,192,349632,2,0,B|152:112,1,84.0000020027161,10|0
80,72,349932,1,0
80,72,350082,1,0
48,152,350232,2,0,B|88:248,1,84.0000020027161,10|0
56,312,350532,6,0,B|104:302|136:344,1,84.0000020027161,2|0
216,352,350832,2,0,B|288:304,1,84.0000020027161,10|0
368,312,351132,2,0,B|416:312,3,42.0000010013581
448,312,351432,2,0,B|472:272|448:232,1,84.0000020027161,10|0
400,160,351732,5,2
424,80,351882,1,0
344,56,352032,2,0,B|296:56,3,42.0000010013581,10|0|0|0
264,40,352332,2,0,B|224:56|208:112,1,84.0000020027161,0|0
128,128,352632,2,0,B|160:168|152:232,1,84.0000020027161,10|0
200,280,352932,6,0,B|144:304,3,42.0000010013581,2|0|0|0
128,328,353232,2,0,B|80:320,3,42.0000010013581,10|0|0|0
56,296,353532,2,0,B|40:208,2,84.0000020027161,0|0|10
128,128,354132,6,0,B|208:96,1,84.0000020027161,2|0
272,152,354432,2,0,B|336:128,3,42.0000010013581,10|0|0|0
336,104,354732,2,0,B|392:111|400:184,1,84.0000020027161
464,208,355032,2,0,B|432:288,1,84.0000020027161,10|0
352,312,355332,6,0,B|336:262|272:256,1,84.0000020027161,2|0
216,296,355632,2,0,B|176:320,3,42.0000010013581,10|0|0|0
144,336,355932,2,0,B|96:328|56:264,2,84.0000020027161,2|2|12
344,64,356832,5,0
384,280,357132,1,10
168,320,357432,1,0
128,104,357732,2,2,B|176:32|272:32,1,168.000004005432,2|8
344,64,358182,1,2
280,304,358632,1,10
256,136,358932,6,0,B|296:168,3,42.0000010013581,2|0|0|0
328,152,359232,2,0,B|344:192,3,42.0000010013581,8|0|2|0
384,208,359532,2,0,B|360:296,1,84.0000020027161
432,336,359832,2,0,B|456:248,1,84.0000020027161,10|0
472,176,360132,6,0,B|448:128,3,42.0000010013581,2|0|0|0
448,96,360432,2,0,B|424:56|368:48,1,84.0000020027161,8|2
296,72,360732,2,0,B|208:72,1,84.0000020027161,2|2
128,64,361032,2,0,B|176:168,1,84.0000020027161,2|2
248,160,361332,5,2
248,160,361482,2,2,B|143:144|112:248,1,168.000004005432,10|8
128,320,361932,2,0,B|168:352|216:344,1,84.0000020027161,10|0
288,344,362232,2,0,B|306:305|328:248,1,84.0000020027161,2|0
392,216,362532,6,2,B|304:257|225:183,1,168.000004005432,2|8
248,112,362982,2,2,B|335:70|414:144,2,168.000004005432,2|8|10
112,96,363732,6,0,B|128:136,5,42.0000010013581,10|0|0|0|0|0
112,176,364182,2,0,B|152:224,5,42.0000010013581,10|0|0|0|0|0
160,248,364632,1,10
200,264,364707,1,8
240,256,364782,1,10
272,232,364857,1,8
296,200,364932,6,0,B|376:160,1,84.0000020027161,10|0
440,216,365232,2,0,B|360:256,1,84.0000020027161,8|2
312,320,365532,1,0
312,320,365682,1,0
232,344,365832,1,10
232,344,365982,1,8
112,328,366132,6,0,B|80:280,3,42.0000010013581,2|2|2|0
64,256,366432,2,0,B|96:160,1,84.0000020027161,10|0
128,104,366732,2,0,B|160:144|224:128,1,84.0000020027161
280,168,367032,2,0,B|288:120|344:96,1,84.0000020027161,10|0
432,112,367332,6,0,B|448:152,3,42.0000010013581,2|2|2|0
464,192,367632,2,0,B|432:280,1,84.0000020027161,8|0
368,216,367932,2,0,B|336:304,1,84.0000020027161
272,240,368232,2,0,B|232:336,1,84.0000020027161,10|0
160,344,368532,6,0,B|115:350|56:320,1,84.0000020027161,2|0
160,344,368832,2,2,B|80:288|144:192,1,168.000004005432,10|0
208,152,369282,1,0
288,152,369432,2,2,B|384:152|424:72,1,168.000004005432,10|2
344,40,369882,1,0
264,72,370032,2,0,B|176:104,1,84.0000020027161,8|2
112,56,370332,2,0,B|96:104,3,42.0000010013581,0|0|0|0
64,120,370632,2,0,B|80:168,3,42.0000010013581,2|0|0|8
72,200,370932,6,0,B|56:252|104:288,1,84.0000020027161,2|0
91,277,371232,1,0
176,296,371382,2,0,B|192:244|144:208,1,84.0000020027161,10|0
156,218,371682,1,0
192,144,371832,2,0,B|272:112,1,84.0000020027161,10|0
352,128,372132,5,10
432,160,372282,2,0,B|456:128|464:64,2,84.0000020027161,0|0|10
408,240,372732,2,0,B|344:312|248:264,1,168.000004005432,0|2
80,144,373332,5,2
152,104,373482,1,0
224,64,373632,1,8
296,112,373782,2,0,B|336:104|368:72,2,84.0000020027161,2|0|0
232,168,374232,2,0,B|192:176|160:208,1,84.0000020027161,10|0
184,288,374532,6,0,B|232:312,3,42.0000010013581,10|8|8|0
256,280,374832,2,0,B|312:288,3,42.0000010013581,10|8|8|0
336,264,375132,1,10
336,264,375207,1,8
336,264,375282,1,10
336,264,375357,1,8
336,264,375432,1,14
232,168,375732,6,0,B|280:104|424:224|472:168,2,252.000006008148,2|0|8
144,312,376932,5,2
168,64,377382,1,0
416,88,377832,1,8
280,192,378132,5,2
48,288,378582,1,0
280,192,379032,1,10
376,328,379332,5,2
344,80,379782,1,0
112,184,380232,2,0,B|112:232|128:272,1,84.0000020027161,10|0
184,328,380532,5,6
152,80,380982,1,0
400,56,381432,1,8
432,224,381732,5,2
272,24,382182,1,0
72,176,382632,1,8
152,328,382932,5,4
360,56,383532,1,4
360,272,384132,6,0,B|328:224,5,42.0000010013581
336,192,384582,2,0,B|280:176,5,42.0000010013581
272,144,385032,2,0,B|224:144,3,42.0000010013581
192,136,385332,5,2
336,48,385632,1,8
416,72,385782,2,0,B|480:136|448:240,1,168.000004005432,2|0
392,288,386232,2,0,B|296:272,1,84.0000020027161,2|0
240,336,386532,6,0,B|312:272|272:176,1,168.000004005432,2|0
296,104,386982,2,0,B|232:32|136:88,1,168.000004005432,2|0
80,144,387432,2,0,B|120:168|152:224,1,84.0000020027161,2|0
128,296,387732,6,0,B|136:208|224:168,1,168.000004005432,2|0
304,152,388182,1,2
456,224,388482,1,0
432,304,388632,2,0,B|352:328,1,84.0000020027161,2|0
272,360,388932,6,0,B|192:304|240:200,1,168.000004005432,2|0
312,176,389382,2,0,B|363:93|278:16,1,168.000004005432,2|0
200,32,389832,2,0,B|128:96,1,84.0000020027161,2|2
56,96,390132,6,0,B|50:204|182:219,1,168.000004005432,0|8
216,160,390582,2,0,B|280:72|392:144,1,168.000004005432,2|0
368,216,391032,2,0,B|395:250|408:304,1,84.0000020027161,10|0
480,320,391332,6,0,B|384:280|315:360,1,168.000004005432,2|8
248,320,391782,1,2
104,232,392082,1,0
104,152,392232,2,0,B|128:120|160:72,1,84.0000020027161,10|0
112,8,392532,6,0,B|152:88|264:72,1,168.000004005432,2|8
416,192,393132,6,0,B|310:120|224:280|96:192,1,336.000008010864,2|0
88,280,393882,6,8,B|128:320,2,42.0000010013581
211,331,394182,2,8,B|251:323,2,42.0000010013581
344,336,394482,1,8
424,304,394632,2,8,B|448:256,3,42.0000010013581
448,224,394932,6,2,B|400:138|286:154,1,168.000004005432,2|8
232,112,395382,1,0
160,168,395532,2,2,B|207:253|321:237,1,168.000004005432,2|8
376,280,395982,1,0
312,336,396132,2,0,B|266:326|184:344|144:336,1,168.000004005432,2|8
64,336,396582,2,0,B|8:264|120:168|56:88,1,252.000006008148,2|8
136,48,397182,1,0
192,112,397332,6,0,B|288:136|352:40,1,168.000004005432,6|8
424,56,397782,2,0,B|424:104|424:104|397:128|397:128|424:152|424:152|424:200,2,168.000004005432
496,104,398532,2,0,B|457:169|383:152|383:152|354:174,1,168.000004005432,2|8
270,174,398982,2,0,B|267:238|328:282|394:252,2,168.000004005432,10|8|0
272,88,399732,6,2,B|224:112|224:112|152:112|104:176,1,168.000004005432,6|8
40,176,400182,1,0
40,264,400332,2,2,B|88:240|88:240|160:240|208:176,1,168.000004005432,6|8
272,176,400782,1,0
352,144,400932,2,2,B|404:180|420:246|368:312,1,168.000004005432,2|8
312,344,401382,2,0,B|283:293|216:272|136:335,2,168.000004005432
392,328,402132,6,0,B|386:276|440:243,1,84.0000020027161,10|8
424,254,402432,2,0,B|430:202|376:169,1,84.0000020027161,0|10
400,96,402732,2,0,B|348:90|315:144,1,84.0000020027161,8|0
240,128,403032,2,0,B|240:168|264:240,1,84.0000020027161,2|0
200,280,403332,6,0,B|112:280,1,84.0000020027161,10|8
144,200,403632,2,0,B|56:200,1,84.0000020027161,0|10
88,120,403932,2,0,B|176:120,1,84.0000020027161,8|0
136,40,404232,2,0,B|224:40,1,84.0000020027161,10|0
304,40,404532,5,12
360,200,404832,2,0,B|400:166|457:193,1,84.0000020027161,10|8
408,264,405132,2,0,B|361:300|278:274|278:191,1,168.000004005432,2|8
312,136,405582,1,0
240,96,405732,2,0,B|181:105|142:183|202:241,1,168.000004005432,2|8
136,296,406182,1,2
304,272,406482,1,8
384,128,406782,1,0
448,184,406932,6,0,B|432:280,2,84.0000020027161,10|0|8
384,128,407382,2,0,B|344:152|256:104|216:128,2,168.000004005432,2|8|8
336,56,408132,1,0
256,48,408282,2,0,B|276:84|280:144,1,84.0000020027161
328,200,408582,2,0,B|272:128|167:149,1,168.000004005432,2|0
96,176,409032,2,0,B|72:211|64:256,1,84.0000020027161,10|0
96,328,409332,5,10
200,96,409782,1,10
392,256,410232,1,10
352,96,410532,5,10
296,160,410682,1,8
360,216,410832,1,8
416,152,410982,1,10
168,112,411432,1,10
256,256,411732,5,2
256,8,412182,1,0
344,240,412632,1,2
168,240,412932,1,2
256,8,413382,1,0
256,256,413832,1,2
344,112,414132,5,4
96,336,414732,1,2
72,168,415032,1,8
240,136,415332,1,2
264,304,415632,1,8
344,328,415782,2,0,B|448:304|432:200,1,168.000004005432,2|0
392,136,416232,1,10
256,232,416532,6,2,B|224:144|120:152,1,168.000004005432,2|8
56,200,416982,2,2,B|136:150|106:50,1,168.000004005432,2|0
184,32,417432,2,0,B|272:80,1,84.0000020027161,10|0
264,160,417732,2,0,B|252:56|348:15,1,168.000004005432,2|8
416,56,418182,5,2
416,224,418482,1,8
352,280,418632,1,2
352,280,418782,1,0
248,248,418932,5,4
128,112,419532,6,0,B|192:48|296:72,1,168.000004005432,2|8
248,248,420132,1,2
408,208,420432,1,8
336,168,420582,2,0,B|272:240|328:328,1,168.000004005432,2|0
248,352,421032,6,0,B|222:264|121:240,2,168.000004005432,10|0|10
248,352,421782,1,2
200,192,422082,1,0
176,112,422232,1,10
368,96,422532,2,0,B|280:144|288:240,1,168.000004005432,2|8
360,272,422982,2,2,B|448:224|440:128,1,168.000004005432
448,56,423432,2,0,B|408:8,3,42.0000010013581,10|8|8|8
376,16,423732,5,4
176,64,424032,6,0,B|96:104|88:200,1,168.000004005432,8|0
128,272,424482,1,0
208,240,424632,2,0,B|304:288,1,84.0000020027161,10|0
256,360,424932,2,0,B|300:274|400:280,1,168.000004005432,2|8
472,304,425382,1,2
424,144,425682,1,0
424,144,425832,1,10
280,64,426132,6,0,B|202:112|120:64,1,168.000004005432,2|8
88,144,426582,2,0,B|174:172|190:266,1,168.000004005432,2|0
264,304,427032,1,0
264,304,427332,1,4
440,48,427932,1,0
272,80,428232,1,10
248,160,428382,1,0
320,200,428532,6,0,B|368:168,5,42.0000010013581,10|8|8|0|8|0
392,152,428982,2,0,B|456:224,1,84.0000020027161,10|0
432,296,429282,1,0
360,336,429432,2,8,B|320:304,3,42.0000010013581,10|8|8|8
288,312,429732,6,0,B|264:264,5,42.0000010013581,10|8|8|0|8|0
240,248,430182,1,10
160,256,430332,1,0
96,200,430482,2,8,B|88:144,6,42.0000010013581,8|8|10|8|8|8|12
256,192,431007,12,0,432132
40,200,432432,1,0
120,192,432582,1,10
192,240,432732,1,0
216,320,432882,1,8
288,352,433032,2,0,B|332:342|368:288,1,84.0000020027161,2|0
440,288,433332,6,0,B|472:200|400:128,1,168.000004005432,2|8
416,48,433782,2,0,B|368:136|256:120,1,168.000004005432,2|0
200,80,434232,2,0,B|152:160,1,84.0000020027161,10|0
80,192,434532,6,0,B|72:288|160:336,1,168.000004005432,2|8
208,264,434982,2,0,B|272:192|368:240,1,168.000004005432,2|0
424,296,435432,2,0,B|459:264|480:208,1,84.0000020027161,10|0
448,144,435732,6,0,B|408:72,1,84.0000020027161,2|0
336,112,436032,2,0,B|240:112,1,84.0000020027161,10|0
184,64,436332,5,2
128,128,436482,1,0
168,200,436632,1,10
152,280,436782,1,8
256,328,436932,5,12
256,192,437007,12,4,438132
88,200,438432,5,0
88,200,438582,2,2,B|134:294|242:267,1,168.000004005432,2|8
296,232,439032,2,0,B|336:256|376:288,1,84.0000020027161,2|0
432,328,439332,6,2,B|506:275|485:172,1,168.000004005432,2|8
408,144,439782,2,2,B|310:177|245:76,1,168.000004005432,2|0
208,32,440232,1,10
64,112,440532,6,2,B|24:152|104:232|64:272,1,168.000004005432,2|8
152,264,440982,2,0,B|184:368|304:328,1,168.000004005432,2|0
296,248,441432,1,10
432,344,441732,2,2,B|336:280|528:128|432:32,1,336.000008010864,2|0
392,24,442407,2,8,B|344:64,6,42.0000010013581
328,80,442932,5,2
160,112,443232,1,8
112,48,443382,2,0,B|24:88|48:192,1,168.000004005432,2|0
72,264,443832,2,0,B|112:352|216:328,2,168.000004005432,10|0|8
112,192,444582,2,0,B|206:172|250:262,1,168.000004005432,2|0
312,320,445032,2,0,B|333:280|346:239,1,84.0000020027161,10|0
392,168,445332,6,0,B|296:160|224:120|184:24,2,252.000006008148,2|2|10
232,224,446532,5,10
152,248,446682,2,0,B|136:213|80:160,1,84.0000020027161
24,144,446982,1,10
48,64,447132,2,8,B|96:56,7,42.0000010013581,8|8|8|8|10|8|10|8
128,40,447732,6,0,B|212:85|207:175,1,168.000004005432,6|8
152,248,448182,2,0,B|232:177|318:250,1,168.000004005432,2|0
368,288,448632,1,2
368,288,448932,6,0,B|456:232|408:128,1,168.000004005432,2|0
496,120,449382,2,2,B|486:68|421:29|358:76,1,168.000004005432,2|0
296,120,449832,2,2,B|265:163|189:169|153:100,1,168.000004005432,2|2
232,72,450282,1,0
296,120,450432,2,0,B|312:160|344:200,1,84.0000020027161,0|2
144,328,450882,2,0,B|128:288|96:248,1,84.0000020027161,0|10
56,96,451332,6,2,B|112:168|232:16|288:96,1,252.000006008148,2|0
352,152,451932,1,8
408,216,452082,2,8,B|440:184,2,42.0000010013581
344,272,452382,2,8,B|296:264,1,42.0000010013581
264,256,452532,6,2,B|225:163|312:112,1,168.000004005432,14|0
392,144,452982,2,2,B|428:239|344:288,1,168.000004005432,14|0
280,344,453432,1,2
112,288,453732,5,2
112,288,453882,1,0
48,224,454032,2,0,B|72:192|120:152,1,84.0000020027161,0|2
112,80,454332,2,0,B|136:168|240:176,1,168.000004005432,0|2
368,72,454932,6,0,B|408:48,2,42.0000010013581,2|0|0
400,152,455232,2,0,B|344:184,2,42.0000010013581,0|0|2
464,208,455532,2,0,B|448:320,1,84.0000020027161
376,320,455832,2,0,B|392:208,1,84.0000020027161,2|0
304,224,456132,6,0,B|216:280|144:200,1,168.000004005432,10|0
72,240,456582,2,2,B|172:197|137:81,1,168.000004005432,10|2
104,32,457032,1,8
256,104,457332,1,8
256,192,457369,12,4,457932
256,192,457970,12,4,458532
256,192,458570,12,4,459132
160,144,459732,6,8,B|136:104,4,42.0000010013581,10|8|8|8|8
368,208,460332,6,8,B|408:184,4,42.0000010013581,10|8|8|8|8
184,320,460932,5,2
184,320,461007,1,0
184,320,461082,1,0
272,344,461232,2,0,B|320:312,3,42.0000010013581
352,312,461532,2,0,B|320:224,1,84.0000020027161
408,248,461832,2,0,B|376:160,1,84.0000020027161
296,152,462132,5,0
296,152,462207,1,0
296,152,462282,1,0
216,184,462432,2,0,B|160:168,3,42.0000010013581
136,160,462732,2,0,B|117:109|168:72,1,84.0000020027161
240,88,463032,2,0,B|272:56|328:48,1,84.0000020027161
400,56,463332,5,4
256,192,463407,12,4,470082
256,192,470307,5,4
