osu file format v14

[General]
AudioFilename: Dragonforce - My Spirit Will Go On (with images and lyrics) 2010.mp3
AudioLeadIn: 0
PreviewTime: 413250
Countdown: 0
SampleSet: Normal
StackLeniency: 0.7
Mode: 0
LetterboxInBreaks: 0
WidescreenStoryboard: 0

[Editor]
DistanceSpacing: 1
BeatDivisor: 4
GridSize: 4
TimelineZoom: 1.7

[Metadata]
Title:My Spirit Will Go On
TitleUnicode:My Spirit Will Go On
Artist:DragonForce
ArtistUnicode:DragonForce
Creator:DoKito
Version:Relentless
Source:
Tags:sonic firestorm dokolp metal rock death metal marathon speed
BeatmapID:648081
BeatmapSetID:287200

[Difficulty]
HPDrainRate:6
CircleSize:4.2
OverallDifficulty:9
ApproachRate:9.6
SliderMultiplier:2.1
SliderTickRate:2

[Events]
//Background and Video events
0,0,"horned-warrior-14734.jpg",0,0
//Break Periods
//Storyboard Layer 0 (Background)
//Storyboard Layer 1 (Fail)
//Storyboard Layer 2 (Pass)
//Storyboard Layer 3 (Foreground)
//Storyboard Sound Samples

[TimingPoints]
155,300,4,1,1,75,1,0
19355,-166.666666666667,4,1,1,45,0,0
24155,-125,4,1,1,50,0,0
28955,-100,4,1,1,60,0,0
38855,-100,4,1,0,60,0,0
40955,-100,4,1,1,60,0,0
49355,-100,4,1,0,60,0,0
50555,-83.3333333333333,4,1,0,60,0,0
61355,-100,4,1,0,65,0,0
109355,-83.3333333333333,4,1,0,65,0,0
128555,-100,4,1,0,65,0,0
151205,-100,4,1,0,20,0,0
151355,-100,4,1,0,65,0,0
199355,-83.3333333333333,4,1,0,80,0,1
218555,-100,4,1,0,65,0,0
241205,-100,4,1,0,20,0,0
241355,-166.666666666667,4,1,1,40,0,0
246155,-125,4,1,1,50,0,0
250955,-100,4,1,1,60,0,0
255505,-100,4,1,1,30,0,0
255755,-100,4,1,1,60,0,0
260555,352.941176470588,4,1,0,65,1,0
277755,-100,4,1,0,30,0,0
277844,-100,4,1,0,65,0,0
277932,-100,4,1,0,30,0,0
278020,-100,4,1,0,65,0,0
283138,-83.3333333333333,4,1,0,65,0,0
284594,-83.3333333333333,4,1,1,30,0,0
284726,-83.3333333333333,4,1,0,65,0,0
284770,-83.3333333333333,4,1,1,30,0,0
284902,-83.3333333333333,4,1,0,65,0,0
284947,-83.3333333333333,4,1,1,30,0,0
285079,-83.3333333333333,4,1,0,65,0,0
293020,-83.3333333333333,4,1,1,55,0,0
294437,300,4,1,0,65,1,0
297737,-83.3333333333333,4,1,0,25,0,0
298037,-71.4285714285714,4,1,0,65,0,0
317237,-100,4,1,0,65,0,0
319637,-71.4285714285714,4,1,0,65,0,0
322037,-100,4,1,0,65,0,0
324737,-100,4,1,0,65,0,0
326837,-71.4285714285714,4,1,0,65,0,0
364712,-71.4285714285714,4,1,0,35,0,0
364787,-71.4285714285714,4,1,0,65,0,0
365387,-71.4285714285714,4,1,0,45,0,0
365537,-71.4285714285714,4,1,0,65,0,0
365762,-71.4285714285714,4,1,0,35,0,0
365837,-71.4285714285714,4,1,0,65,0,0
366062,-71.4285714285714,4,1,0,35,0,0
366137,-71.4285714285714,4,1,0,65,0,0
366362,-71.4285714285714,4,1,0,35,0,0
366437,-71.4285714285714,4,1,0,65,0,0
366512,-71.4285714285714,4,1,0,35,0,0
366587,-71.4285714285714,4,1,0,65,0,0
366662,-71.4285714285714,4,1,0,35,0,0
366737,-71.4285714285714,4,1,0,65,0,0
366962,-71.4285714285714,4,1,0,35,0,0
367037,-71.4285714285714,4,1,0,65,0,0
367262,-71.4285714285714,4,1,0,35,0,0
367337,-71.4285714285714,4,1,0,65,0,0
367562,-71.4285714285714,4,1,0,35,0,0
367637,-71.4285714285714,4,1,0,65,0,0
374837,-83.3333333333333,4,1,0,65,0,0
378437,-71.4285714285714,4,1,0,65,0,0
379637,-62.5,4,1,0,65,0,0
380837,-71.4285714285714,4,1,0,65,0,0
389237,-62.5,4,1,0,65,0,0
390437,-71.4285714285714,4,1,0,65,0,0
410837,-71.4285714285714,4,1,0,55,0,0
413237,-71.4285714285714,4,1,0,80,0,1
437237,-83.3333333333333,4,1,0,65,0,0
456437,-80,4,1,0,65,0,0
457037,-66.6666666666667,4,1,0,65,0,0
457637,-57.1428571428571,4,1,0,65,0,0
458237,-50,4,1,0,65,0,0
460037,-80,4,1,0,65,0,0
460337,-80,4,1,0,55,0,0
462437,342.857142857143,4,1,0,65,1,0
462437,-200,4,1,0,65,0,0
462450,-133.333333333333,4,1,0,65,0,0
465179,600,4,1,0,65,1,0
465779,571.428571428571,4,1,0,65,1,0
466350,480,4,1,0,65,1,0
466470,461.538461538462,4,1,0,65,1,0
466702,631.578947368421,4,1,0,65,1,0
467333,461.538461538462,4,1,0,65,1,0
467794,571.428571428571,4,1,0,65,1,0
468079,631.578947368421,4,1,0,65,1,0
468394,845.070422535211,4,1,0,65,1,0
469239,444.444444444444,4,1,0,65,1,0
469461,-100,4,1,0,65,0,0
469575,-100,4,1,0,50,0,0
469950,-100,4,1,0,30,0,0
470350,-100,4,1,0,15,0,0

[Colours]
Combo1 : 160,188,205
Combo2 : 205,205,205
Combo3 : 94,124,183
Combo4 : 141,239,239

[HitObjects]
48,284,19355,5,4,0:0:0:0:
116,320,19505,1,0,0:0:0:0:
196,320,19655,1,0,0:0:0:0:
260,276,19805,1,0,0:0:0:0:
296,208,19955,2,0,P|312:168|300:124,1,62.9999980773926,2|0,0:2|0:0,0:0:0:0:
188,16,20255,2,0,P|172:56|184:100,1,62.9999980773926,2|0,0:2|0:0,0:0:0:0:
260,276,20555,5,8,0:3:0:0:
336,288,20705,1,0,0:0:0:0:
400,248,20855,1,0,0:0:0:0:
436,180,21005,1,0,0:0:0:0:
424,104,21155,2,0,L|388:40,1,62.9999980773926,2|0,0:2|0:0,0:0:0:0:
180,48,21455,2,0,L|150:103,1,62.9999980773926,2|0,0:2|0:0,0:0:0:0:
36,196,21755,5,8,0:3:0:0:
80,260,21905,1,0,0:0:0:0:
160,264,22055,1,0,0:0:0:0:
224,312,22205,1,0,0:0:0:0:
300,292,22355,2,0,B|332:272|332:272|372:280,1,62.9999980773926,2|0,0:2|0:0,0:0:0:0:
136,340,22655,2,0,B|104:360|104:360|64:352,1,62.9999980773926,2|0,0:2|0:0,0:0:0:0:
160,264,22955,5,8,0:3:0:0:
116,200,23105,1,0,0:0:0:0:
120,120,23255,1,0,0:0:0:0:
164,56,23405,1,0,0:0:0:0:
236,24,23555,2,0,P|280:32|312:16,1,62.9999980773926,2|0,0:2|0:0,0:0:0:0:
392,172,23855,2,0,P|362:163|331:169,1,62.9999980773926,2|0,0:2|0:0,0:0:0:0:
436,240,24155,5,8,0:3:0:0:
504,288,24305,1,0,0:0:0:0:
484,368,24455,1,0,0:0:0:0:
400,376,24605,1,0,0:0:0:0:
368,296,24755,2,0,P|324:284|288:292,1,84,2|0,0:2|0:0,0:0:0:0:
72,220,25055,2,0,P|116:232|152:224,1,84,2|0,0:2|0:0,0:0:0:0:
8,120,25355,5,8,0:3:0:0:
48,44,25505,1,0,0:0:0:0:
128,16,25655,1,0,0:0:0:0:
208,44,25805,1,0,0:0:0:0:
252,116,25955,2,0,L|320:168,1,84,2|0,0:2|0:0,0:0:0:0:
120,172,26255,2,0,L|53:120,1,84,2|0,0:2|0:0,0:0:0:0:
248,176,26555,5,8,0:3:0:0:
248,176,26705,1,0,0:0:0:0:
204,256,26855,1,0,0:0:0:0:
204,256,27005,1,0,0:0:0:0:
280,308,27155,2,0,P|328:324|364:312,1,84,2|0,0:2|0:0,0:0:0:0:
508,196,27455,2,0,P|460:180|424:192,1,84,2|0,0:2|0:0,0:0:0:0:
240,228,27755,5,8,0:3:0:0:
324,236,27905,1,0,0:0:0:0:
284,160,28055,1,0,0:0:0:0:
328,88,28205,1,0,0:0:0:0:
244,84,28355,2,0,B|200:88|200:88|164:72,1,84,2|0,0:2|0:0,0:0:0:0:
240,228,28655,2,0,B|284:224|284:224|320:240,1,84,2|0,0:2|0:0,0:0:0:0:
104,168,28955,6,0,P|120:224|108:272,1,105,6|0,0:0|0:0,0:0:0:0:
12,224,29255,1,2,0:3:0:0:
192,300,29405,2,0,P|160:344|108:360,1,105,2|0,0:0|0:0,0:0:0:0:
20,132,29705,1,0,0:0:0:0:
264,268,29855,2,0,L|368:228,1,105,2|0,0:0|0:0,0:0:0:0:
256,72,30155,5,6,0:0:0:0:
196,220,30305,1,0,0:0:0:0:
316,164,30455,1,2,0:3:0:0:
120,160,30605,2,0,P|100:216|112:268,1,105,2|0,0:0|0:0,0:0:0:0:
256,368,30905,1,0,0:0:0:0:
392,224,31055,2,0,P|412:168|400:116,1,105,2|0,0:0|0:0,0:0:0:0:
256,32,31355,5,6,0:0:0:0:
192,220,31505,1,0,0:0:0:0:
384,224,31655,1,2,0:3:0:0:
112,156,31805,2,0,P|88:212|100:260,1,105,2|0,0:0|0:0,0:0:0:0:
216,364,32105,1,0,0:0:0:0:
368,312,32255,2,0,P|432:304|464:268,1,105,2|0,0:0|0:0,0:0:0:0:
488,88,32555,5,6,0:0:0:0:
264,56,32705,1,0,0:0:0:0:
296,264,32855,1,2,0:3:0:0:
425,126,33005,2,0,L|500:52,1,105,2|0,0:0|0:0,0:0:0:0:
256,192,33305,1,0,0:0:0:0:
86,126,33455,2,0,L|12:52,1,105,2|0,0:0|0:0,0:0:0:0:
100,216,33755,6,0,P|152:192|172:148,1,105,6|0,0:0|0:0,0:0:0:0:
136,16,34055,1,2,0:3:0:0:
44,280,34205,2,0,P|92:304|140:296,1,105,2|0,0:0|0:0,0:0:0:0:
256,104,34505,1,0,0:0:0:0:
371,295,34655,2,0,P|422:303|468:280,1,105,2|0,0:0|0:0,0:0:0:0:
468,104,34955,6,0,P|422:80|371:88,1,105,6|0,0:0|0:0,0:0:0:0:
256,284,35255,1,2,0:3:0:0:
468,104,35405,2,0,L|388:28,1,105,2|0,0:0|0:0,0:0:0:0:
256,192,35705,1,0,0:0:0:0:
44,280,35855,2,0,L|120:352,1,105,2|0,0:0|0:0,0:0:0:0:
108,144,36155,5,6,0:0:0:0:
184,260,36305,1,0,0:0:0:0:
328,260,36455,1,2,0:3:0:0:
404,144,36605,2,0,P|452:116|500:128,1,105,2|0,0:0|0:0,0:0:0:0:
456,288,36905,1,0,0:0:0:0:
256,336,37055,2,0,L|256:228,1,105,2|0,0:0|0:0,0:0:0:0:
256,52,37355,5,6,0:0:0:0:
184,260,37505,1,0,0:0:0:0:
376,144,37655,1,2,0:3:0:0:
136,144,37805,1,2,0:0:0:0:
328,260,37955,1,0,0:0:0:0:
256,24,38105,1,0,0:0:0:0:
164,292,38255,1,2,0:0:0:0:
428,144,38405,1,0,0:0:0:0:
84,144,38555,6,0,L|32:144,3,52.5,6|0|0|0,0:0|0:0|0:0|0:0,0:0:0:0:
56,236,38855,2,0,L|12:272,3,52.5,4|0|0|0,3:0|0:0|0:0|0:0,0:0:0:0:
104,320,39155,1,4,3:0:0:0:
148,348,39230,1,0,0:0:0:0:
200,360,39305,1,0,0:0:0:0:
252,356,39380,1,0,0:0:0:0:
300,332,39455,1,4,3:0:0:0:
336,288,39530,1,0,0:0:0:0:
348,232,39605,1,0,0:0:0:0:
336,180,39680,1,0,0:0:0:0:
304,136,39755,1,4,0:0:0:0:
56,44,40055,5,4,0:0:0:0:
220,232,40355,1,4,0:2:0:0:
408,88,40655,1,4,0:0:0:0:
56,192,40955,5,6,0:0:0:0:
120,280,41105,1,2,0:0:0:0:
120,280,41180,1,0,0:0:0:0:
120,280,41255,1,0,0:3:0:0:
220,232,41405,1,2,0:0:0:0:
180,48,41555,2,0,P|152:92|168:148,1,105,0|0,0:0|0:0,0:0:0:0:
256,312,41855,1,2,0:0:0:0:
356,196,42005,1,0,0:0:0:0:
256,72,42155,6,0,L|156:24,1,105,6|0,0:0|0:0,0:0:0:0:
52,224,42455,1,0,0:3:0:0:
356,196,42605,2,0,P|400:160|416:108,2,105,2|0|0,0:0|0:0|0:0,0:0:0:0:
252,208,43055,1,2,0:0:0:0:
176,280,43205,1,0,0:0:0:0:
375,336,43355,6,0,P|371:276|251:208,1,210,6|0,0:0|0:3,0:0:0:0:
228,107,43805,2,2,B|332:119|332:119|428:75,1,210,2|0,0:0|0:0,0:0:0:0:
464,164,44255,1,2,0:0:0:0:
424,260,44405,1,0,0:0:0:0:
256,340,44555,6,0,L|152:320,1,105,6|0,0:0|0:0,0:0:0:0:
48,192,44855,2,0,L|152:172,1,105,0|0,0:3|0:0,0:0:0:0:
256,32,45155,1,2,0:0:0:0:
268,52,45230,1,0,0:0:0:0:
280,68,45305,1,0,0:0:0:0:
292,84,45380,1,0,0:0:0:0:
304,100,45455,1,2,0:0:0:0:
316,116,45530,1,0,0:0:0:0:
328,132,45605,1,0,0:0:0:0:
340,148,45680,1,0,0:0:0:0:
352,164,45755,6,0,P|376:216|356:268,1,105,6|0,0:0|0:0,0:0:0:0:
268,216,46055,1,0,0:3:0:0:
268,216,46130,1,0,0:0:0:0:
268,216,46205,1,2,0:0:0:0:
448,300,46355,1,0,0:0:0:0:
432,100,46505,1,0,0:0:0:0:
256,120,46655,1,2,0:0:0:0:
380,224,46805,1,0,0:0:0:0:
284,40,46955,6,0,P|228:36|188:64,1,105,6|0,0:0|0:0,0:0:0:0:
352,300,47255,2,0,P|408:304|448:276,1,105,0|0,0:3|0:0,0:0:0:0:
288,232,47555,1,2,0:0:0:0:
188,196,47705,1,0,0:0:0:0:
92,240,47855,1,2,0:0:0:0:
52,336,48005,1,0,0:0:0:0:
156,324,48155,6,2,L|88:120,1,210,6|0,0:0|0:3,0:0:0:0:
176,68,48605,2,2,L|242:267,1,210,6|0,0:0|0:0,0:0:0:0:
324,336,49055,2,0,P|376:336|412:296,1,105,2|0,0:0|0:0,0:0:0:0:
452,204,49355,5,6,0:0:0:0:
448,152,49430,1,0,0:0:0:0:
424,108,49505,1,0,0:0:0:0:
376,84,49580,1,0,0:0:0:0:
324,84,49655,2,0,L|268:104,1,52.5,4|0,3:0|0:0,0:0:0:0:
260,200,49805,2,0,L|210:217,1,52.5,2|0,3:0|0:0,0:0:0:0:
116,236,49955,5,4,3:0:0:0:
64,224,50030,1,0,0:0:0:0:
28,184,50105,1,0,0:0:0:0:
20,132,50180,1,0,0:0:0:0:
40,84,50255,2,0,L|88:40,1,52.5,4|0,3:3|0:0,0:0:0:0:
240,48,50405,2,0,L|192:92,1,52.5,8|0,0:3|0:0,0:0:0:0:
108,152,50555,6,0,P|80:208|104:268,1,125.999996154785,6|0,0:0|0:0,0:0:0:0:
280,336,50855,1,0,0:0:0:0:
400,140,51005,1,0,0:0:0:0:
232,180,51155,1,2,0:0:0:0:
232,180,51230,1,0,0:0:0:0:
232,180,51305,1,0,0:0:0:0:
476,184,51455,2,0,P|484:116|452:72,1,125.999996154785,2|0,0:0|0:0,0:0:0:0:
172,224,51755,6,0,L|128:348,1,125.999996154785,6|0,0:0|0:0,0:0:0:0:
340,192,52055,1,0,0:0:0:0:
192,100,52205,2,2,B|184:92|184:92|164:108|164:108|144:100|144:100|110:128|20:140|0:44|36:8,1,251.999992309571,2|0,0:0|0:0,0:0:0:0:
16,196,52655,1,6,0:0:0:0:
16,196,52730,1,0,0:0:0:0:
16,196,52805,1,0,0:0:0:0:
116,320,52955,6,2,P|196:336|240:200,1,251.999992309571,6|0,0:0|0:3,0:0:0:0:
172,252,53405,2,2,B|284:312|284:312|404:280,1,251.999992309571,2|0,0:0|0:0,0:0:0:0:
340,120,53855,1,2,0:0:0:0:
500,180,54005,1,0,0:0:0:0:
280,192,54155,2,2,B|268:176|268:176|248:180|248:180|232:172|232:172|220:180|220:180|188:112|188:112|160:152|120:152|96:132,1,251.999992309571,2|0,0:0|0:3,0:0:0:0:
28,48,54605,1,0,0:0:0:0:
0,156,54755,5,2,0:0:0:0:
8,204,54830,1,0,0:0:0:0:
40,244,54905,1,0,0:0:0:0:
88,260,54980,1,0,0:0:0:0:
140,256,55055,1,2,0:0:0:0:
188,240,55130,1,0,0:0:0:0:
240,240,55205,1,0,0:0:0:0:
288,256,55280,1,0,0:0:0:0:
324,292,55355,6,0,P|380:324|440:308,1,125.999996154785,6|0,0:0|0:0,0:0:0:0:
356,200,55655,1,0,0:3:0:0:
212,344,55805,1,2,0:0:0:0:
96,172,55955,1,0,0:0:0:0:
96,172,56030,1,0,0:0:0:0:
96,172,56105,1,0,0:0:0:0:
428,152,56255,2,0,P|420:88|368:52,1,125.999996154785,2|0,0:0|0:0,0:0:0:0:
148,304,56555,6,2,P|264:260|316:128,1,251.999992309571,6|0,0:0|0:3,0:0:0:0:
256,56,57005,1,0,0:0:0:0:
195,149,57155,2,2,P|248:260|364:304,1,251.999992309571,6|0,0:0|0:3,0:0:0:0:
256,56,57605,1,0,0:0:0:0:
148,304,57755,5,6,0:0:0:0:
116,264,57830,1,0,0:0:0:0:
84,224,57905,1,0,0:0:0:0:
52,188,57980,1,0,0:0:0:0:
20,148,58055,2,0,P|21:120|32:80,1,62.9999980773926,4|0,3:0|0:0,0:0:0:0:
156,36,58205,2,0,P|155:64|144:104,1,62.9999980773926,2|0,3:0|0:0,0:0:0:0:
236,172,58355,5,4,3:0:0:0:
284,156,58430,1,0,0:0:0:0:
320,120,58505,1,0,3:0:0:0:
328,72,58580,1,0,0:0:0:0:
320,24,58655,2,0,L|388:8,1,62.9999980773926,2|0,0:0|0:0,0:0:0:0:
484,108,58805,2,0,L|416:92,1,62.9999980773926,0|0,0:0|0:0,0:0:0:0:
296,172,58955,5,6,0:0:0:0:
280,220,59030,1,0,0:0:0:0:
292,268,59105,1,0,0:0:0:0:
328,304,59180,1,0,0:0:0:0:
376,320,59255,1,4,3:0:0:0:
428,316,59330,1,0,0:0:0:0:
472,288,59405,2,0,L|484:224,5,62.9999980773926,2|0|4|0|0|0,0:0|0:0|0:0|0:0|0:0|0:0,0:0:0:0:
380,240,59855,2,0,L|368:304,3,62.9999980773926,6|0|0|0,0:0|0:0|0:0|0:0,0:0:0:0:
296,172,60155,1,6,0:0:0:0:
296,172,61355,6,0,P|256:136|208:136,1,105,6|0,0:0|0:0,0:0:0:0:
120,248,61655,2,0,L|112:304,2,52.5,4|0|0,0:3|0:0|0:0,0:0:0:0:
232,256,61955,1,2,0:0:0:0:
88,148,62105,1,0,0:0:0:0:
216,116,62255,2,0,L|296:44,1,105,4|0,3:0|0:0,0:0:0:0:
400,168,62555,2,0,P|456:152|504:168,1,105,2|0,0:0|0:0,0:0:0:0:
316,316,62855,1,4,3:0:0:0:
168,232,63005,2,0,L|64:264,1,105,2|0,0:0|0:0,0:0:0:0:
216,116,63305,1,0,0:0:0:0:
352,144,63455,5,4,3:0:0:0:
300,276,63605,1,0,0:0:0:0:
300,276,63755,2,0,B|352:296|352:296|400:280,1,105,6|0,0:0|0:0,0:0:0:0:
472,208,64055,1,4,3:0:0:0:
488,104,64205,2,0,B|504:52|504:52|488:4,1,105,2|0,0:0|0:0,0:0:0:0:
396,112,64505,1,0,0:0:0:0:
292,24,64655,2,0,B|276:72|276:72|292:124,1,105,4|0,3:0|0:0,0:0:0:0:
392,296,64955,5,0,0:0:0:0:
256,232,65105,1,2,0:0:0:0:
256,232,65180,1,0,0:0:0:0:
256,232,65255,1,4,3:0:0:0:
144,332,65405,2,0,L|92:360,1,52.5,2|0,0:0|0:0,0:0:0:0:
128,220,65555,2,0,L|72:216,3,52.5,0|0|0|0,0:0|0:0|0:0|0:0,0:0:0:0:
28,200,65855,1,4,3:0:0:0:
0,156,65930,1,0,3:0:0:0:
0,104,66005,1,8,0:3:0:0:
36,64,66080,1,8,3:0:0:0:
88,56,66155,6,0,P|140:64|184:40,1,105,6|0,0:0|0:0,0:0:0:0:
312,144,66455,1,4,3:0:0:0:
344,188,66530,1,0,0:0:0:0:
380,228,66605,2,0,L|380:332,1,105,2|0,0:0|0:0,0:0:0:0:
256,344,66905,1,0,0:0:0:0:
476,324,67055,1,4,3:0:0:0:
496,276,67130,1,0,0:0:0:0:
504,224,67205,1,8,3:0:0:0:
500,172,67280,1,0,0:0:0:0:
472,128,67355,6,0,L|400:40,1,105,6|0,0:0|0:0,0:0:0:0:
256,236,67655,1,4,3:0:0:0:
106,46,67805,2,0,L|40:128,1,105,2|0,0:0|0:0,0:0:0:0:
256,152,68105,1,2,0:2:0:0:
408,252,68255,2,0,P|432:304|408:360,1,105,2|0,0:0|0:0,0:0:0:0:
104,252,68555,6,0,L|48:252,7,52.5,6|0|0|0|4|0|0|0,0:0|0:0|0:0|0:0|3:0|0:0|0:0|0:0,0:0:0:0:
172,308,69155,2,0,L|224:308,1,52.5,2|0,0:0|0:0,0:0:0:0:
216,220,69305,2,0,L|276:200,5,52.5,2|0|4|0|8|0,0:0|0:0|3:0|0:0|3:0|0:0,0:0:0:0:
168,192,69755,5,6,0:0:0:0:
144,144,69830,1,0,0:0:0:0:
148,92,69905,1,0,0:0:0:0:
180,52,69980,1,0,0:0:0:0:
228,32,70055,2,0,L|288:20,1,52.5,4|0,3:0|0:0,0:0:0:0:
416,128,70205,5,0,0:0:0:0:
368,152,70280,1,0,0:0:0:0:
336,196,70355,1,4,3:0:0:0:
332,248,70430,1,0,0:0:0:0:
352,296,70505,1,4,3:0:0:0:
392,328,70580,1,8,3:0:0:0:
444,344,70655,2,0,L|500:352,1,52.5,6|0,0:0|0:0,0:0:0:0:
304,364,70805,2,0,L|248:380,1,52.5,8|0,3:0|0:0,0:0:0:0:
360,256,70955,6,0,P|344:204|296:176,1,105,6|0,0:0|0:0,0:0:0:0:
200,192,71255,1,4,3:0:0:0:
116,132,71405,2,0,L|24:56,2,105,2|0|0,0:0|0:0|0:0,0:0:0:0:
112,236,71855,1,4,3:0:0:0:
116,288,71930,1,0,0:0:0:0:
148,328,72005,1,8,3:0:0:0:
196,348,72080,1,0,0:0:0:0:
248,344,72155,6,0,L|356:320,1,105,6|0,0:0|0:0,0:0:0:0:
508,212,72455,1,4,3:0:0:0:
508,212,72605,2,0,L|400:188,1,105,2|0,0:0|0:0,0:0:0:0:
168,128,72905,1,0,0:0:0:0:
304,40,73055,1,4,3:0:0:0:
312,92,73130,1,0,0:0:0:0:
312,144,73205,1,8,3:0:0:0:
300,196,73280,1,0,0:0:0:0:
280,244,73355,6,0,L|228:348,1,105,6|0,0:0|0:0,0:0:0:0:
80,368,73655,1,4,3:0:0:0:
264,140,73805,2,0,P|324:148|364:188,1,105,2|0,0:0|0:0,0:0:0:0:
256,348,74105,1,0,0:0:0:0:
144,224,74255,1,4,3:0:0:0:
144,224,74330,1,0,0:0:0:0:
144,224,74405,1,0,0:0:0:0:
356,272,74555,6,0,P|408:256|420:116,1,210,6|4,0:0|3:0,0:0:0:0:
316,32,75005,1,2,0:0:0:0:
284,40,75080,1,0,0:0:0:0:
252,48,75155,1,0,0:0:0:0:
220,56,75230,1,0,0:0:0:0:
188,64,75305,1,0,0:0:0:0:
156,72,75380,1,0,0:0:0:0:
124,80,75455,2,0,L|68:80,3,52.5,4|0|8|0,3:0|0:0|3:0|0:0,0:0:0:0:
104,168,75755,6,0,P|56:192|44:252,1,105,6|0,0:0|0:0,0:0:0:0:
256,340,76055,1,4,3:0:0:0:
470,238,76205,2,0,P|454:189|408:168,1,105,2|0,0:0|0:0,0:0:0:0:
172,252,76505,5,0,0:0:0:0:
340,252,76655,1,4,3:0:0:0:
356,224,76730,1,0,0:0:0:0:
368,196,76805,1,8,3:0:0:0:
380,168,76880,1,0,0:0:0:0:
392,140,76955,6,0,P|408:88|388:40,1,105,6|0,0:0|0:0,0:0:0:0:
184,104,77255,1,4,3:0:0:0:
352,264,77405,2,0,P|416:276|452:252,1,105,2|0,0:0|0:0,0:0:0:0:
300,32,77705,1,0,0:0:0:0:
232,272,77855,2,0,L|180:368,1,105,4|0,3:0|0:0,0:0:0:0:
72,272,78155,6,0,L|20:292,3,52.5,6|0|0|0,0:0|0:0|0:0|0:0,0:0:0:0:
128,196,78455,2,0,L|180:216,3,52.5,4|0|2|0,3:0|0:0|0:0|0:0,0:0:0:0:
72,124,78755,2,0,L|20:144,3,52.5,4|0|0|0,3:0|0:0|0:0|0:0,0:0:0:0:
128,52,79055,2,0,L|180:72,3,52.5,4|0|8|0,3:0|0:0|3:0|0:0,0:0:0:0:
228,88,79355,5,6,0:0:0:0:
280,96,79430,1,0,0:0:0:0:
332,88,79505,1,0,0:0:0:0:
380,68,79580,1,0,0:0:0:0:
420,104,79655,1,4,3:0:0:0:
428,156,79730,1,0,0:0:0:0:
412,208,79805,1,0,0:0:0:0:
372,244,79880,1,0,0:0:0:0:
328,256,79955,6,0,L|272:284,1,52.5,4|0,3:0|0:0,0:0:0:0:
184,152,80105,2,0,L|161:106,1,52.5,8|0,3:0|0:0,0:0:0:0:
348,152,80255,2,0,L|292:180,1,52.5,0|0,3:0|0:0,0:0:0:0:
148,260,80405,2,0,L|124:213,1,52.5,8|0,3:0|0:0,0:0:0:0:
80,112,80555,5,4,0:0:0:0:
44,116,80630,1,0,0:0:0:0:
16,140,80705,1,0,0:0:0:0:
0,176,80780,1,0,0:0:0:0:
0,212,80855,1,4,3:0:0:0:
12,248,80930,1,0,0:0:0:0:
44,268,81005,1,0,0:0:0:0:
80,272,81080,1,0,0:0:0:0:
116,260,81155,1,4,0:3:0:0:
148,280,81230,1,0,0:0:0:0:
176,300,81305,1,0,0:0:0:0:
212,296,81380,1,0,0:0:0:0:
248,288,81455,1,4,3:0:0:0:
284,280,81530,1,0,0:0:0:0:
312,260,81605,1,0,0:0:0:0:
332,228,81680,1,0,0:0:0:0:
332,192,81755,5,4,0:0:0:0:
316,160,81830,1,0,0:0:0:0:
288,136,81905,1,0,0:0:0:0:
252,124,81980,1,0,0:0:0:0:
260,88,82055,1,4,3:0:0:0:
284,60,82130,1,0,0:0:0:0:
316,44,82205,1,0,0:0:0:0:
352,36,82280,1,0,0:0:0:0:
388,36,82355,1,4,3:0:0:0:
420,52,82430,1,0,0:0:0:0:
448,76,82505,1,0,0:0:0:0:
464,108,82580,1,0,0:0:0:0:
472,144,82655,1,4,3:0:0:0:
468,180,82730,1,0,0:0:0:0:
452,212,82805,1,8,3:0:0:0:
424,236,82880,1,0,0:0:0:0:
388,244,82955,6,0,B|328:248|328:248|292:284,1,105,6|0,0:0|0:0,0:0:0:0:
124,140,83255,2,0,B|184:136|184:136|215:104,1,105,4|0,3:0|0:0,0:0:0:0:
36,104,83555,5,2,0:0:0:0:
52,196,83705,2,0,L|52:304,1,105,2|4,0:0|3:0,0:0:0:0:
144,284,84005,2,0,P|180:332|272:320,1,157.5,6|0,0:0|2:0,0:0:0:0:
284,276,84305,2,0,L|360:136,1,157.5,2|0,0:0|2:0,0:0:0:0:
344,92,84605,2,0,P|304:60|300:8,1,105,2|0,0:0|0:0,0:0:0:0:
464,16,84905,1,0,0:0:0:0:
256,152,85055,2,0,L|256:208,2,52.5,4|0|8,3:0|0:0|3:0,0:0:0:0:
168,76,85355,5,4,0:0:0:0:
136,60,85430,1,0,0:0:0:0:
100,56,85505,1,0,0:0:0:0:
64,64,85580,1,0,0:0:0:0:
72,100,85655,1,4,3:0:0:0:
64,136,85730,1,0,0:0:0:0:
40,164,85805,1,0,0:0:0:0:
28,200,85880,1,0,0:0:0:0:
28,236,85955,1,4,3:0:0:0:
44,268,86030,1,0,0:0:0:0:
72,292,86105,1,0,0:0:0:0:
108,304,86180,1,0,0:0:0:0:
144,304,86255,1,4,3:0:0:0:
180,292,86330,1,0,0:0:0:0:
208,272,86405,1,0,0:0:0:0:
232,244,86480,1,0,0:0:0:0:
256,268,86555,5,4,3:0:0:0:
292,280,86630,1,0,0:0:0:0:
328,284,86705,1,8,3:0:0:0:
364,276,86780,1,0,0:0:0:0:
392,252,86855,1,4,3:0:0:0:
412,220,86930,1,0,0:0:0:0:
420,184,87005,1,0,0:0:0:0:
412,148,87080,1,0,0:0:0:0:
392,116,87155,1,4,3:0:0:0:
364,96,87230,1,0,0:0:0:0:
328,84,87305,1,0,0:0:0:0:
292,84,87380,1,0,0:0:0:0:
272,52,87455,1,4,3:0:0:0:
236,40,87530,1,0,0:0:0:0:
200,44,87605,1,8,3:0:0:0:
172,68,87680,1,0,0:0:0:0:
164,104,87755,6,0,P|152:160|24:152,1,210,6|4,0:0|3:0,0:0:0:0:
72,268,88205,2,0,L|156:332,1,105,2|0,0:0|0:0,0:0:0:0:
356,332,88505,1,0,0:0:0:0:
356,332,88655,2,0,L|440:268,1,105,4|0,3:0|0:0,0:0:0:0:
416,76,88955,5,6,0:0:0:0:
376,84,89030,1,0,0:0:0:0:
336,92,89105,1,0,0:0:0:0:
296,100,89180,1,0,0:0:0:0:
256,108,89255,2,0,L|200:116,1,52.5,4|0,3:0|0:0,0:0:0:0:
144,228,89405,1,2,0:0:0:0:
136,268,89480,1,0,0:0:0:0:
148,308,89555,1,4,3:0:0:0:
180,336,89630,1,0,0:0:0:0:
220,344,89705,1,0,0:0:0:0:
260,336,89780,1,0,0:0:0:0:
292,312,89855,2,0,L|340:272,1,52.5,4|0,3:0|0:0,0:0:0:0:
512,248,90005,2,0,L|471:281,1,52.5,8|0,3:0|0:0,0:0:0:0:
224,256,90155,6,0,L|312:184,1,105,4|0,0:0|0:0,0:0:0:0:
472,96,90455,2,0,P|456:44|404:16,1,105,4|0,3:0|0:0,0:0:0:0:
96,17,90755,2,0,P|54:46|40:96,1,105,2|0,0:0|0:0,0:0:0:0:
140,252,91055,1,4,3:0:0:0:
140,252,91130,1,0,0:0:0:0:
140,252,91205,1,0,0:0:0:0:
372,252,91355,2,0,L|384:144,2,105,6|0|4,0:0|0:0|3:0,0:0:0:0:
128,147,91805,2,0,L|140:252,2,105,2|0|0,0:0|0:0|0:0,0:0:0:0:
232,36,92255,1,4,3:0:0:0:
288,244,92405,1,2,0:2:0:0:
40,120,92555,5,2,0:0:0:0:
40,120,92630,1,0,0:0:0:0:
40,120,92705,1,0,0:0:0:0:
288,128,92855,1,4,3:0:0:0:
168,172,93005,5,2,0:0:0:0:
168,172,93080,1,0,0:0:0:0:
168,172,93155,1,0,0:0:0:0:
232,36,93305,1,2,0:0:0:0:
232,304,93455,1,4,3:0:0:0:
104,208,93605,1,2,0:0:0:0:
360,184,93755,5,4,0:0:0:0:
380,148,93830,1,0,0:0:0:0:
380,108,93905,1,0,0:0:0:0:
364,68,93980,1,0,0:0:0:0:
332,40,94055,1,4,3:0:0:0:
292,32,94130,1,0,0:0:0:0:
252,40,94205,1,0,0:0:0:0:
216,60,94280,1,0,0:0:0:0:
176,52,94355,1,4,3:0:0:0:
136,56,94430,1,0,0:0:0:0:
96,72,94505,1,0,0:0:0:0:
72,108,94580,1,0,0:0:0:0:
60,148,94655,1,4,3:0:0:0:
72,188,94730,1,0,0:0:0:0:
104,216,94805,1,8,3:0:0:0:
144,228,94880,1,0,0:0:0:0:
184,224,94955,6,0,P|236:216|288:244,1,105,6|0,0:0|0:0,0:0:0:0:
216,336,95255,1,4,3:0:0:0:
216,336,95330,1,0,0:0:0:0:
216,336,95405,1,0,0:0:0:0:
248,132,95555,2,0,L|352:92,1,105,2|0,0:0|0:0,0:0:0:0:
472,192,95855,6,0,L|492:244,1,52.5,4|0,3:0|0:0,0:0:0:0:
448,320,96005,1,8,0:0:0:0:
184,224,96155,2,0,P|128:224|88:252,1,105,6|0,0:0|0:0,0:0:0:0:
216,336,96455,1,4,3:0:0:0:
336,152,96605,2,0,P|332:96|252:40,1,157.5,2|0,0:0|2:0,0:0:0:0:
204,44,96905,2,0,L|44:88,1,157.5,2|0,0:0|2:0,0:0:0:0:
28,124,97205,1,0,0:0:0:0:
0,248,97355,5,6,0:0:0:0:
4,288,97430,1,0,0:0:0:0:
32,320,97505,1,0,0:0:0:0:
72,332,97580,1,0,0:0:0:0:
112,324,97655,2,0,L|168:308,1,52.5,4|0,3:0|0:0,0:0:0:0:
312,244,97805,1,2,0:0:0:0:
312,244,97880,1,0,0:0:0:0:
312,244,97955,1,4,3:0:0:0:
312,244,98030,1,0,0:0:0:0:
312,244,98105,2,0,P|256:216|256:128,1,157.5,2|0,0:0|2:0,0:0:0:0:
284,84,98405,5,2,0:0:0:0:
136,160,98555,1,6,0:0:0:0:
84,164,98630,1,0,0:0:0:0:
40,132,98705,1,0,0:0:0:0:
168,24,98855,1,4,3:0:0:0:
248,200,99005,1,0,0:0:0:0:
248,200,99080,1,0,0:0:0:0:
248,200,99155,6,0,L|256:260,1,52.5,4|0,3:0|0:0,0:0:0:0:
388,352,99305,2,0,L|380:292,1,52.5,0|0,0:0|0:0,0:0:0:0:
208,344,99455,1,4,3:0:0:0:
160,364,99530,1,0,0:0:0:0:
108,364,99605,1,8,3:0:0:0:
60,340,99680,1,0,0:0:0:0:
36,292,99755,6,0,L|8:184,1,105,6|0,0:0|0:0,0:0:0:0:
48,40,100055,1,4,3:0:0:0:
120,192,100205,1,2,0:0:0:0:
212,56,100355,2,0,P|272:68|312:40,1,105,2|0,0:0|0:0,0:0:0:0:
412,56,100655,2,0,L|432:112,1,52.5,4|0,3:0|0:0,0:0:0:0:
324,156,100805,2,0,L|304:212,1,52.5,8|0,3:0|0:0,0:0:0:0:
432,232,100955,5,6,0:0:0:0:
432,232,101030,1,0,0:0:0:0:
432,232,101105,1,0,0:0:0:0:
284,348,101255,1,4,3:0:0:0:
164,200,101405,2,0,L|112:184,3,52.5,2|0|4|0,0:0|0:0|3:0|0:0,0:0:0:0:
29,115,101705,2,0,L|80:100,3,52.5,2|0|4|0,0:0|0:0|3:0|0:0,0:0:0:0:
180,100,102005,6,0,P|260:112|312:8,1,210,2|0,0:0|0:0,0:0:0:0:
232,32,102455,1,4,3:0:0:0:
380,92,102605,2,0,L|368:208,1,105,2|0,0:0|0:0,0:0:0:0:
132,292,102905,2,0,L|144:176,1,105,2|4,0:0|3:0,0:0:0:0:
232,32,103205,1,2,0:2:0:0:
464,184,103355,5,6,0:0:0:0:
476,224,103430,1,0,0:0:0:0:
488,264,103505,1,0,0:0:0:0:
248,296,103655,1,4,3:0:0:0:
312,120,103805,1,2,0:0:0:0:
312,120,103880,1,0,0:0:0:0:
312,120,103955,2,0,L|260:104,3,52.5,4|0|0|0,3:0|0:0|0:0|0:0,0:0:0:0:
360,216,104255,1,2,0:0:0:0:
376,264,104330,1,0,0:0:0:0:
360,312,104405,2,0,L|332:364,1,52.5,0|0,0:0|0:0,0:0:0:0:
152,252,104555,5,6,1:0:0:0:
108,276,104630,1,0,0:0:0:0:
56,272,104705,1,0,0:0:0:0:
16,240,104780,1,0,0:0:0:0:
4,188,104855,2,0,L|4:128,1,52.5,0|0,0:0|0:0,0:0:0:0:
112,44,105005,1,2,0:0:0:0:
160,64,105080,1,0,0:0:0:0:
208,80,105155,1,0,0:0:0:0:
260,96,105230,1,0,0:0:0:0:
312,112,105305,2,0,L|368:112,1,52.5,0|0,0:0|0:0,0:0:0:0:
256,212,105455,1,2,0:0:0:0:
256,212,105530,1,0,0:0:0:0:
256,212,105605,2,0,L|292:260,1,52.5,0|0,0:0|0:0,0:0:0:0:
160,160,105755,5,6,0:0:0:0:
108,148,105830,1,0,0:0:0:0:
56,160,105905,1,0,0:0:0:0:
20,196,105980,1,0,0:0:0:0:
12,248,106055,2,0,L|20:308,1,52.5
168,344,106205,1,2,0:0:0:0:
220,328,106280,1,0,0:0:0:0:
272,332,106355,1,0,0:0:0:0:
320,348,106430,1,0,0:0:0:0:
372,340,106505,1,0,0:0:0:0:
412,308,106580,1,0,0:0:0:0:
432,260,106655,1,2,0:0:0:0:
428,204,106730,5,0,3:0:0:0:
388,156,106805,5,4,3:0:0:0:
324,132,106880,5,8,3:0:0:0:
248,148,106955,5,6,0:0:0:0:
156,136,109355,5,4,0:0:0:0:
156,136,109430,1,0,0:0:0:0:
156,136,109505,2,0,L|120:200,1,62.9999980773926
220,216,109655,1,0,0:0:0:0:
220,216,109730,1,0,0:0:0:0:
220,216,109805,2,0,B|208:280,1,62.9999980773926,0|0,0:0|0:0,0:0:0:0:
304,264,109955,6,0,P|312:320|368:360,1,125.999996154785,6|0,0:0|0:0,0:0:0:0:
424,248,110255,1,2,0:0:0:0:
228,312,110405,1,0,0:0:0:0:
228,312,110480,1,0,0:0:0:0:
228,312,110555,2,0,L|108:352,1,125.999996154785,2|0,0:0|0:0,0:0:0:0:
28,224,110855,1,0,0:0:0:0:
176,140,111005,2,0,L|224:24,1,125.999996154785,2|0,0:0|0:0,0:0:0:0:
16,56,111305,1,0,0:0:0:0:
140,216,111455,2,0,P|192:227|250:187,1,125.999996154785,2|0,0:0|0:0,0:0:0:0:
292,44,111755,5,6,0:0:0:0:
324,88,111830,1,0,0:0:0:0:
356,128,111905,1,0,0:0:0:0:
388,168,111980,1,0,0:0:0:0:
424,208,112055,2,0,L|456:264,1,62.9999980773926,2|0,0:0|0:0,0:0:0:0:
352,272,112205,2,0,P|352:324|300:372,1,125.999996154785,2|0,0:0|0:0,0:0:0:0:
176,232,112505,1,0,0:0:0:0:
176,232,112655,2,0,L|228:116,1,125.999996154785,2|0,0:0|0:0,0:0:0:0:
120,36,112955,5,6,0:0:0:0:
68,24,113030,1,0,0:0:0:0:
28,60,113105,1,0,0:0:0:0:
24,112,113180,1,0,0:0:0:0:
60,148,113255,2,0,L|112:184,1,62.9999980773926,4|0,3:0|0:0,0:0:0:0:
228,120,113405,1,0,0:0:0:0:
280,108,113480,1,0,0:0:0:0:
320,144,113555,1,4,3:0:0:0:
324,196,113630,1,0,0:0:0:0:
288,232,113705,2,0,L|236:268,1,62.9999980773926,0|0,3:0|0:0,0:0:0:0:
44,284,113855,1,4,0:0:0:0:
172,320,114005,1,4,0:3:0:0:
300,348,114155,5,6,0:0:0:0:
352,356,114230,1,0,0:0:0:0:
400,336,114305,1,0,0:0:0:0:
424,288,114380,1,0,0:0:0:0:
416,232,114455,2,0,L|460:184,1,62.9999980773926,0|0,0:0|0:0,0:0:0:0:
436,64,114605,2,0,L|392:112,1,62.9999980773926,0|0,0:0|0:0,0:0:0:0:
280,88,114755,6,0,L|184:4,1,125.999996154785,6|0,0:0|0:0,0:0:0:0:
104,172,115055,2,0,L|200:256,1,125.999996154785,2|0,0:0|0:0,0:0:0:0:
328,180,115355,1,6,0:0:0:0:
424,288,115505,1,0,0:0:0:0:
424,288,115580,1,0,0:0:0:0:
424,288,115655,1,2,0:0:0:0:
216,344,115805,1,2,0:0:0:0:
344,260,115955,5,0,0:0:0:0:
320,368,116105,1,0,0:0:0:0:
256,232,116255,2,0,P|236:172|260:112,1,125.999996154785,2|0,0:0|0:0,0:0:0:0:
368,52,116555,6,0,B|240:16|240:16|184:52|124:12,1,251.999992309571,6|0,0:0|0:0,0:0:0:0:
32,100,117005,2,0,P|80:140|8:284,1,251.999992309571,2|0,0:0|0:0,0:0:0:0:
0,188,117455,1,2,0:0:0:0:
144,296,117605,1,0,0:0:0:0:
208,128,117755,1,6,0:0:0:0:
208,128,117830,1,0,0:0:0:0:
208,128,117905,1,0,0:0:0:0:
40,264,118055,1,2,0:0:0:0:
252,240,118205,1,0,0:0:0:0:
252,240,118280,1,0,0:0:0:0:
252,240,118355,5,0,0:0:0:0:
300,264,118430,1,0,0:0:0:0:
352,268,118505,1,0,0:0:0:0:
400,248,118580,1,0,0:0:0:0:
432,208,118655,1,4,3:0:0:0:
444,156,118730,1,0,0:0:0:0:
428,108,118805,1,8,3:0:0:0:
396,68,118880,1,0,0:0:0:0:
348,44,118955,6,0,L|224:16,1,125.999996154785,4|0,0:0|0:0,0:0:0:0:
208,128,119255,2,0,P|152:164|152:240,1,125.999996154785,2|0,0:0|0:0,0:0:0:0:
304,256,119555,2,0,P|360:220|360:144,1,125.999996154785,2|0,0:0|0:0,0:0:0:0:
164,340,119855,2,0,L|288:368,1,125.999996154785,2|0,0:0|0:0,0:0:0:0:
304,120,120155,6,0,P|280:64|120:88,1,251.999992309571,6|0,0:0|0:0,0:0:0:0:
208,264,120605,2,0,P|232:320|392:296,1,251.999992309571,6|0,0:0|0:0,0:0:0:0:
304,256,121055,1,2,0:0:0:0:
328,212,121130,1,0,0:0:0:0:
352,168,121205,1,0,0:0:0:0:
376,120,121280,1,0,0:0:0:0:
400,72,121355,6,0,B|332:52|332:52|300:8,1,125.999996154785,6|0,0:0|0:0,0:0:0:0:
256,116,121655,1,0,0:0:0:0:
216,8,121805,2,0,B|184:52|184:52|116:72,1,125.999996154785,2|0,0:0|0:0,0:0:0:0:
28,164,122105,1,0,0:0:0:0:
152,172,122255,2,0,P|180:220|160:284,1,125.999996154785,2|0,0:0|0:0,0:0:0:0:
44,304,122555,1,6,0:0:0:0:
48,316,122630,1,0,0:0:0:0:
52,328,122705,1,0,0:0:0:0:
56,340,122780,1,0,0:0:0:0:
60,352,122855,6,0,L|132:356,3,62.9999980773926,4|0|0|0,3:0|0:0|0:0|0:0,0:0:0:0:
256,300,123155,2,0,L|256:236,3,62.9999980773926,4|0|0|0,3:0|0:0|0:0|0:0,0:0:0:0:
389,355,123455,2,0,L|452:352,3,62.9999980773926,4|0|8|0,3:0|0:0|3:0|0:0,0:0:0:0:
344,264,123755,5,6,0:0:0:0:
396,248,123830,1,0,0:0:0:0:
424,204,123905,1,0,0:0:0:0:
428,152,123980,1,0,0:0:0:0:
404,104,124055,1,4,3:0:0:0:
360,76,124130,1,0,0:0:0:0:
316,108,124205,1,2,0:0:0:0:
272,80,124280,1,0,0:0:0:0:
220,72,124355,1,4,3:0:0:0:
168,72,124430,1,0,0:0:0:0:
116,84,124505,1,0,0:0:0:0:
88,128,124580,1,0,0:0:0:0:
128,160,124655,5,6,0:0:0:0:
148,208,124730,1,0,0:0:0:0:
136,260,124805,1,0,0:0:0:0:
96,296,124880,1,0,0:0:0:0:
44,296,124955,1,6,0:0:0:0:
80,336,125030,1,0,0:0:0:0:
132,348,125105,1,2,0:0:0:0:
184,340,125180,1,0,0:0:0:0:
220,300,125255,1,4,3:0:0:0:
228,248,125330,1,0,0:0:0:0:
272,276,125405,5,6,0:0:0:0:
324,276,125480,1,0,0:0:0:0:
368,252,125555,1,4,3:0:0:0:
388,204,125630,1,0,0:0:0:0:
384,152,125705,1,0,0:0:0:0:
356,108,125780,1,0,0:0:0:0:
312,80,125855,1,2,0:0:0:0:
260,80,125930,1,0,0:0:0:0:
212,104,126005,1,0,0:0:0:0:
188,152,126080,1,0,0:0:0:0:
184,204,126155,6,0,L|196:272,1,62.9999980773926,6|0,0:0|0:0,0:0:0:0:
320,308,126305,2,0,L|388:296,1,62.9999980773926
404,148,126455,2,0,L|392:80,1,62.9999980773926,4|0,3:0|0:0,0:0:0:0:
244,72,126605,2,0,L|176:84,1,62.9999980773926
168,208,126755,2,0,L|180:276,1,62.9999980773926,6|0,0:0|0:0,0:0:0:0:
320,344,126905,1,0,0:0:0:0:
364,368,126980,1,0,0:0:0:0:
416,364,127055,5,4,3:0:0:0:
460,336,127130,1,0,0:0:0:0:
476,284,127205,1,8,3:0:0:0:
468,232,127280,1,0,0:0:0:0:
428,196,127355,1,6,0:0:0:0:
296,212,128555,6,0,P|344:168|320:88,1,157.5,6|0,0:0|2:0,0:0:0:0:
292,44,128855,2,0,L|188:28,1,105,2|0,0:0|0:0,0:0:0:0:
220,340,129155,2,0,L|324:356,1,105,2|0,0:0|0:0,0:0:0:0:
145,86,129455,2,0,L|79:168,1,105,2|0,0:0|0:0,0:0:0:0:
366,297,129755,2,0,L|432:215,1,105,2|0,0:0|0:0,0:0:0:0:
109,234,130055,2,0,L|147:332,1,105,2|0,0:0|0:0,0:0:0:0:
402,149,130355,2,0,L|364:51,1,105,4|8,3:0|3:0,0:0:0:0:
96,152,130655,1,4,3:0:0:0:
312,352,130805,2,0,P|368:368|440:308,1,157.5,6|0,0:0|2:0,0:0:0:0:
460,264,131105,5,0,0:0:0:0:
460,168,131255,1,4,3:0:0:0:
396,84,131405,1,8,3:0:0:0:
292,72,131555,2,0,L|188:88,1,105,2|0,0:0|0:0,0:0:0:0:
188,296,131855,2,0,L|292:312,1,105
352,128,132155,2,0,P|372:68|360:24,1,105,2|0,0:0|0:0,0:0:0:0:
124,240,132455,2,0,P|104:300|116:344,1,105,2|0,0:0|0:0,0:0:0:0:
392,268,132755,2,0,L|420:156,1,105,4|8,3:0|3:0,0:0:0:0:
188,296,133055,1,4,3:0:0:0:
48,140,133205,2,2,P|36:80|104:20,1,157.5,6|0,0:0|2:0,0:0:0:0:
156,16,133505,5,0,0:0:0:0:
224,80,133655,1,4,3:0:0:0:
316,92,133805,1,8,3:0:0:0:
416,68,133955,2,0,B|448:112|448:112|496:128,1,105,2|0,0:0|0:0,0:0:0:0:
480,340,134255,2,0,L|380:300,1,105,2|0,0:0|0:0,0:0:0:0:
129,301,134555,2,0,L|32:340,1,105,2|0,0:0|0:0,0:0:0:0:
16,128,134855,2,0,B|64:112|64:112|96:68,1,105,2|0,0:0|0:0,0:0:0:0:
256,12,135155,2,0,L|256:120,1,105,4|8,3:0|3:0,0:0:0:0:
256,288,135455,5,4,0:3:0:0:
400,80,135605,2,0,P|436:128|416:224,1,157.5,6|0,0:0|2:0,0:0:0:0:
392,256,135905,1,0,0:0:0:0:
388,308,135980,2,0,L|408:368,1,52.5
256,288,136205,1,0,0:0:0:0:
256,288,136280,1,0,0:0:0:0:
256,288,136355,1,0,0:0:0:0:
108,232,136505,1,0,0:0:0:0:
96,188,136580,1,0,0:0:0:0:
108,144,136655,1,0,0:0:0:0:
252,96,136805,2,0,P|316:60|392:104,1,157.5,6|0,0:0|2:0,0:0:0:0:
416,136,137105,5,6,0:0:0:0:
256,336,137255,1,2,0:0:0:0:
96,136,137405,1,2,0:0:0:0:
372,48,137555,1,4,3:0:0:0:
136,280,137705,1,8,3:0:0:0:
376,280,137855,5,4,3:0:0:0:
140,48,138005,2,0,P|64:44|4:152,1,210,6|0,0:0|0:0,0:0:0:0:
92,200,138455,2,0,L|156:288,1,105,2|0,0:0|0:0,0:0:0:0:
420,200,138755,2,0,L|356:288,1,105,2|0,0:0|0:0,0:0:0:0:
184,200,139055,2,0,L|248:292,1,105,2|0,0:0|0:0,0:0:0:0:
512,200,139355,2,0,L|448:288,1,105,2|0,0:0|0:0,0:0:0:0:
276,200,139655,2,0,L|340:288,1,105,2|0,0:0|0:0,0:0:0:0:
456,140,139955,2,2,B|456:120|456:120|476:104|476:104|472:16|408:4|364:20,1,210,6|4,0:0|3:0,0:0:0:0:
140,16,140405,2,0,B|48:72|48:72|24:172,1,210,6|0,0:0|0:0,0:0:0:0:
32,276,140855,5,4,3:0:0:0:
116,340,141005,1,8,3:0:0:0:
212,296,141155,2,0,L|316:268,1,105,2|0,0:0|0:0,0:0:0:0:
508,184,141455,2,0,L|404:156,1,105,2|0,0:0|0:0,0:0:0:0:
300,88,141755,2,0,L|196:116,1,105,2|0,0:0|0:0,0:0:0:0:
4,200,142055,2,0,L|108:228,1,105,2|0,0:0|0:0,0:0:0:0:
248,300,142355,1,4,3:0:0:0:
404,136,142505,1,8,3:0:0:0:
136,80,142655,1,4,3:0:0:0:
320,368,142805,2,2,P|416:336|436:236,1,210,2|0,0:0|0:0,0:0:0:0:
312,164,143255,5,8,3:0:0:0:
340,268,143405,1,4,3:0:0:0:
384,88,143555,2,0,L|288:32,1,105,2|0,0:0|0:0,0:0:0:0:
428,168,143855,2,0,P|472:128|476:76,1,105,2|0,0:0|0:0,0:0:0:0:
232,96,144155,2,0,P|188:136|184:188,1,105,2|0,0:0|0:0,0:0:0:0:
384,88,144455,2,0,L|288:32,1,105,2|0,0:0|0:0,0:0:0:0:
128,296,144755,2,0,L|224:352,1,105,4|8,3:0|3:0,0:0:0:0:
320,372,145055,5,4,3:0:0:0:
404,312,145205,2,2,P|380:256|428:180,1,157.5,6|0,0:0|2:0,0:0:0:0:
468,156,145505,1,0,0:0:0:0:
476,104,145580,2,0,L|472:48,1,52.5
296,124,145805,1,0,0:0:0:0:
292,172,145880,1,0,0:0:0:0:
288,220,145955,1,0,0:0:0:0:
120,344,146105,1,0,0:0:0:0:
116,296,146180,1,0,0:0:0:0:
112,248,146255,1,0,0:0:0:0:
96,104,146405,2,2,P|112:48|200:28,1,157.5,6|0,0:0|2:0,0:0:0:0:
252,44,146705,5,6,0:0:0:0:
408,232,146855,1,2,0:0:0:0:
160,280,147005,1,2,0:0:0:0:
348,76,147155,1,4,3:0:0:0:
346,320,147305,1,8,3:0:0:0:
125,197,147455,1,4,3:0:0:0:
403,175,147605,1,6,0:0:0:0:
256,192,147680,12,2,148955,0:0:0:0:
256,192,149030,12,6,150155,0:0:0:0:
256,192,150230,12,0,151205,2:0:0:0:
216,212,151355,6,0,B|256:248|256:248|308:248,1,105,6|0,0:0|0:0,0:0:0:0:
428,124,151655,2,0,L|488:124,2,52.5,4|0|0,0:3|0:0|0:0,0:0:0:0:
320,40,151955,1,2,0:0:0:0:
424,244,152105,1,0,0:0:0:0:
212,92,152255,2,0,L|104:92,1,105,4|0,3:0|0:0,0:0:0:0:
164,294,152555,2,0,P|214:308|264:292,1,105,2|0,0:0|0:0,0:0:0:0:
212,92,152855,1,4,3:0:0:0:
340,344,153005,2,0,L|444:312,1,105,2|0,0:0|0:0,0:0:0:0:
428,152,153305,1,0,0:0:0:0:
276,100,153455,5,4,3:0:0:0:
264,140,153530,1,0,0:0:0:0:
236,172,153605,1,0,0:0:0:0:
196,188,153680,1,0,0:0:0:0:
152,196,153755,2,0,B|100:176|100:176|52:192,1,105,6|0,0:0|0:0,0:0:0:0:
12,96,154055,1,4,3:0:0:0:
32,276,154205,1,2,0:0:0:0:
208,144,154355,1,0,0:0:0:0:
204,324,154505,1,0,0:0:0:0:
388,220,154655,1,4,3:0:0:0:
352,368,154805,1,0,0:0:0:0:
256,196,154955,5,2,0:0:0:0:
220,52,155105,1,0,0:0:0:0:
368,28,155255,1,4,3:0:0:0:
312,256,155405,2,0,L|292:312,1,52.5,2|0,0:0|0:0,0:0:0:0:
384,164,155555,2,0,L|440:168,3,52.5,0|0|0|0,0:0|0:0|0:0|0:0,0:0:0:0:
484,184,155855,1,4,3:0:0:0:
512,228,155930,1,0,3:0:0:0:
512,280,156005,1,8,0:3:0:0:
476,320,156080,1,8,3:0:0:0:
424,328,156155,6,0,P|372:320|328:344,1,105,6|0,0:0|0:0,0:0:0:0:
200,240,156455,1,4,3:0:0:0:
168,196,156530,1,0,0:0:0:0:
132,156,156605,2,0,L|132:52,1,105,2|0,0:0|0:0,0:0:0:0:
256,136,156905,1,0,0:0:0:0:
329,20,157055,1,4,3:0:0:0:
366,57,157130,1,0,0:0:0:0:
403,94,157205,1,8,3:0:0:0:
440,131,157280,1,0,0:0:0:0:
476,168,157355,6,0,L|487:281,1,105,6|0,0:0|0:0,0:0:0:0:
256,184,157655,1,4,3:0:0:0:
336,360,157805,2,0,L|402:278,1,105,2|0,0:0|0:0,0:0:0:0:
256,232,158105,1,2,0:2:0:0:
104,132,158255,2,0,P|80:80|104:24,1,105,2|0,0:0|0:0,0:0:0:0:
408,132,158555,6,0,L|464:132,3,52.5,6|0|0|0,0:0|0:0|0:0|0:0,0:0:0:0:
416,44,158855,2,0,L|464:16,3,52.5,4|0|0|0,3:0|0:0|0:0|0:0,0:0:0:0:
340,76,159155,2,0,L|288:76,1,52.5,2|0,0:0|0:0,0:0:0:0:
296,164,159305,2,0,L|236:184,5,52.5,2|0|4|0|8|0,0:0|0:0|3:0|0:0|3:0|0:0,0:0:0:0:
344,192,159755,5,6,0:0:0:0:
368,240,159830,1,0,0:0:0:0:
364,292,159905,1,0,0:0:0:0:
332,332,159980,1,0,0:0:0:0:
284,356,160055,1,4,3:0:0:0:
232,352,160130,1,0,0:0:0:0:
192,320,160205,1,0,0:0:0:0:
140,308,160280,1,0,0:0:0:0:
112,264,160355,1,4,3:0:0:0:
112,212,160430,1,0,0:0:0:0:
120,160,160505,1,4,3:0:0:0:
104,108,160580,1,8,3:0:0:0:
64,72,160655,2,0,L|8:64,1,52.5,6|0,0:0|0:0,0:0:0:0:
208,20,160805,2,0,L|264:4,1,52.5,8|0,3:0|0:0,0:0:0:0:
152,128,160955,6,0,P|168:180|216:208,1,105,6|0,0:0|0:0,0:0:0:0:
312,192,161255,1,4,3:0:0:0:
396,252,161405,2,0,L|488:328,2,105,2|0|0,0:0|0:0|0:0,0:0:0:0:
400,148,161855,1,4,3:0:0:0:
396,96,161930,1,0,0:0:0:0:
364,56,162005,1,8,3:0:0:0:
316,36,162080,1,0,0:0:0:0:
264,40,162155,6,0,L|156:64,1,105,6|0,0:0|0:0,0:0:0:0:
4,172,162455,1,4,3:0:0:0:
4,172,162605,2,0,L|112:196,1,105,2|0,0:0|0:0,0:0:0:0:
344,256,162905,1,0,0:0:0:0:
125,114,163055,1,4,3:0:0:0:
156,72,163130,1,0,0:0:0:0:
200,48,163205,1,8,3:0:0:0:
252,48,163280,1,0,0:0:0:0:
300,64,163355,6,0,L|416:57,1,105,6|0,0:0|0:0,0:0:0:0:
496,160,163655,1,4,3:0:0:0:
224,288,163805,2,0,P|164:280|124:240,1,105,2|0,0:0|0:0,0:0:0:0:
252,48,164105,1,0,0:0:0:0:
392,236,164255,1,4,3:0:0:0:
392,236,164330,1,0,0:0:0:0:
392,236,164405,2,0,L|336:200,1,52.5,0|0,0:0|0:0,0:0:0:0:
172,112,164555,6,0,P|124:136|116:200,1,105,6|0,0:0|0:0,0:0:0:0:
112,324,164855,1,4,3:0:0:0:
256,336,165005,1,2,0:0:0:0:
288,328,165080,1,0,0:0:0:0:
320,320,165155,1,0,0:0:0:0:
352,312,165230,1,0,0:0:0:0:
384,304,165305,1,0,0:0:0:0:
384,304,165380,1,0,0:0:0:0:
384,304,165455,2,0,L|440:304,3,52.5,4|0|8|0,3:0|0:0|3:0|0:0,0:0:0:0:
408,216,165755,6,0,P|456:192|468:132,1,105,6|0,0:0|0:0,0:0:0:0:
256,44,166055,1,4,3:0:0:0:
42,146,166205,2,0,P|58:195|104:216,1,105,2|0,0:0|0:0,0:0:0:0:
340,132,166505,1,0,0:0:0:0:
172,132,166655,1,4,3:0:0:0:
156,160,166730,1,0,0:0:0:0:
144,188,166805,1,8,3:0:0:0:
132,216,166880,1,0,0:0:0:0:
120,244,166955,6,0,P|104:296|124:344,1,105,6|0,0:0|0:0,0:0:0:0:
328,280,167255,1,4,3:0:0:0:
160,120,167405,2,0,P|96:108|60:132,1,105,2|0,0:0|0:0,0:0:0:0:
212,352,167705,1,0,0:0:0:0:
280,112,167855,2,0,L|332:16,1,105,4|0,3:0|0:0,0:0:0:0:
440,112,168155,2,0,L|492:92,3,52.5,6|0|0|0,0:0|0:0|0:0|0:0,0:0:0:0:
384,188,168455,2,0,L|332:168,3,52.5,4|0|2|0,3:0|0:0|0:0|0:0,0:0:0:0:
440,260,168755,2,0,L|492:240,3,52.5,4|0|0|0,3:0|0:0|0:0|0:0,0:0:0:0:
384,332,169055,2,0,L|332:312,3,52.5,4|0|8|0,3:0|0:0|3:0|0:0,0:0:0:0:
284,296,169355,5,6,0:0:0:0:
232,288,169430,1,0,0:0:0:0:
180,296,169505,1,0,0:0:0:0:
132,316,169580,1,0,0:0:0:0:
92,280,169655,1,4,3:0:0:0:
84,228,169730,1,0,0:0:0:0:
100,176,169805,1,0,0:0:0:0:
140,140,169880,1,0,0:0:0:0:
192,132,169955,2,0,L|248:104,1,52.5,4|0,3:0|0:0,0:0:0:0:
416,88,170105,2,0,L|360:60,1,52.5,8|0,3:0|0:0,0:0:0:0:
160,228,170255,2,0,L|216:200,1,52.5,4|0,3:0|0:0,0:0:0:0:
368,156,170405,2,0,L|312:128,1,52.5,8|0,3:0|0:0,0:0:0:0:
412,240,170555,5,4,0:0:0:0:
448,252,170630,1,0,0:0:0:0:
484,240,170705,1,0,0:0:0:0:
508,212,170780,1,0,0:0:0:0:
512,176,170855,1,4,3:0:0:0:
500,140,170930,1,0,0:0:0:0:
468,120,171005,1,0,0:0:0:0:
432,116,171080,1,0,0:0:0:0:
396,124,171155,1,4,0:3:0:0:
364,104,171230,1,0,0:0:0:0:
336,84,171305,1,0,0:0:0:0:
300,88,171380,1,0,0:0:0:0:
264,96,171455,1,4,3:0:0:0:
228,104,171530,1,0,0:0:0:0:
200,124,171605,1,0,0:0:0:0:
180,156,171680,1,0,0:0:0:0:
180,192,171755,5,4,0:0:0:0:
196,224,171830,1,0,0:0:0:0:
224,248,171905,1,8,0:3:0:0:
260,260,171980,1,0,0:0:0:0:
252,296,172055,1,4,3:0:0:0:
228,324,172130,1,0,0:0:0:0:
196,340,172205,1,0,0:0:0:0:
160,348,172280,1,0,0:0:0:0:
124,348,172355,1,4,3:0:0:0:
92,332,172430,1,0,0:0:0:0:
64,308,172505,1,0,0:0:0:0:
48,276,172580,1,0,0:0:0:0:
40,240,172655,1,4,3:0:0:0:
44,204,172730,1,0,0:0:0:0:
60,172,172805,1,8,3:0:0:0:
88,148,172880,1,0,0:0:0:0:
124,140,172955,6,0,B|220:100,1,105,6|0,0:0|0:0,0:0:0:0:
240,208,173255,2,0,B|144:248,1,105,4|0,3:0|0:0,0:0:0:0:
104,32,173555,1,2,0:0:0:0:
304,140,173705,2,0,P|363:143|400:104,1,105,2|4,0:0|3:0,0:0:0:0:
480,72,174005,2,0,P|444:24|352:36,1,157.5,6|0,0:0|2:0,0:0:0:0:
308,40,174305,2,0,P|260:124|204:116,1,157.5,2|0,0:0|2:0,0:0:0:0:
216,168,174605,2,0,L|240:272,1,105,2|0,0:0|0:0,0:0:0:0:
48,368,174905,1,0,0:0:0:0:
120,208,175055,2,0,L|108:156,2,52.5,4|0|8,3:0|0:0|3:0,0:0:0:0:
344,308,175355,5,4,0:0:0:0:
376,324,175430,1,0,0:0:0:0:
412,328,175505,1,0,0:0:0:0:
448,320,175580,1,0,0:0:0:0:
440,284,175655,1,4,3:0:0:0:
448,248,175730,1,0,0:0:0:0:
472,220,175805,1,0,0:0:0:0:
484,184,175880,1,0,0:0:0:0:
484,148,175955,1,4,3:0:0:0:
468,116,176030,1,0,0:0:0:0:
440,92,176105,1,0,0:0:0:0:
404,80,176180,1,0,0:0:0:0:
368,80,176255,1,4,3:0:0:0:
332,92,176330,1,0,0:0:0:0:
304,112,176405,1,0,0:0:0:0:
280,140,176480,1,0,0:0:0:0:
256,116,176555,5,4,3:0:0:0:
220,104,176630,1,0,0:0:0:0:
184,100,176705,1,8,3:0:0:0:
148,108,176780,1,0,0:0:0:0:
120,132,176855,1,4,3:0:0:0:
100,164,176930,1,0,0:0:0:0:
92,200,177005,1,0,0:0:0:0:
100,236,177080,1,0,0:0:0:0:
120,268,177155,1,4,3:0:0:0:
148,288,177230,1,0,0:0:0:0:
184,300,177305,1,0,0:0:0:0:
220,300,177380,1,0,0:0:0:0:
240,332,177455,1,4,3:0:0:0:
276,344,177530,1,0,0:0:0:0:
312,340,177605,1,8,3:0:0:0:
340,316,177680,1,0,0:0:0:0:
348,280,177755,6,0,P|360:224|500:208,1,210,6|4,0:0|3:0,0:0:0:0:
488,360,178205,2,0,L|432:264,1,105,2|0,0:0|0:0,0:0:0:0:
280,104,178505,1,0,0:0:0:0:
280,104,178655,2,0,P|249:151|192:160,1,105,4|0,3:0|0:0,0:0:0:0:
56,284,178955,5,6,0:0:0:0:
96,292,179030,1,0,0:0:0:0:
136,300,179105,1,0,0:0:0:0:
176,308,179180,1,0,0:0:0:0:
216,316,179255,2,0,L|272:296,1,52.5,4|0,3:0|0:0,0:0:0:0:
288,196,179405,2,0,L|337:178,1,52.5,2|0,3:0|0:0,0:0:0:0:
364,76,179555,5,4,3:0:0:0:
332,48,179630,1,0,0:0:0:0:
292,40,179705,1,0,0:0:0:0:
252,48,179780,1,0,0:0:0:0:
220,72,179855,2,0,L|172:112,1,52.5,4|0,3:0|0:0,0:0:0:0:
112,272,180005,2,0,L|153:239,1,52.5,8|0,3:0|0:0,0:0:0:0:
296,128,180155,6,0,P|344:172|356:216,1,105,4|0,0:0|0:0,0:0:0:0:
256,352,180455,1,4,3:0:0:0:
452,276,180605,1,0,0:0:0:0:
256,228,180755,1,2,0:0:0:0:
256,228,180830,1,0,0:0:0:0:
256,228,180905,1,0,0:0:0:0:
372,132,181055,1,4,3:0:0:0:
256,32,181205,1,0,0:0:0:0:
140,132,181355,2,0,P|150:195|128:240,2,105,6|0|4,0:0|0:0|3:0,0:0:0:0:
36,172,181805,2,0,L|24:68,1,105,2|0,0:0|0:0,0:0:0:0:
208,272,182105,2,0,P|172:312|116:316,1,105,0|4,0:0|3:0,0:0:0:0:
268,104,182405,1,2,0:2:0:0:
472,264,182555,5,2,0:0:0:0:
472,264,182630,1,0,0:0:0:0:
472,264,182705,1,0,0:0:0:0:
200,168,182855,1,4,3:0:0:0:
392,348,183005,1,2,0:0:0:0:
392,348,183080,1,0,0:0:0:0:
392,348,183155,1,0,0:0:0:0:
280,80,183305,1,2,0:0:0:0:
280,348,183455,1,4,3:0:0:0:
408,176,183605,1,2,0:0:0:0:
152,200,183755,5,4,0:0:0:0:
132,236,183830,1,0,0:0:0:0:
132,276,183905,1,0,0:0:0:0:
148,316,183980,1,0,0:0:0:0:
180,344,184055,1,4,3:0:0:0:
220,352,184130,1,0,0:0:0:0:
260,344,184205,1,0,0:0:0:0:
296,324,184280,1,0,0:0:0:0:
336,332,184355,1,4,3:0:0:0:
376,328,184430,1,0,0:0:0:0:
416,312,184505,1,0,0:0:0:0:
440,276,184580,1,0,0:0:0:0:
452,236,184655,1,4,3:0:0:0:
440,196,184730,1,0,0:0:0:0:
408,168,184805,1,8,3:0:0:0:
368,156,184880,1,0,0:0:0:0:
328,160,184955,6,0,P|276:168|224:140,1,105,6|0,0:0|0:0,0:0:0:0:
296,48,185255,1,4,3:0:0:0:
296,48,185330,1,0,0:0:0:0:
296,48,185405,1,0,0:0:0:0:
264,252,185555,2,0,L|160:292,1,105,2|0,0:0|0:0,0:0:0:0:
40,192,185855,2,0,L|56:140,1,52.5,4|0,3:0|0:0,0:0:0:0:
176,27,186005,2,0,L|196:80,1,52.5,8|0,3:0|0:0,0:0:0:0:
328,160,186155,2,0,P|384:160|424:132,1,105,6|0,0:0|0:0,0:0:0:0:
296,48,186455,1,4,3:0:0:0:
176,232,186605,2,0,P|180:288|260:344,1,157.5,2|0,0:0|2:0,0:0:0:0:
308,340,186905,2,0,L|416:340,1,105,2|0,0:0|2:0,0:0:0:0:
508,280,187205,1,2,0:0:0:0:
512,164,187355,5,6,0:0:0:0:
508,124,187430,1,0,0:0:0:0:
480,92,187505,1,0,0:0:0:0:
440,80,187580,1,0,0:0:0:0:
400,88,187655,2,0,L|344:104,1,52.5,4|0,3:0|0:0,0:0:0:0:
200,144,187805,2,0,P|120:152|88:132,1,105
216,64,188105,2,0,P|264:100|264:192,1,157.5,2|0,0:0|2:0,0:0:0:0:
232,252,188405,1,2,0:0:0:0:
376,224,188555,5,6,0:0:0:0:
428,216,188630,1,0,0:0:0:0:
480,208,188705,1,0,0:0:0:0:
344,360,188855,1,4,3:0:0:0:
264,184,189005,1,0,0:0:0:0:
264,184,189080,1,0,0:0:0:0:
264,184,189155,2,0,L|256:124,1,52.5,4|0,3:0|0:0,0:0:0:0:
124,32,189305,2,0,L|132:92,1,52.5,0|0,0:0|0:0,0:0:0:0:
304,40,189455,1,4,3:0:0:0:
352,20,189530,1,0,0:0:0:0:
404,20,189605,1,8,3:0:0:0:
452,44,189680,1,0,0:0:0:0:
476,92,189755,6,0,B|483:148|483:148|504:200,1,105,6|0,0:0|0:0,0:0:0:0:
476,364,190055,1,4,3:0:0:0:
360,156,190205,1,2,0:0:0:0:
320,344,190355,2,0,P|260:356|216:336,1,105,2|0,0:0|0:0,0:0:0:0:
88,288,190655,2,0,L|68:232,1,52.5,4|0,3:0|0:0,0:0:0:0:
220,164,190805,2,0,L|203:214,1,52.5,8|0,3:0|0:0,0:0:0:0:
64,136,190955,5,6,0:0:0:0:
48,100,191030,1,0,0:0:0:0:
56,60,191105,1,0,0:0:0:0:
228,36,191255,1,4,3:0:0:0:
352,148,191405,2,0,P|416:132|444:88,1,105,2|4,0:0|3:0,0:0:0:0:
240,244,191705,2,0,L|208:352,1,105,2|4,0:0|3:0,0:0:0:0:
400,288,192005,1,2,0:0:0:0:
260,148,192155,5,0,0:0:0:0:
260,148,192230,1,0,0:0:0:0:
260,148,192305,1,0,0:0:0:0:
132,292,192455,1,4,3:0:0:0:
132,292,192605,2,0,L|144:176,1,105,2|0,0:0|0:0,0:0:0:0:
380,92,192905,2,0,L|368:208,1,105,2|4,0:0|3:0,0:0:0:0:
296,328,193205,1,2,0:2:0:0:
48,200,193355,5,6,0:0:0:0:
36,160,193430,1,0,0:0:0:0:
24,120,193505,1,0,0:0:0:0:
260,148,193655,1,4,3:0:0:0:
132,292,193805,1,2,0:0:0:0:
132,292,193880,1,0,0:0:0:0:
132,292,193955,2,0,L|184:308,1,52.5,4|0,3:0|0:0,0:0:0:0:
324,232,194105,2,0,L|372:212,1,52.5,0|0,0:0|0:0,0:0:0:0:
152,168,194255,1,2,0:0:0:0:
136,120,194330,1,0,0:0:0:0:
152,72,194405,2,0,L|180:20,1,52.5,0|0,0:0|0:0,0:0:0:0:
260,148,194555,5,6,1:0:0:0:
304,172,194630,1,0,0:0:0:0:
356,168,194705,1,0,0:0:0:0:
396,136,194780,1,0,0:0:0:0:
408,84,194855,2,0,P|412:48|408:24,1,52.5,0|0,0:0|0:0,0:0:0:0:
276,48,195005,1,2,0:0:0:0:
268,96,195080,1,0,0:0:0:0:
260,148,195155,1,0,0:0:0:0:
252,200,195230,1,0,0:0:0:0:
248,252,195305,2,0,L|257:307,1,52.5,0|0,0:0|0:0,0:0:0:0:
156,308,195455,5,2,0:0:0:0:
148,256,195530,1,0,0:0:0:0:
140,208,195605,2,0,L|176:168,1,52.5,0|0,0:0|0:0,0:0:0:0:
352,224,195755,1,6,0:0:0:0:
404,236,195830,1,0,0:0:0:0:
456,224,195905,1,0,0:0:0:0:
492,188,195980,1,0,0:0:0:0:
500,136,196055,2,0,L|492:76,1,52.5
344,40,196205,5,2,0:0:0:0:
292,56,196280,1,0,0:0:0:0:
240,52,196355,1,0,0:0:0:0:
192,36,196430,1,0,0:0:0:0:
140,44,196505,1,0,0:0:0:0:
100,76,196580,1,0,0:0:0:0:
80,124,196655,1,2,0:0:0:0:
84,180,196730,5,0,3:0:0:0:
124,228,196805,5,4,3:0:0:0:
188,252,196880,5,8,3:0:0:0:
264,236,196955,5,6,0:0:0:0:
452,312,198755,5,0,0:0:0:0:
432,324,198830,1,0,0:0:0:0:
412,328,198905,1,0,0:0:0:0:
392,328,198980,1,0,0:0:0:0:
372,320,199055,1,0,0:0:0:0:
360,304,199130,1,0,0:0:0:0:
352,284,199205,1,0,0:0:0:0:
352,264,199280,1,0,0:0:0:0:
356,248,199355,6,0,L|392:184,3,62.9999980773926,4|0|0|0,0:0|0:0|0:0|0:0,0:0:0:0:
292,168,199655,2,0,B|304:104,3,62.9999980773926,0|0|0|0,0:0|0:0|0:0|0:0,0:0:0:0:
208,120,199955,6,0,P|200:64|144:24,1,125.999996154785,6|0,0:0|0:0,0:0:0:0:
76,160,200255,2,0,L|96:292,1,125.999996154785,2|0,0:0|0:0,0:0:0:0:
284,72,200555,2,0,L|404:32,1,125.999996154785,2|0,0:0|0:0,0:0:0:0:
484,160,200855,1,0,0:0:0:0:
336,244,201005,2,0,L|288:360,1,125.999996154785,2|0,0:0|0:0,0:0:0:0:
496,328,201305,1,0,0:0:0:0:
336,152,201455,2,0,P|284:164|248:224,1,125.999996154785,2|0,0:0|0:0,0:0:0:0:
128,356,201755,5,6,0:0:0:0:
84,320,201830,1,0,0:0:0:0:
72,264,201905,1,0,0:0:0:0:
96,212,201980,1,0,0:0:0:0:
136,176,202055,2,0,L|104:120,1,62.9999980773926,2|0,0:0|0:0,0:0:0:0:
200,112,202205,2,0,P|200:60|252:12,1,125.999996154785,2|0,0:0|0:0,0:0:0:0:
404,20,202505,1,0,0:0:0:0:
400,160,202655,2,0,P|400:212|348:260,1,125.999996154785,2|0,0:0|0:0,0:0:0:0:
288,368,202955,5,6,0:0:0:0:
340,348,203030,1,0,0:0:0:0:
392,332,203105,1,0,0:0:0:0:
444,312,203180,1,0,0:0:0:0:
496,292,203255,2,0,L|484:228,1,62.9999980773926,4|0,3:0|0:0,0:0:0:0:
348,236,203405,1,0,0:0:0:0:
316,240,203480,1,0,0:0:0:0:
288,228,203555,1,4,3:0:0:0:
268,204,203630,1,0,0:0:0:0:
264,172,203705,2,0,L|276:108,1,62.9999980773926,0|0,3:0|0:0,0:0:0:0:
440,120,203855,2,0,P|456:60|408:4,1,125.999996154785,4|0,0:0|0:0,0:0:0:0:
114,112,204155,5,6,0:0:0:0:
72,143,204230,1,0,0:0:0:0:
52,192,204305,1,0,0:0:0:0:
69,242,204380,1,0,0:0:0:0:
111,274,204455,1,0,0:0:0:0:
165,276,204530,1,0,0:0:0:0:
213,251,204605,1,0,0:0:0:0:
267,254,204680,1,0,0:0:0:0:
312,282,204755,6,0,L|439:274,1,125.999996154785,6|0,0:0|0:0,0:0:0:0:
377,98,205055,2,0,L|250:107,1,125.999996154785,2|0,0:0|0:0,0:0:0:0:
184,204,205355,1,6,0:0:0:0:
88,96,205505,1,0,0:0:0:0:
88,96,205580,1,0,0:0:0:0:
88,96,205655,1,2,0:0:0:0:
296,40,205805,1,2,0:0:0:0:
168,124,205955,1,0,0:0:0:0:
192,16,206105,1,0,0:0:0:0:
256,152,206255,2,0,P|276:212|252:272,1,125.999996154785,2|0,0:0|0:0,0:0:0:0:
132,124,206555,2,0,P|200:36|332:56,1,251.999992309571,6|0,0:0|0:0,0:0:0:0:
268,340,207005,2,0,P|386:360|464:268,1,251.999992309571,2|0,0:0|0:0,0:0:0:0:
412,136,207455,5,2,0:0:0:0:
260,48,207605,1,0,0:0:0:0:
288,248,207755,1,6,0:0:0:0:
288,248,207830,1,0,0:0:0:0:
288,248,207905,1,0,0:0:0:0:
472,192,208055,1,2,0:0:0:0:
260,144,208205,1,0,0:0:0:0:
260,144,208280,1,0,0:0:0:0:
260,144,208355,5,0,0:0:0:0:
212,120,208430,1,0,0:0:0:0:
160,116,208505,1,0,0:0:0:0:
112,136,208580,1,0,0:0:0:0:
80,176,208655,1,4,3:0:0:0:
68,228,208730,1,0,0:0:0:0:
84,276,208805,1,8,3:0:0:0:
116,316,208880,1,0,0:0:0:0:
164,340,208955,6,0,L|288:368,1,125.999996154785,4|0,0:0|0:0,0:0:0:0:
304,256,209255,2,0,P|360:220|416:240,1,125.999996154785,2|0,0:0|0:0,0:0:0:0:
208,228,209555,2,0,P|152:264|96:244,1,125.999996154785,2|0,0:0|0:0,0:0:0:0:
256,24,209855,2,0,L|256:156,1,125.999996154785,2|0,0:0|0:0,0:0:0:0:
292,356,210155,2,0,P|178:330|175:213,1,251.999992309571,6|0,0:0|0:0,0:0:0:0:
339,167,210605,2,0,P|356:109|218:24,1,251.999992309571,6|0,0:0|0:0,0:0:0:0:
212,128,211055,1,2,0:0:0:0:
188,172,211130,1,0,0:0:0:0:
164,216,211205,1,0,0:0:0:0:
140,264,211280,1,0,0:0:0:0:
116,312,211355,6,0,B|184:328|184:328|220:372,1,125.999996154785,6|0,0:0|0:0,0:0:0:0:
344,320,211655,1,0,0:0:0:0:
292,124,211805,2,0,L|408:184,1,125.999996154785,2|0,0:0|0:0,0:0:0:0:
484,220,212105,1,0,0:0:0:0:
240,184,212255,2,0,P|212:136|232:72,1,125.999996154785,2|0,0:0|0:0,0:0:0:0:
436,4,212555,1,6,0:0:0:0:
436,4,212630,1,0,0:0:0:0:
436,4,212705,1,0,0:0:0:0:
436,4,212780,1,0,0:0:0:0:
436,4,212855,6,0,L|364:12,1,62.9999980773926,4|0,3:0|0:0,0:0:0:0:
292,124,213005,2,0,L|354:117,1,62.9999980773926,0|0,0:0|0:0,0:0:0:0:
456,16,213155,2,0,L|384:24,1,62.9999980773926,4|0,3:0|0:0,0:0:0:0:
276,140,213305,2,0,L|338:133,1,62.9999980773926
476,28,213455,2,0,L|404:36,1,62.9999980773926,4|0,3:0|0:0,0:0:0:0:
260,156,213605,2,0,L|322:149,1,62.9999980773926,8|0,3:0|0:0,0:0:0:0:
420,124,213755,5,6,0:0:0:0:
464,160,213830,1,0,0:0:0:0:
480,216,213905,1,0,0:0:0:0:
464,272,213980,1,0,0:0:0:0:
424,312,214055,1,4,3:0:0:0:
372,332,214130,1,0,0:0:0:0:
316,328,214205,1,2,0:0:0:0:
268,300,214280,1,0,0:0:0:0:
240,248,214355,1,4,3:0:0:0:
236,192,214430,1,0,0:0:0:0:
256,140,214505,1,0,0:0:0:0:
300,104,214580,1,0,0:0:0:0:
284,48,214655,1,6,0:0:0:0:
232,24,214730,1,0,0:0:0:0:
176,28,214805,1,0,0:0:0:0:
124,52,214880,1,0,0:0:0:0:
96,100,214955,5,6,0:0:0:0:
140,136,215030,1,0,0:0:0:0:
152,192,215105,1,2,0:0:0:0:
144,248,215180,1,0,0:0:0:0:
124,300,215255,1,4,3:0:0:0:
164,340,215330,1,0,0:0:0:0:
220,348,215405,1,6,0:0:0:0:
272,324,215480,1,0,0:0:0:0:
312,284,215555,1,4,3:0:0:0:
364,264,215630,1,0,0:0:0:0:
420,268,215705,1,0,0:0:0:0:
472,244,215780,1,0,0:0:0:0:
496,192,215855,1,2,0:0:0:0:
488,136,215930,1,0,0:0:0:0:
448,96,216005,1,0,0:0:0:0:
392,84,216080,1,0,0:0:0:0:
336,100,216155,6,0,L|276:128,1,62.9999980773926,6|0,0:0|0:0,0:0:0:0:
120,192,216305,2,0,L|188:192,1,62.9999980773926,0|0,0:0|0:0,0:0:0:0:
336,284,216455,6,0,L|276:256,1,62.9999980773926,4|0,0:0|0:0,0:0:0:0:
176,56,216605,2,0,L|204:120,1,62.9999980773926
328,192,216755,2,0,L|396:192,3,62.9999980773926,4|0|0|0,3:0|0:0|0:0|0:0,0:0:0:0:
252,288,217055,2,0,L|252:360,3,62.9999980773926,4|0|8|0,3:0|0:0|3:0|0:0,0:0:0:0:
184,192,217355,1,6,0:0:0:0:
216,172,218555,6,0,P|168:216|192:296,1,157.5,6|0,0:0|2:0,0:0:0:0:
220,340,218855,2,0,L|324:356,1,105,2|0,0:0|0:0,0:0:0:0:
484,224,219155,2,0,L|380:240,1,105,2|0,0:0|0:0,0:0:0:0:
188,28,219455,2,0,L|292:44,1,105,2|0,0:0|0:0,0:0:0:0:
132,144,219755,2,0,L|28:160,1,105,2|0,0:0|0:0,0:0:0:0:
128,356,220055,2,0,L|166:258,1,105,2|0,0:0|0:0,0:0:0:0:
346,258,220355,2,0,L|384:356,1,105,4|8,3:0|3:0,0:0:0:0:
412,120,220655,1,4,3:0:0:0:
276,56,220805,2,2,P|220:36|148:92,1,157.5,6|0,0:0|2:0,0:0:0:0:
164,144,221105,5,0,0:0:0:0:
108,232,221255,1,4,3:0:0:0:
168,316,221405,1,8,3:0:0:0:
268,280,221555,2,0,L|372:264,1,105,2|0,0:0|0:0,0:0:0:0:
464,88,221855,2,0,L|360:72,1,105
450,307,222155,2,0,P|459:256|440:208,1,105,2|0,0:0|0:0,0:0:0:0:
103,123,222455,2,0,P|84:75|93:24,1,105,2|0,0:0|0:0,0:0:0:0:
288,208,222755,2,0,L|380:260,1,105,4|8,3:0|3:0,0:0:0:0:
220,72,223055,1,4,3:0:0:0:
472,220,223205,2,2,P|480:280|420:356,1,157.5,6|0,0:0|2:0,0:0:0:0:
368,368,223505,5,0,0:0:0:0:
292,308,223655,1,4,3:0:0:0:
192,288,223805,1,8,3:0:0:0:
96,316,223955,2,0,B|64:272|64:272|16:256,1,105,2|0,0:0|0:0,0:0:0:0:
68,136,224255,2,0,L|184:116,1,105,2|0,0:0|0:0,0:0:0:0:
256,192,224555,2,0,L|353:153,1,105,2|0,0:0|0:0,0:0:0:0:
464,220,224855,2,0,B|420:240|420:240|388:288,1,105,2|0,0:0|0:0,0:0:0:0:
256,372,225155,2,0,L|256:264,1,105,4|8,3:0|3:0,0:0:0:0:
320,96,225455,5,4,0:3:0:0:
192,184,225605,2,2,P|156:136|176:40,1,157.5,6|0,0:0|2:0,0:0:0:0:
208,20,225905,1,0,0:0:0:0:
260,12,225980,2,0,L|316:8,1,52.5
424,168,226205,1,0,0:0:0:0:
384,176,226280,1,0,0:0:0:0:
344,172,226355,1,0,0:0:0:0:
120,80,226505,1,0,0:0:0:0:
148,112,226580,1,0,0:0:0:0:
176,144,226655,1,0,0:0:0:0:
272,240,226805,2,2,P|208:276|132:232,1,157.5,6|0,0:0|2:0,0:0:0:0:
100,204,227105,5,6,0:0:0:0:
288,348,227255,1,2,0:0:0:0:
176,72,227405,1,2,0:0:0:0:
408,296,227555,1,4,3:0:0:0:
112,120,227705,1,8,3:0:0:0:
376,104,227855,1,4,3:0:0:0:
364,356,228005,6,0,P|440:360|488:300,1,157.5,6|0,0:0|2:0,0:0:0:0:
500,248,228305,1,0,0:0:0:0:
420,184,228455,2,0,L|356:96,1,105,2|0,0:0|0:0,0:0:0:0:
192,280,228755,2,0,L|256:192,1,105,2|0,0:0|0:0,0:0:0:0:
112,264,229055,2,0,P|120:324|160:356,1,105,2|0,0:0|0:0,0:0:0:0:
500,204,229355,2,0,P|492:144|456:112,1,105,2|0,0:0|0:0,0:0:0:0:
236,184,229655,2,0,L|172:96,1,105,2|0,0:0|0:0,0:0:0:0:
56,248,229955,2,2,B|64:268|56:292|56:292|72:344|72:344|140:328|180:372,1,210,4|4,3:0|3:0,0:0:0:0:
428,256,230405,2,2,L|216:276,1,210,6|0,0:0|0:0,0:0:0:0:
472,152,230855,5,4,3:0:0:0:
408,52,231005,1,8,3:0:0:0:
300,88,231155,2,0,L|196:116,1,105,2|0,0:0|0:0,0:0:0:0:
4,200,231455,2,0,L|108:228,1,105,2|0,0:0|0:0,0:0:0:0:
212,296,231755,2,0,L|316:268,1,105,2|0,0:0|0:0,0:0:0:0:
508,184,232055,2,0,L|404:156,1,105,2|0,0:0|0:0,0:0:0:0:
300,88,232355,1,4,3:0:0:0:
104,292,232505,1,8,3:0:0:0:
384,228,232655,1,4,3:0:0:0:
56,184,232805,2,2,B|36:152|36:152|56:128|56:128|52:80|92:32|148:36,1,210,2|0,0:0|0:0,0:0:0:0:
148,128,233255,5,4,3:0:0:0:
208,220,233405,1,8,3:0:0:0:
128,296,233555,2,0,L|224:352,1,105,2|0,0:0|0:0,0:0:0:0:
80,216,233855,2,0,P|36:256|32:308,1,105,2|0,0:0|0:0,0:0:0:0:
416,304,234155,2,0,P|460:264|464:212,1,105,2|0,0:0|0:0,0:0:0:0:
288,168,234455,2,0,L|384:224,1,105,2|0,0:0|0:0,0:0:0:0:
384,88,234755,2,0,L|288:32,1,105,4|8,3:0|3:0,0:0:0:0:
192,12,235055,5,4,3:0:0:0:
108,72,235205,2,2,P|132:128|84:204,1,157.5,6|0,0:0|2:0,0:0:0:0:
52,232,235505,1,0,0:0:0:0:
36,284,235580,2,0,L|36:348,1,52.5
204,352,235805,1,0,0:0:0:0:
204,352,235880,1,0,0:0:0:0:
204,352,235955,1,0,0:0:0:0:
200,128,236105,1,0,0:0:0:0:
236,152,236180,1,0,0:0:0:0:
272,176,236255,1,0,0:0:0:0:
416,280,236405,2,2,P|400:336|312:356,1,157.5,6|0,0:0|2:0,0:0:0:0:
260,340,236705,5,6,0:0:0:0:
104,152,236855,1,2,0:0:0:0:
352,104,237005,1,2,0:0:0:0:
164,308,237155,1,4,3:0:0:0:
166,64,237305,1,8,3:0:0:0:
387,187,237455,1,4,3:0:0:0:
387,187,237605,1,6,0:0:0:0:
256,192,237680,12,2,238955,0:0:0:0:
256,192,239030,12,4,240155,0:0:0:0:
256,192,240230,12,0,241205,2:0:0:0:
144,152,241355,5,4,0:0:0:0:
224,116,241505,1,0,0:0:0:0:
312,124,241655,1,0,0:0:0:0:
376,184,241805,1,0,0:0:0:0:
400,268,241955,1,2,0:2:0:0:
400,268,242105,1,0,0:0:0:0:
400,268,242255,2,0,P|392:308|372:332,1,62.9999980773926,2|0,0:2|0:0,0:0:0:0:
208,264,242555,5,8,0:3:0:0:
256,108,242705,1,0,0:0:0:0:
300,264,242855,1,0,0:0:0:0:
176,176,243005,1,0,0:0:0:0:
336,176,243155,1,2,0:2:0:0:
336,176,243305,1,0,0:0:0:0:
336,176,243455,2,0,P|376:168|392:144,1,62.9999980773926,2|0,0:2|0:0,0:0:0:0:
328,56,243755,5,8,0:3:0:0:
184,56,243905,1,0,0:0:0:0:
328,56,244055,1,0,0:0:0:0:
184,56,244205,1,0,0:0:0:0:
256,156,244355,1,2,0:2:0:0:
256,156,244505,1,0,0:0:0:0:
256,156,244655,2,0,L|256:224,1,62.9999980773926,2|0,0:2|0:0,0:0:0:0:
200,328,244955,5,8,0:3:0:0:
124,372,245105,1,0,0:0:0:0:
40,352,245255,1,0,0:0:0:0:
100,288,245405,1,0,0:0:0:0:
124,372,245555,1,2,0:2:0:0:
40,352,245705,1,0,0:0:0:0:
20,268,245855,2,0,L|4:200,1,62.9999980773926,2|0,0:2|0:0,0:0:0:0:
128,56,246155,5,8,0:3:0:0:
212,112,246305,1,0,0:0:0:0:
312,100,246455,1,0,0:0:0:0:
392,36,246605,1,0,0:0:0:0:
424,132,246755,2,0,P|456:176|456:212,1,84,2|0,0:2|0:0,0:0:0:0:
284,332,247055,2,0,P|252:288|252:252,1,84,2|0,0:2|0:0,0:0:0:0:
328,128,247355,5,8,0:3:0:0:
160,184,247505,1,0,0:0:0:0:
336,228,247655,1,0,0:0:0:0:
224,100,247805,1,0,0:0:0:0:
232,272,247955,2,0,L|176:340,1,84,2|0,0:2|0:0,0:0:0:0:
36,180,248255,2,0,L|92:112,1,84,2|0,0:2|0:0,0:0:0:0:
256,52,248555,5,8,0:3:0:0:
356,32,248705,1,0,0:0:0:0:
420,176,248855,1,0,0:0:0:0:
320,156,249005,1,0,0:0:0:0:
504,128,249155,2,0,P|516:176|508:216,1,84,2|0,0:2|0:0,0:0:0:0:
356,32,249455,2,0,L|272:32,1,84,2|0,0:2|0:0,0:0:0:0:
132,88,249755,5,8,0:3:0:0:
60,240,249905,1,0,0:0:0:0:
228,216,250055,1,0,0:0:0:0:
132,88,250205,1,0,0:0:0:0:
60,240,250355,2,0,L|96:332,1,84,2|0,0:2|0:0,0:0:0:0:
421,318,250655,2,0,L|452:240,1,84,2|0,0:2|0:0,0:0:0:0:
364,128,250955,6,0,P|336:84|284:72,1,105,6|0,0:0|0:0,0:0:0:0:
256,288,251255,1,2,0:3:0:0:
444,192,251405,2,0,P|468:144|464:92,1,105,2|0,0:0|0:0,0:0:0:0:
188,220,251705,1,0,0:0:0:0:
408,284,251855,2,0,P|464:292|508:268,1,105,2|0,0:0|0:0,0:0:0:0:
236,128,252155,5,6,0:0:0:0:
80,220,252305,1,0,0:0:0:0:
256,288,252455,1,2,0:3:0:0:
148,160,252605,1,2,0:0:0:0:
248,204,252755,1,0,0:0:0:0:
176,60,252905,1,0,0:0:0:0:
172,260,253055,1,2,0:0:0:0:
336,152,253205,1,0,0:0:0:0:
68,136,253355,6,0,P|24:176|24:232,1,105,6|0,0:0|0:0,0:0:0:0:
256,336,253655,1,2,0:3:0:0:
492,218,253805,2,0,P|484:168|444:136,1,105,2|0,0:0|0:0,0:0:0:0:
256,24,254105,1,0,0:0:0:0:
208,344,254255,2,0,P|256:364|304:344,1,105,2|0,0:0|0:0,0:0:0:0:
392,188,254555,5,6,0:0:0:0:
256,272,254705,1,0,0:0:0:0:
120,188,254855,1,2,0:3:0:0:
344,108,255005,1,2,0:0:0:0:
200,200,255155,1,0,0:0:0:0:
312,200,255305,1,0,0:0:0:0:
168,108,255455,2,0,L|168:68,5,35,2|0|0|0|4|4,0:0|0:0|0:0|0:0|0:3|0:3,0:0:0:0:
92,112,255755,6,0,P|56:136|48:212,1,105,6|0,0:0|0:0,0:0:0:0:
256,192,256055,1,2,0:3:0:0:
420,112,256205,2,0,P|456:136|464:212,1,105,2|0,0:0|0:0,0:0:0:0:
256,272,256505,1,0,0:0:0:0:
120,32,256655,2,0,L|52:112,1,105,2|0,0:0|0:0,0:0:0:0:
392,32,256955,2,0,L|460:112,1,105,6|0,0:0|0:0,0:0:0:0:
396,256,257255,5,2,0:3:0:0:
272,352,257405,2,0,P|212:344|176:304,1,105,2|0,0:0|0:0,0:0:0:0:
272,112,257705,1,0,0:0:0:0:
105,112,257855,2,0,L|0:112,1,105,2|0,0:0|0:0,0:0:0:0:
352,112,258155,5,6,0:0:0:0:
120,240,258305,1,0,0:0:0:0:
120,240,258455,1,2,0:3:0:0:
308,328,258605,1,2,0:0:0:0:
192,108,258755,1,0,0:0:0:0:
192,108,258905,1,0,0:0:0:0:
360,220,259055,1,2,0:0:0:0:
192,340,259205,1,0,0:0:0:0:
296,124,259355,5,6,0:0:0:0:
100,140,259505,1,0,0:0:0:0:
100,140,259655,1,2,0:3:0:0:
400,308,259805,1,2,0:0:0:0:
432,268,259880,1,0,0:0:0:0:
464,228,259955,1,0,0:0:0:0:
400,52,260105,1,0,0:0:0:0:
300,200,260255,1,2,0:0:0:0:
260,236,260330,1,0,0:0:0:0:
208,248,260405,1,0,0:0:0:0:
160,232,260480,1,0,0:0:0:0:
128,192,260555,6,0,P|92:152|0:176,2,157.5,6|2|0,0:0|0:0|0:0,0:0:0:0:
208,256,261260,1,2,0:0:0:0:
312,244,261437,1,0,0:0:0:0:
360,140,261613,2,0,P|360:80|444:48,1,157.5,2|0,0:0|2:0,0:0:0:0:
492,44,261966,5,4,0:0:0:0:
460,144,262143,1,0,0:0:0:0:
460,144,262231,2,0,B|456:196|456:196|488:244,1,105,2|0,0:0|0:0,0:0:0:0:
508,288,262496,1,2,0:0:0:0:
416,336,262672,1,2,0:0:0:0:
364,344,262760,1,0,0:0:0:0:
312,352,262849,1,2,0:2:0:0:
260,344,262937,1,0,0:0:0:0:
208,336,263025,2,0,B|152:304|152:304|104:316|52:296|32:240,1,210,6|2,0:0|0:0,0:0:0:0:
68,144,263555,5,0,0:0:0:0:
68,144,263643,1,2,0:0:0:0:
68,144,263731,2,0,L|140:64,1,105,0|0,0:0|0:0,0:0:0:0:
256,108,264084,2,0,L|308:120,1,52.5,2|0,0:0|0:0,0:0:0:0:
424,180,264260,2,0,L|372:192,1,52.5,2|0,0:0|0:0,0:0:0:0:
272,240,264437,2,0,P|268:304|296:336,1,105,2|0,0:0|0:0,0:0:0:0:
496,228,264790,6,0,P|508:176|484:120,1,105,2|2,0:3|0:0,0:0:0:0:
424,88,265055,1,0,0:0:0:0:
424,88,265143,2,0,L|372:184,1,105,2|0,0:0|0:0,0:0:0:0:
316,112,265407,1,0,0:0:0:0:
316,112,265496,2,0,B|300:100|300:100|280:112|280:112|264:100|264:100|244:108|244:108|208:124|172:108,1,157.5,2|0,0:0|2:0,0:0:0:0:
204,36,265849,2,0,P|152:32|92:112,1,157.5,2|0,0:0|2:0,0:0:0:0:
80,160,266202,5,6,0:0:0:0:
84,212,266290,1,0,0:0:0:0:
116,252,266378,1,0,0:0:0:0:
164,276,266466,1,0,0:0:0:0:
216,276,266555,2,0,L|276:264,1,52.5,2|0,0:0|0:0,0:0:0:0:
380,148,266731,2,0,L|320:160,1,52.5,2|0,0:0|0:0,0:0:0:0:
388,264,266907,1,2,0:0:0:0:
440,256,266996,1,2,0:0:0:0:
476,216,267084,2,0,L|492:160,1,52.5,2|0,0:0|0:0,0:0:0:0:
372,48,267260,1,2,0:0:0:0:
340,56,267349,1,0,0:0:0:0:
308,56,267437,2,0,L|256:44,1,52.5,2|0,0:0|0:0,0:0:0:0:
236,124,267613,6,0,P|176:120|124:200,1,157.5,6|0,0:0|2:0,0:0:0:0:
284,336,267966,2,0,L|204:196,1,157.5,2|0,0:0|2:0,0:0:0:0:
300,184,268319,1,2,0:0:0:0:
340,192,268407,1,0,0:0:0:0:
380,180,268496,1,0,0:0:0:0:
412,152,268584,1,0,0:0:0:0:
420,112,268672,2,0,L|412:56,1,52.5,2|0,0:0|0:0,0:0:0:0:
256,40,268849,2,0,L|248:91,1,52.5,2|0,0:0|0:0,0:0:0:0:
232,212,269025,5,6,0:0:0:0:
336,96,269202,1,0,0:0:0:0:
336,96,269290,1,2,0:0:0:0:
336,96,269378,2,0,P|360:48|408:28,1,105,0|2,0:0|0:0,0:0:0:0:
436,136,269731,1,2,0:0:0:0:
256,320,269907,1,0,0:0:0:0:
472,284,270084,1,2,0:0:0:0:
208,136,270260,1,0,0:0:0:0:
324,40,270437,5,6,0:0:0:0:
200,216,270613,1,0,0:0:0:0:
200,216,270702,2,0,P|224:272|312:272,1,157.5,2|0,0:0|0:0,0:0:0:0:
420,112,271143,1,2,0:0:0:0:
468,128,271231,1,0,0:0:0:0:
496,172,271319,1,0,0:0:0:0:
500,224,271407,1,0,0:0:0:0:
472,268,271496,2,0,L|440:320,1,52.5,2|0,0:0|0:0,0:0:0:0:
360,300,271672,2,0,L|328:352,1,52.5,0|0,0:0|0:0,0:0:0:0:
240,300,271849,5,2,0:0:0:0:
188,312,271937,1,0,0:0:0:0:
136,308,272025,1,0,0:0:0:0:
92,276,272113,1,0,0:0:0:0:
72,228,272202,1,2,0:0:0:0:
68,176,272290,1,0,0:0:0:0:
92,128,272378,1,2,0:0:0:0:
136,96,272466,1,0,0:0:0:0:
188,84,272555,2,0,P|248:92|300:16,1,157.5,6|0,0:0|2:0,0:0:0:0:
336,60,272907,5,2,0:0:0:0:
372,100,272996,1,0,0:0:0:0:
372,152,273084,1,0,0:0:0:0:
344,196,273172,1,0,0:0:0:0:
296,216,273260,2,0,B|244:232|244:232|208:280|144:272,1,157.5,6|0,0:0|2:0,0:0:0:0:
112,244,273613,2,0,L|20:180,1,105,2|0,0:0|0:0,0:0:0:0:
188,80,273966,1,0,0:0:0:0:
240,76,274055,1,0,0:0:0:0:
292,72,274143,1,0,0:0:0:0:
344,68,274231,1,0,0:0:0:0:
396,64,274319,2,0,L|452:156,1,105,2|0,0:0|0:0,0:0:0:0:
352,200,274672,5,2,0:0:0:0:
344,232,274760,1,0,0:0:0:0:
336,264,274849,1,0,0:0:0:0:
328,296,274937,1,2,0:0:0:0:
280,288,275025,1,0,0:0:0:0:
264,316,275113,1,0,0:0:0:0:
240,336,275202,1,2,0:0:0:0:
208,344,275290,1,0,0:0:0:0:
176,344,275378,2,0,L|64:316,1,105,2|0,0:0|0:0,0:0:0:0:
120,80,275731,5,2,0:0:0:0:
136,120,275819,1,0,0:0:0:0:
152,160,275907,1,0,0:0:0:0:
168,200,275996,1,0,0:0:0:0:
184,240,276084,2,0,P|220:284|268:292,1,105,2|0,0:0|0:0,0:0:0:0:
260,208,276349,1,0,0:0:0:0:
260,208,276437,2,0,L|296:160,1,52.5,2|0,0:0|0:0,0:0:0:0:
476,144,276613,2,0,L|440:192,1,52.5,2|0,0:0|0:0,0:0:0:0:
272,80,276790,5,2,0:0:0:0:
220,60,276878,1,0,0:0:0:0:
168,64,276966,1,0,0:0:0:0:
124,92,277055,1,0,0:0:0:0:
100,140,277143,1,2,0:0:0:0:
96,192,277231,1,0,0:0:0:0:
116,240,277319,1,0,0:0:0:0:
156,276,277407,1,0,0:0:0:0:
208,292,277496,6,0,L|264:304,1,52.5,6|0,0:0|0:0,0:0:0:0:
340,264,277672,2,0,L|366:213,1,52.5,0|4,0:0|0:3,0:0:0:0:
347,129,277849,2,0,L|305:91,1,52.5,2|4,0:0|3:0,0:0:0:0:
219,87,278025,2,0,L|171:118,1,52.5,0|0,0:0|0:0,0:0:0:0:
104,216,278202,2,0,L|121:270,1,52.5,2|0,0:0|0:0,0:0:0:0:
239,345,278378,2,0,L|297:342,1,52.5,2|0,0:0|0:0,0:0:0:0:
399,247,278555,2,0,L|411:191,1,52.5,0|0,0:0|0:0,0:0:0:0:
346,67,278731,2,0,L|295:41,1,52.5,0|0,0:0|0:0,0:0:0:0:
165,67,278907,6,0,L|216:41,1,52.5,2|0,0:0|0:0,0:0:0:0:
394,211,279084,2,0,L|343:184,1,52.5,2|0,0:0|0:0,0:0:0:0:
140,188,279260,2,0,L|190:161,1,52.5
412,316,279437,2,0,L|361:289,1,52.5,2|2,0:0|0:0,0:0:0:0:
164,256,279613,2,0,L|228:244,1,52.5,2|0,0:0|0:0,0:0:0:0:
364,84,279790,2,0,L|328:128,1,52.5,0|0,0:0|0:0,0:0:0:0:
300,360,279966,2,0,L|292:308,1,52.5,2|0,0:0|0:0,0:0:0:0:
184,88,280143,2,0,L|212:132,1,52.5,0|0,0:0|0:0,0:0:0:0:
344,248,280319,5,6,0:0:0:0:
392,272,280407,1,0,0:0:0:0:
444,268,280496,1,0,0:0:0:0:
484,236,280584,1,0,0:0:0:0:
500,188,280672,1,2,0:0:0:0:
480,140,280760,1,0,0:0:0:0:
436,112,280849,1,2,0:0:0:0:
396,76,280937,1,2,0:0:0:0:
344,80,281025,1,2,0:0:0:0:
292,68,281113,1,0,0:0:0:0:
252,32,281202,1,0,0:0:0:0:
200,16,281290,1,0,0:0:0:0:
148,28,281378,1,0,0:0:0:0:
120,72,281466,1,0,0:0:0:0:
120,124,281555,1,0,0:0:0:0:
152,164,281643,1,0,0:0:0:0:
176,212,281731,6,0,L|192:272,1,52.5,6|0,0:0|0:0,0:0:0:0:
324,212,281907,1,4,0:3:0:0:
336,264,281996,1,0,0:0:0:0:
328,316,282084,2,0,L|312:376,1,52.5,2|0,0:0|0:0,0:0:0:0:
96,308,282260,1,4,0:3:0:0:
96,308,282349,1,0,0:0:0:0:
96,308,282437,2,0,L|112:364,1,52.5,2|0,0:0|0:0,0:0:0:0:
252,200,282613,2,0,L|236:260,1,52.5,2|0,0:0|0:0,0:0:0:0:
88,176,282790,2,0,L|104:232,1,52.5,4|0,0:3|0:0,0:0:0:0:
252,72,282966,2,0,L|236:132,1,52.5,8|0,0:3|0:0,0:0:0:0:
280,296,283143,5,6,0:0:0:0:
344,304,283231,1,0,0:0:0:0:
404,284,283319,1,0,0:0:0:0:
444,236,283407,1,0,0:0:0:0:
468,176,283496,1,0,0:0:0:0:
460,112,283584,1,2,0:0:0:0:
432,56,283672,1,2,0:0:0:0:
380,88,283760,1,2,0:0:0:0:
316,96,283849,1,2,0:0:0:0:
256,76,283937,1,0,0:0:0:0:
224,24,284025,1,2,0:0:0:0:
224,24,284113,1,0,0:0:0:0:
224,24,284202,2,0,L|148:12,1,62.9999980773926,2|0,0:0|0:0,0:0:0:0:
12,112,284378,2,0,L|88:124,1,62.9999980773926,2|0,0:0|0:0,0:0:0:0:
192,216,284555,6,0,L|184:256,3,31.4999990386963,2|2|2|2,0:0|0:0|0:0|0:0,0:0:0:0:
320,216,284731,2,0,L|328:252,3,31.4999990386963,2|2|2|2,0:0|0:0|0:0|0:0,0:0:0:0:
256,136,284907,2,0,L|256:104,3,31.4999990386963,2|2|2|2,0:0|0:0|0:0|0:0,0:0:0:0:
256,276,285084,2,0,L|256:344,1,62.9999980773926,0|0,0:0|0:0,0:0:0:0:
376,356,285260,2,2,P|360:292|440:212,1,188.999994232178,6|0,0:0|2:0,0:0:0:0:
424,152,285613,2,2,L|232:80,1,188.999994232178,2|0,0:0|2:0,0:0:0:0:
188,60,285966,5,6,0:0:0:0:
64,264,286143,1,2,0:0:0:0:
64,264,286231,1,2,0:0:0:0:
448,264,286407,1,0,0:0:0:0:
448,264,286496,1,0,0:0:0:0:
324,60,286672,1,2,0:0:0:0:
256,364,286849,1,2,0:0:0:0:
256,364,286937,1,2,0:0:0:0:
256,108,287113,1,0,0:0:0:0:
256,108,287202,1,0,0:0:0:0:
124,148,287378,6,0,L|64:116,3,62.9999980773926,2|2|2|2,0:0|0:0|0:0|0:0,0:0:0:0:
184,164,287731,1,2,0:0:0:0:
216,220,287819,1,0,0:0:0:0:
212,284,287907,1,0,0:0:0:0:
168,328,287996,1,0,0:0:0:0:
108,340,288084,1,2,0:0:0:0:
128,240,288260,5,0,0:0:0:0:
128,240,288349,1,0,0:0:0:0:
384,240,288525,1,0,0:0:0:0:
384,240,288613,2,0,L|420:184,1,62.9999980773926,0|0,0:0|0:0,0:0:0:0:
352,128,288790,5,6,0:0:0:0:
352,76,288878,1,0,0:0:0:0:
320,36,288966,1,2,0:0:0:0:
272,20,289055,1,0,0:0:0:0:
224,36,289143,1,2,0:0:0:0:
204,80,289231,1,0,0:0:0:0:
164,112,289319,1,0,0:0:0:0:
112,116,289407,1,0,0:0:0:0:
64,96,289496,1,6,0:0:0:0:
36,140,289584,1,0,0:0:0:0:
24,188,289672,1,2,0:0:0:0:
32,236,289760,1,0,0:0:0:0:
68,272,289849,1,2,0:0:0:0:
116,288,289937,1,0,0:0:0:0:
168,288,290025,1,0,0:0:0:0:
216,300,290113,1,0,0:0:0:0:
248,340,290202,5,6,0:0:0:0:
296,348,290290,1,0,0:0:0:0:
344,332,290378,1,0,0:0:0:0:
392,344,290466,1,0,0:0:0:0:
432,312,290555,1,2,0:0:0:0:
456,268,290643,1,0,0:0:0:0:
448,220,290731,1,2,0:0:0:0:
420,180,290819,1,0,0:0:0:0:
412,132,290907,2,2,B|396:76|456:12|456:12|368:40|368:40|292:0|216:40,1,377.999988464356,6|0,0:0|0:0,0:0:0:0:
144,104,291613,5,4,3:0:0:0:
120,148,291702,1,0,0:0:0:0:
120,200,291790,2,0,L|144:268,1,62.9999980773926,2|2,0:0|0:0,0:0:0:0:
360,172,291966,1,4,3:0:0:0:
384,216,292055,1,0,0:0:0:0:
384,268,292143,2,0,L|360:336,1,62.9999980773926,2|2,0:0|0:0,0:0:0:0:
256,248,292319,1,4,3:0:0:0:
248,224,292407,1,0,0:0:0:0:
240,200,292496,1,2,0:0:0:0:
232,176,292584,1,2,0:0:0:0:
268,160,292672,1,4,3:0:0:0:
276,136,292760,1,0,0:0:0:0:
284,112,292849,1,2,0:0:0:0:
292,88,292937,1,2,0:0:0:0:
300,60,293025,6,0,L|368:36,1,62.9999980773926,4|0,3:0|0:0,0:0:0:0:
476,240,293202,1,4,3:0:0:0:
476,240,293290,1,4,3:0:0:0:
476,240,293378,1,4,3:0:0:0:
476,240,293466,1,4,3:0:0:0:
476,240,293555,2,0,L|408:264,1,62.9999980773926,2|0,0:0|0:0,0:0:0:0:
256,340,293731,1,4,3:0:0:0:
200,348,293819,1,4,3:0:0:0:
148,328,293907,1,4,3:0:0:0:
120,280,293996,1,4,3:0:0:0:
116,224,294084,2,0,L|144:164,1,62.9999980773926,2|0,0:0|0:0,0:0:0:0:
369,166,294260,2,0,L|396:224,1,62.9999980773926,2|0,0:0|0:0,0:0:0:0:
256,260,294437,5,4,0:0:0:0:
256,216,295037,5,4,0:0:0:0:
256,172,295637,5,4,0:0:0:0:
256,128,296237,5,4,0:0:0:0:
256,84,296837,5,4,0:2:0:0:
256,192,296912,12,0,297737,2:0:0:0:
256,48,298037,6,0,L|184:28,3,73.4999977569581,6|0|0|0,0:0|0:0|0:0|0:0,0:0:0:0:
132,144,298337,2,0,L|56:164,3,73.4999977569581,2|0|0|0,0:0|0:0|0:0|0:0,0:0:0:0:
131,210,298637,1,2,0:0:0:0:
177,257,298712,1,0,0:0:0:0:
242,267,298787,1,0,0:0:0:0:
305,249,298862,1,0,0:0:0:0:
346,197,298937,1,2,0:0:0:0:
404,166,299012,1,0,0:0:0:0:
470,170,299087,1,2,0:0:0:0:
506,225,299162,1,0,0:0:0:0:
488,288,299237,5,6,0:0:0:0:
428,316,299312,1,0,0:0:0:0:
363,299,299387,1,0,0:0:0:0:
339,237,299462,1,0,0:0:0:0:
355,173,299537,1,2,0:0:0:0:
398,123,299612,1,0,0:0:0:0:
380,59,299687,1,0,0:0:0:0:
316,40,299762,1,0,0:0:0:0:
256,69,299837,1,2,0:0:0:0:
247,134,299912,1,0,0:0:0:0:
213,191,299987,1,0,0:0:0:0:
151,215,300062,1,0,0:0:0:0:
91,186,300137,1,2,0:0:0:0:
73,122,300212,1,0,0:0:0:0:
105,64,300287,1,2,0:0:0:0:
167,41,300362,1,0,0:0:0:0:
225,76,300437,6,0,P|280:132|356:128,1,146.999995513916,6|0,0:0|0:0,0:0:0:0:
480,20,300737,2,0,P|516:76|508:156,1,146.999995513916,2|0,0:0|0:0,0:0:0:0:
344,216,301037,2,0,L|258:335,1,146.999995513916,2|0,0:0|0:0,0:0:0:0:
54,110,301337,2,0,L|140:228,1,146.999995513916,2|0,0:0|0:0,0:0:0:0:
256,68,301637,5,2,0:0:0:0:
320,52,301712,1,0,0:0:0:0:
384,68,301787,1,2,0:0:0:0:
424,120,301862,1,0,0:0:0:0:
420,188,301937,2,2,B|408:264|408:264|436:340,1,146.999995513916,6|0,0:0|0:0,0:0:0:0:
304,276,302237,1,2,0:0:0:0:
240,288,302312,1,0,0:0:0:0:
176,300,302387,1,2,0:0:0:0:
112,312,302462,1,0,0:0:0:0:
48,324,302537,2,2,B|36:308|36:308|40:288|40:288|28:272|28:272|32:256|32:256|51:184|13:106,1,220.499993270874,6|0,0:0|0:0,0:0:0:0:
109,99,302837,5,2,0:0:0:0:
167,131,302912,1,0,0:0:0:0:
233,132,302987,1,2,0:0:0:0:
297,116,303062,1,0,0:0:0:0:
356,88,303137,2,0,L|432:76,1,73.4999977569581,2|0,0:0|0:0,0:0:0:0:
376,287,303287,2,0,L|300:275,1,73.4999977569581,2|0,0:0|0:0,0:0:0:0:
216,140,303437,2,0,L|292:128,1,73.4999977569581,2|0,0:0|0:0,0:0:0:0:
236,339,303587,2,0,L|160:327,1,73.4999977569581,2|0,0:0|0:0,0:0:0:0:
88,68,303737,2,0,L|164:56,1,73.4999977569581,2|0,0:0|0:0,0:0:0:0:
108,267,303887,2,0,L|32:255,1,73.4999977569581,2|0,0:0|0:0,0:0:0:0:
92,360,304037,5,6,0:0:0:0:
156,372,304112,1,0,0:0:0:0:
220,360,304187,1,0,0:0:0:0:
272,316,304262,1,0,0:0:0:0:
299,247,304337,2,0,B|321:176,1,73.4999977569581,2|0,0:0|0:0,0:0:0:0:
256,16,304487,2,0,B|234:87,1,73.4999977569581,2|0,0:0|0:0,0:0:0:0:
112,136,304637,2,0,L|32:144,1,73.4999977569581,2|0,0:0|0:0,0:0:0:0:
308,288,304787,2,0,L|228:296,1,73.4999977569581,2|0,0:0|0:0,0:0:0:0:
84,216,304937,2,0,L|4:224,1,73.4999977569581,2|0,0:0|0:0,0:0:0:0:
252,220,305087,2,0,L|325:212,1,73.4999977569581,2|0,0:0|0:0,0:0:0:0:
380,319,305237,6,0,P|321:367|255:345,1,146.999995513916,6|0,0:0|0:0,0:0:0:0:
140,200,305537,1,2,0:0:0:0:
260,36,305687,2,0,B|368:12|368:12|484:44,1,220.499993270874,2|0,0:0|2:0,0:0:0:0:
488,108,305987,1,2,0:0:0:0:
256,312,306137,1,2,0:0:0:0:
164,80,306287,1,2,0:0:0:0:
440,272,306437,5,4,3:0:0:0:
112,232,306587,1,0,0:0:0:0:
328,24,306737,1,2,0:0:0:0:
348,72,306812,1,0,0:0:0:0:
348,124,306887,1,2,0:0:0:0:
324,172,306962,1,0,0:0:0:0:
280,196,307037,2,0,B|212:248|160:208|160:208|148:120|64:128,1,220.499993270874,2|0,0:0|2:0,0:0:0:0:
76,208,307337,2,0,L|48:364,1,146.999995513916,4|8,3:0|0:3,0:0:0:0:
172,344,307637,6,2,P|264:364|324:268,1,220.499993270874,2|0,0:0|2:0,0:0:0:0:
404,264,307937,2,2,L|300:64,1,220.499993270874,2|0,0:0|2:0,0:0:0:0:
209,68,308237,2,2,L|108:264,1,220.499993270874,2|0,0:0|2:0,0:0:0:0:
76,324,308537,1,2,0:0:0:0:
352,364,308687,1,2,0:0:0:0:
76,324,308837,1,2,0:0:0:0:
312,272,308987,1,2,0:0:0:0:
24,228,309137,1,2,0:0:0:0:
368,184,309287,2,2,B|368:152|368:152|408:144|408:144|460:80|412:8,1,220.499993270874,6|0,0:0|2:0,0:0:0:0:
356,72,309587,2,2,B|204:88|204:88|72:40,1,293.999991027832,2|0,0:0|0:0,0:0:0:0:
48,160,310037,5,4,3:0:0:0:
56,220,310112,1,0,0:0:0:0:
96,264,310187,2,0,L|152:316,1,73.4999977569581,2|0,0:0|0:0,0:0:0:0:
240,200,310337,1,4,3:0:0:0:
300,196,310412,1,0,0:0:0:0:
352,172,310487,2,0,L|408:120,1,73.4999977569581,2|0,0:0|0:0,0:0:0:0:
232,32,310637,1,4,3:0:0:0:
172,40,310712,1,2,0:0:0:0:
128,80,310787,2,0,L|104:152,1,73.4999977569581,0|2,0:0|0:0,0:0:0:0:
256,364,310937,1,4,3:0:0:0:
316,360,311012,1,0,0:0:0:0:
368,332,311087,2,0,L|420:280,1,73.4999977569581,2|0,0:0|0:0,0:0:0:0:
420,104,311237,6,0,L|368:52,1,73.4999977569581,2|0,0:0|0:0,0:0:0:0:
276,272,311387,2,0,L|348:244,1,73.4999977569581,2|0,0:0|3:0,0:0:0:0:
192,68,311537,2,0,L|164:144,1,73.4999977569581,2|4,0:0|0:3,0:0:0:0:
132,348,311687,2,0,L|160:272,1,73.4999977569581,2|0,0:0|2:0,0:0:0:0:
280,128,311837,1,6,0:0:0:0:
336,112,311912,1,0,0:0:0:0:
396,116,311987,1,0,0:0:0:0:
444,148,312062,1,0,0:0:0:0:
464,204,312137,2,0,B|460:284|460:284|496:348,1,146.999995513916,2|2,0:0|0:3,0:0:0:0:
296,344,312437,5,4,0:0:0:0:
231,360,312512,1,0,0:0:0:0:
167,339,312587,1,0,0:0:0:0:
142,277,312662,1,0,0:0:0:0:
168,216,312737,1,4,3:0:0:0:
229,190,312812,1,0,0:0:0:0:
294,201,312887,1,0,0:0:0:0:
355,177,312962,1,0,0:0:0:0:
378,115,313037,1,2,0:0:0:0:
360,51,313112,1,0,0:0:0:0:
303,16,313187,1,2,0:0:0:0:
236,18,313262,1,0,0:0:0:0:
180,54,313337,1,2,0:0:0:0:
200,116,313412,1,0,0:0:0:0:
220,178,313487,1,2,0:0:0:0:
243,239,313562,1,0,0:0:0:0:
268,300,313637,5,4,0:0:0:0:
312,250,313712,1,0,0:0:0:0:
376,236,313787,1,0,0:0:0:0:
439,255,313862,1,0,0:0:0:0:
490,213,313937,1,4,3:0:0:0:
486,146,314012,1,0,0:0:0:0:
432,107,314087,1,0,0:0:0:0:
369,128,314162,1,0,0:0:0:0:
334,52,314237,5,2,0:0:0:0:
286,117,314312,1,0,0:0:0:0:
290,197,314387,1,2,0:0:0:0:
270,275,314462,1,0,0:0:0:0:
203,321,314537,1,2,0:0:0:0:
122,324,314612,1,0,0:0:0:0:
56,276,314687,1,2,0:0:0:0:
44,195,314762,1,0,0:0:0:0:
112,156,314837,6,0,L|200:28,1,146.999995513916,6|0,0:0|0:0,0:0:0:0:
317,35,315062,1,0,0:0:0:0:
317,35,315137,2,0,L|400:156,1,146.999995513916,2|0,0:0|0:0,0:0:0:0:
428,216,315362,1,0,0:0:0:0:
408,280,315437,2,0,L|408:356,1,73.4999977569581,4|0,3:0|0:0,0:0:0:0:
320,232,315587,1,0,0:0:0:0:
252,224,315662,1,0,0:0:0:0:
188,248,315737,2,0,L|160:320,1,73.4999977569581,2|0,0:0|0:0,0:0:0:0:
132,148,315887,1,2,0:0:0:0:
64,136,315962,1,0,0:0:0:0:
0,168,316037,5,4,3:0:0:0:
152,352,316187,1,8,0:3:0:0:
256,80,316337,1,4,0:3:0:0:
84,252,316487,1,8,0:3:0:0:
320,120,316637,2,0,P|366:153|174:251,1,440.999986541749,2|0,0:0|2:0,0:0:0:0:
256,32,317237,5,6,0:0:0:0:
280,48,317312,1,0,0:0:0:0:
308,56,317387,1,0,0:0:0:0:
336,56,317462,1,0,0:0:0:0:
364,56,317537,1,0,0:0:0:0:
392,64,317612,1,0,0:0:0:0:
416,84,317687,1,2,0:0:0:0:
428,112,317762,1,0,0:0:0:0:
428,140,317837,1,0,0:0:0:0:
416,168,317912,1,0,0:0:0:0:
396,188,317987,1,2,0:0:0:0:
368,200,318062,1,2,0:0:0:0:
348,220,318137,1,0,0:0:0:0:
340,248,318212,1,0,0:0:0:0:
344,276,318287,1,2,0:0:0:0:
360,300,318362,1,0,0:0:0:0:
384,316,318437,6,0,L|492:344,2,105,6|0|0,0:0|0:0|0:0,0:0:0:0:
128,316,318887,2,2,B|60:320|60:320|28:288|28:288|52:240|16:192|16:192|48:132|24:92,1,315,6|0,0:0|0:0,0:0:0:0:
188,16,319487,1,0,0:0:0:0:
348,112,319637,5,6,0:0:0:0:
392,160,319712,1,0,0:0:0:0:
392,228,319787,2,0,L|376:304,1,73.4999977569581
180,352,319937,1,2,0:0:0:0:
140,296,320012,1,0,0:0:0:0:
160,232,320087,2,0,L|240:212,1,73.4999977569581
348,112,320237,2,0,L|356:32,1,73.4999977569581,2|0,0:0|2:0,0:0:0:0:
188,16,320387,2,0,L|116:33,1,73.4999977569581,2|0,0:0|2:0,0:0:0:0:
296,168,320537,2,0,P|308:240|260:288,1,146.999995513916,2|0,0:0|0:0,0:0:0:0:
36,236,320837,5,2,0:0:0:0:
256,76,320987,1,0,0:0:0:0:
144,336,321137,1,6,0:0:0:0:
188,16,321287,1,0,0:0:0:0:
288,324,321437,2,2,B|364:332|364:332|383:294|424:284|424:284|496:288|496:288|460:216|504:152|504:152|468:156|468:156|440:120,1,440.999986541749,2|0,0:0|0:0,0:0:0:0:
328,20,322037,5,4,0:0:0:0:
280,28,322112,1,0,0:0:0:0:
240,52,322187,1,0,0:0:0:0:
220,96,322262,1,0,0:0:0:0:
220,144,322337,1,4,3:0:0:0:
244,184,322412,1,0,0:0:0:0:
256,228,322487,1,0,0:0:0:0:
244,276,322562,1,0,0:0:0:0:
212,308,322637,1,0,0:0:0:0:
168,320,322712,1,0,0:0:0:0:
120,316,322787,1,0,0:0:0:0:
84,288,322862,1,0,0:0:0:0:
68,244,322937,1,4,3:0:0:0:
80,196,323012,1,0,0:0:0:0:
80,148,323087,1,0,0:0:0:0:
104,108,323162,1,0,0:0:0:0:
152,104,323237,5,0,0:0:0:0:
184,68,323312,1,0,0:0:0:0:
220,36,323387,1,0,0:0:0:0:
268,28,323462,1,0,0:0:0:0:
312,40,323537,1,4,3:0:0:0:
352,68,323612,1,0,0:0:0:0:
376,108,323687,1,0,0:0:0:0:
380,156,323762,1,0,0:0:0:0:
364,200,323837,1,0,0:0:0:0:
332,236,323912,1,0,0:0:0:0:
340,284,323987,1,0,0:0:0:0:
320,328,324062,1,0,0:0:0:0:
276,348,324137,1,4,3:0:0:0:
232,332,324212,1,0,0:0:0:0:
192,356,324287,1,0,0:0:0:0:
148,344,324362,1,0,0:0:0:0:
104,356,324437,6,0,L|40:348,1,52.5,6|0,0:0|0:0,0:0:0:0:
116,224,324587,2,0,L|168:217,1,52.5,0|0,0:0|0:0,0:0:0:0:
284,136,324737,1,2,0:0:0:0:
284,136,324812,2,0,P|224:128|196:92,1,105,0|0,0:0|2:0,0:0:0:0:
272,56,325037,2,0,L|372:16,1,105,2|0,0:0|0:0,0:0:0:0:
424,144,325337,2,0,L|475:134,1,52.5,0|0,0:0|0:0,0:0:0:0:
420,256,325487,2,0,L|471:265,1,52.5,0|0,0:0|0:0,0:0:0:0:
344,324,325637,1,6,0:0:0:0:
316,340,325712,1,0,0:0:0:0:
288,356,325787,1,4,0:3:0:0:
260,344,325862,1,0,0:0:0:0:
232,328,325937,1,2,0:0:0:0:
200,320,326012,1,0,0:0:0:0:
168,320,326087,2,2,B|84:336|60:260|60:260|68:220|68:220|37:196|37:196|80:156|80:88|27:57|27:57|40:8,1,420,6|0,0:0|0:0,0:0:0:0:
204,44,326837,5,4,0:0:0:0:
275,26,326912,1,0,0:0:0:0:
347,39,326987,1,0,0:0:0:0:
395,94,327062,1,0,0:0:0:0:
389,167,327137,1,4,0:0:0:0:
346,226,327212,1,0,0:0:0:0:
274,240,327287,1,0,0:0:0:0:
201,230,327362,1,0,0:0:0:0:
137,193,327437,1,4,0:0:0:0:
94,253,327512,1,0,0:0:0:0:
121,321,327587,1,0,0:0:0:0:
189,347,327662,1,0,0:0:0:0:
261,333,327737,1,4,0:0:0:0:
301,271,327812,1,0,0:0:0:0:
291,198,327887,1,0,0:0:0:0:
263,129,327962,1,0,0:0:0:0:
293,61,328037,5,4,0:0:0:0:
356,23,328112,1,0,0:0:0:0:
429,22,328187,1,0,0:0:0:0:
490,62,328262,1,0,0:0:0:0:
508,133,328337,1,4,0:0:0:0:
497,205,328412,1,0,0:0:0:0:
452,263,328487,1,0,0:0:0:0:
386,296,328562,1,0,0:0:0:0:
312,303,328637,1,4,0:0:0:0:
242,277,328712,1,0,0:0:0:0:
170,292,328787,1,0,0:0:0:0:
105,256,328862,1,0,0:0:0:0:
92,183,328937,6,2,B|226:138|226:138|310:123,1,220.499993270874,6|0,0:0|2:0,0:0:0:0:
459,114,329237,5,0,0:0:0:0:
482,183,329312,1,0,0:0:0:0:
474,256,329387,1,0,0:0:0:0:
434,317,329462,1,0,0:0:0:0:
367,348,329537,1,4,0:0:0:0:
293,353,329612,1,0,0:0:0:0:
227,320,329687,1,0,0:0:0:0:
192,255,329762,1,0,0:0:0:0:
185,181,329837,1,4,0:0:0:0:
156,113,329912,1,0,0:0:0:0:
87,86,329987,1,0,0:0:0:0:
23,123,330062,1,0,0:0:0:0:
16,196,330137,1,4,0:0:0:0:
66,249,330212,1,0,0:0:0:0:
139,246,330287,1,0,0:0:0:0:
185,181,330362,1,0,0:0:0:0:
246,140,330437,5,4,0:0:0:0:
319,132,330512,1,0,0:0:0:0:
386,161,330587,1,0,0:0:0:0:
424,223,330662,1,0,0:0:0:0:
425,296,330737,1,4,0:0:0:0:
375,350,330812,1,0,0:0:0:0:
304,369,330887,1,0,0:0:0:0:
231,354,330962,1,0,0:0:0:0:
192,291,331037,1,4,0:0:0:0:
190,217,331112,1,0,0:0:0:0:
230,155,331187,1,0,0:0:0:0:
298,129,331262,1,0,0:0:0:0:
369,144,331337,6,2,B|349:148|349:148|333:140|333:140|317:148|317:148|301:140|301:140|253:164|185:144|165:96,1,220.499993270874,6|0,0:0|2:0,0:0:0:0:
8,152,331637,5,4,0:0:0:0:
9,225,331712,1,0,0:0:0:0:
46,287,331787,1,0,0:0:0:0:
108,326,331862,1,0,0:0:0:0:
180,335,331937,1,4,0:0:0:0:
249,310,332012,1,0,0:0:0:0:
305,262,332087,1,0,0:0:0:0:
378,262,332162,1,0,0:0:0:0:
449,279,332237,1,4,0:0:0:0:
509,237,332312,1,0,0:0:0:0:
506,163,332387,1,0,0:0:0:0:
449,115,332462,1,0,0:0:0:0:
376,127,332537,1,4,0:0:0:0:
306,102,332612,1,0,0:0:0:0:
272,36,332687,1,0,0:0:0:0:
204,7,332762,1,0,0:0:0:0:
131,19,332837,5,4,0:0:0:0:
78,70,332912,1,0,0:0:0:0:
68,142,332987,1,0,0:0:0:0:
95,210,333062,1,0,0:0:0:0:
158,246,333137,1,4,0:0:0:0:
231,253,333212,1,0,0:0:0:0:
301,230,333287,1,0,0:0:0:0:
359,274,333362,1,0,0:0:0:0:
349,346,333437,1,4,0:0:0:0:
283,378,333512,1,0,0:0:0:0:
213,354,333587,1,0,0:0:0:0:
195,282,333662,1,0,0:0:0:0:
220,213,333737,6,2,B|231:173|207:137|207:137|271:151|271:151|346:135,1,220.499993270874,6|0,0:0|2:0,0:0:0:0:
448,136,334037,1,0,0:0:0:0:
412,200,334112,1,0,0:0:0:0:
340,216,334187,1,0,0:0:0:0:
276,180,334262,1,0,0:0:0:0:
252,108,334337,1,4,0:0:0:0:
184,80,334412,1,0,0:0:0:0:
120,112,334487,1,0,0:0:0:0:
104,184,334562,1,0,0:0:0:0:
160,232,334637,1,4,0:0:0:0:
220,276,334712,1,0,0:0:0:0:
220,348,334787,1,0,0:0:0:0:
148,368,334862,1,0,0:0:0:0:
107,306,334937,1,4,0:0:0:0:
143,242,335012,1,0,0:0:0:0:
216,240,335087,1,0,0:0:0:0:
273,285,335162,1,0,0:0:0:0:
346,288,335237,5,4,0:0:0:0:
407,247,335312,1,0,0:0:0:0:
432,178,335387,1,0,0:0:0:0:
410,107,335462,1,0,0:0:0:0:
351,63,335537,1,4,0:0:0:0:
277,57,335612,1,0,0:0:0:0:
211,89,335687,1,0,0:0:0:0:
175,153,335762,1,0,0:0:0:0:
190,224,335837,1,4,0:0:0:0:
174,295,335912,1,0,0:0:0:0:
108,328,335987,1,0,0:0:0:0:
44,291,336062,1,0,0:0:0:0:
41,217,336137,6,2,P|5:129|93:57,1,220.499993270874,6|0,0:0|2:2,0:0:0:0:
180,24,336437,6,0,L|332:48,1,146.999995513916,6|0,0:0|2:0,0:0:0:0:
416,116,336662,2,0,L|264:140,1,146.999995513916,2|0,0:0|2:0,0:0:0:0:
192,208,336887,2,0,L|412:248,1,220.499993270874,2|0,0:0|2:0,0:0:0:0:
476,256,337187,5,0,0:0:0:0:
308,80,337337,1,4,3:0:0:0:
144,264,337487,1,8,0:3:0:0:
432,32,337637,2,2,P|500:72|476:200,1,220.499993270874,6|2,0:0|0:0,0:0:0:0:
428,236,337937,1,4,3:0:0:0:
76,204,338087,2,2,P|56:280|163:353,1,220.499993270874,2|0,0:0|2:0,0:0:0:0:
224,348,338387,1,0,0:0:0:0:
428,236,338537,6,0,L|468:172,1,73.4999977569581,0|0,0:0|0:0,0:0:0:0:
320,104,338687,2,0,L|316:28,1,73.4999977569581
152,124,338837,2,0,B|96:72|96:72|16:84,1,146.999995513916,2|0,0:0|0:0,0:0:0:0:
80,288,339137,1,4,3:0:0:0:
232,40,339287,2,0,L|344:136,1,146.999995513916,2|0,0:0|0:0,0:0:0:0:
428,236,339587,1,0,0:0:0:0:
256,360,339737,1,4,3:0:0:0:
84,236,339887,1,8,0:3:0:0:
408,84,340037,5,6,0:0:0:0:
344,360,340187,1,2,0:0:0:0:
104,84,340337,1,4,3:0:0:0:
168,360,340487,1,2,0:0:0:0:
332,200,340637,6,0,L|368:136,1,73.4999977569581,2|0,0:0|3:0,0:0:0:0:
144,136,340787,2,0,L|180:200,1,73.4999977569581,2|0,0:0|3:0,0:0:0:0:
384,312,340937,2,0,L|436:260,1,73.4999977569581,4|0,0:3|0:0,0:0:0:0:
76,260,341087,2,0,L|128:312,1,73.4999977569581,4|0,3:0|3:0,0:0:0:0:
475,332,341237,6,0,P|510:270|490:202,1,146.999995513916,6|0,0:0|2:0,0:0:0:0:
400,256,341462,1,2,0:0:0:0:
400,256,341537,2,0,L|328:228,1,73.4999977569581,4|0,3:0|0:0,0:0:0:0:
280,148,341687,2,2,B|252:120|252:120|212:148|212:148|184:100|120:92|72:144,1,220.499993270874,2|0,0:0|2:0,0:0:0:0:
52,168,341987,1,0,0:0:0:0:
60,300,342137,1,4,3:0:0:0:
184,348,342287,1,8,0:3:0:0:
296,276,342437,5,6,0:0:0:0:
52,168,342587,1,0,0:0:0:0:
52,168,342662,1,2,0:0:0:0:
52,168,342737,1,0,0:0:0:0:
280,368,342887,2,2,P|352:348|360:212,1,220.499993270874,2|0,0:0|2:0,0:0:0:0:
348,156,343187,6,0,L|384:88,1,73.4999977569581,2|0,0:0|3:0,0:0:0:0:
129,91,343337,2,0,L|164:156,1,73.4999977569581,6|0,1:0|0:0,0:0:0:0:
268,152,343487,2,0,L|304:84,1,73.4999977569581,2|0,0:0|0:0,0:0:0:0:
48,92,343637,5,6,0:0:0:0:
36,128,343712,1,0,0:0:0:0:
32,164,343787,1,0,0:0:0:0:
36,200,343862,1,0,0:0:0:0:
48,236,343937,2,0,L|72:308,1,73.4999977569581,2|2,0:0|0:0,0:0:0:0:
224,320,344087,1,2,0:0:0:0:
260,328,344162,1,2,0:0:0:0:
296,324,344237,1,0,0:0:0:0:
328,308,344312,1,0,0:0:0:0:
348,276,344387,6,0,L|376:200,1,73.4999977569581,2|0,0:0|0:0,0:0:0:0:
164,108,344537,2,0,L|136:184,1,73.4999977569581,0|0,0:0|0:0,0:0:0:0:
352,124,344687,2,0,L|296:60,1,73.4999977569581,2|0,0:0|0:0,0:0:0:0:
160,260,344837,2,0,L|216:324,1,73.4999977569581,6|0,0:0|0:0,0:0:0:0:
303,315,344987,2,0,L|352:260,3,73.4999977569581,2|0|0|0,0:0|0:0|0:0|0:0,0:0:0:0:
280,192,345287,6,0,L|296:120,1,73.4999977569581,2|0,0:0|0:0,0:0:0:0:
188,128,345437,2,0,L|184:48,1,73.4999977569581,4|0,3:0|0:0,0:0:0:0:
76,116,345587,2,0,L|24:56,1,73.4999977569581,8|0,0:3|0:0,0:0:0:0:
116,248,345737,2,0,L|104:320,1,73.4999977569581,4|0,3:0|0:0,0:0:0:0:
256,264,345887,2,0,L|264:340,1,73.4999977569581,8|2,0:3|0:0,0:0:0:0:
376,308,346037,5,4,0:0:0:0:
444,284,346112,1,0,0:0:0:0:
492,228,346187,1,0,0:0:0:0:
500,156,346262,1,0,0:0:0:0:
468,88,346337,1,4,0:0:0:0:
404,52,346412,1,0,0:0:0:0:
332,48,346487,1,0,0:0:0:0:
272,88,346562,1,0,0:0:0:0:
256,160,346637,1,4,0:0:0:0:
280,228,346712,1,0,0:0:0:0:
256,296,346787,1,0,0:0:0:0:
196,336,346862,1,0,0:0:0:0:
124,332,346937,1,4,0:0:0:0:
72,280,347012,1,0,0:0:0:0:
60,208,347087,1,0,0:0:0:0:
88,140,347162,1,0,0:0:0:0:
152,108,347237,5,4,0:0:0:0:
215,145,347312,1,0,0:0:0:0:
278,182,347387,1,0,0:0:0:0:
341,219,347462,1,0,0:0:0:0:
403,256,347537,1,4,0:0:0:0:
475,247,347612,1,0,0:0:0:0:
508,181,347687,1,0,0:0:0:0:
492,109,347762,1,0,0:0:0:0:
426,75,347837,1,4,0:0:0:0:
357,101,347912,1,0,0:0:0:0:
336,171,347987,1,0,0:0:0:0:
371,235,348062,1,0,0:0:0:0:
431,272,348137,6,2,P|355:232|231:296,1,220.499993270874,2|0,0:0|2:0,0:0:0:0:
108,264,348437,5,4,0:0:0:0:
67,202,348512,1,0,0:0:0:0:
49,130,348587,1,0,0:0:0:0:
70,59,348662,1,0,0:0:0:0:
140,37,348737,1,4,0:0:0:0:
206,68,348812,1,0,0:0:0:0:
230,137,348887,1,0,0:0:0:0:
302,148,348962,1,0,0:0:0:0:
348,91,349037,1,4,0:0:0:0:
416,64,349112,1,0,0:0:0:0:
487,82,349187,1,0,0:0:0:0:
509,152,349262,1,0,0:0:0:0:
495,224,349337,1,4,0:0:0:0:
443,275,349412,1,0,0:0:0:0:
370,288,349487,1,0,0:0:0:0:
309,246,349562,1,0,0:0:0:0:
237,227,349637,5,4,0:0:0:0:
165,243,349712,1,0,0:0:0:0:
121,302,349787,1,0,0:0:0:0:
157,366,349862,1,0,0:0:0:0:
230,366,349937,1,4,0:0:0:0:
256,297,350012,1,0,0:0:0:0:
237,227,350087,1,0,0:0:0:0:
184,175,350162,1,0,0:0:0:0:
176,101,350237,1,4,0:0:0:0:
215,38,350312,1,0,0:0:0:0:
282,9,350387,1,0,0:0:0:0:
355,16,350462,1,0,0:0:0:0:
417,54,350537,6,2,L|345:278,1,220.499993270874,2|0,0:0|2:0,0:0:0:0:
200,368,350837,5,4,0:0:0:0:
160,306,350912,1,0,0:0:0:0:
120,244,350987,1,0,0:0:0:0:
79,182,351062,1,0,0:0:0:0:
39,120,351137,1,4,0:0:0:0:
59,49,351212,1,0,0:0:0:0:
121,10,351287,1,0,0:0:0:0:
194,6,351362,1,0,0:0:0:0:
256,44,351437,1,4,0:0:0:0:
277,114,351512,1,0,0:0:0:0:
263,186,351587,1,0,0:0:0:0:
222,247,351662,1,0,0:0:0:0:
148,248,351737,1,4,0:0:0:0:
103,189,351812,1,0,0:0:0:0:
108,115,351887,1,0,0:0:0:0:
150,55,351962,1,0,0:0:0:0:
218,29,352037,5,4,0:0:0:0:
290,19,352112,1,0,0:0:0:0:
360,40,352187,1,0,0:0:0:0:
407,95,352262,1,0,0:0:0:0:
432,164,352337,1,4,0:0:0:0:
382,218,352412,1,0,0:0:0:0:
321,259,352487,1,0,0:0:0:0:
260,301,352562,1,0,0:0:0:0:
199,343,352637,1,4,0:0:0:0:
128,322,352712,1,0,0:0:0:0:
82,263,352787,1,0,0:0:0:0:
86,189,352862,1,0,0:0:0:0:
137,136,352937,6,2,P|206:77|323:128,1,220.499993270874,2|0,0:0|2:0,0:0:0:0:
457,197,353237,5,4,0:0:0:0:
444,269,353312,1,0,0:0:0:0:
391,320,353387,1,0,0:0:0:0:
318,331,353462,1,0,0:0:0:0:
258,287,353537,1,4,0:0:0:0:
232,218,353612,1,0,0:0:0:0:
248,146,353687,1,0,0:0:0:0:
280,79,353762,1,0,0:0:0:0:
244,14,353837,1,4,0:0:0:0:
171,2,353912,1,0,0:0:0:0:
102,29,353987,1,0,0:0:0:0:
75,97,354062,1,0,0:0:0:0:
111,160,354137,1,4,0:0:0:0:
138,228,354212,1,0,0:0:0:0:
134,301,354287,1,0,0:0:0:0:
75,345,354362,1,0,0:0:0:0:
2,331,354437,5,4,3:0:0:0:
2,331,354512,1,0,0:0:0:0:
2,331,354587,2,0,L|17:260,1,73.4999977569581
83,116,354737,1,4,3:0:0:0:
83,116,354812,1,0,3:0:0:0:
83,116,354887,2,0,L|98:187,1,73.4999977569581
167,351,355037,1,4,0:0:0:0:
167,351,355112,1,0,0:0:0:0:
167,351,355187,2,0,L|182:280,1,73.4999977569581
255,103,355337,2,0,B|335:87|335:87|379:31|379:31|455:23,1,220.499993270874,6|0,0:0|2:0,0:0:0:0:
511,11,355637,5,4,0:0:0:0:
511,11,355937,2,0,L|467:151,1,146.999995513916,6|0,0:0|0:0,0:0:0:0:
256,344,356237,2,0,L|256:196,1,146.999995513916,2|0,0:0|0:0,0:0:0:0:
1,11,356537,2,0,L|45:151,1,146.999995513916,2|0,0:0|0:0,0:0:0:0:
108,308,356837,6,0,P|192:344|312:204,1,293.999991027832,6|0,0:0|0:0,0:0:0:0:
198,213,357287,2,0,P|268:333|404:308,1,293.999991027832,2|0,0:0|0:0,0:0:0:0:
256,20,357737,2,0,L|256:168,1,146.999995513916,2|0,0:0|0:0,0:0:0:0:
400,224,358037,6,0,L|440:296,1,73.4999977569581,6|0,0:0|0:0,0:0:0:0:
312,296,358187,2,0,L|324:376,1,73.4999977569581,0|0,0:0|0:0,0:0:0:0:
200,296,358337,2,0,L|188:376,1,73.4999977569581,2|0,0:0|0:0,0:0:0:0:
112,224,358487,2,0,L|76:288,1,73.4999977569581,2|0,0:0|0:0,0:0:0:0:
228,188,358637,1,2,0:0:0:0:
392,68,358787,1,0,0:0:0:0:
392,68,358862,1,0,0:0:0:0:
392,68,358937,1,6,0:0:0:0:
356,316,359087,1,0,0:0:0:0:
352,56,359237,6,0,L|284:30,1,73.4999977569581,6|0,0:0|0:0,0:0:0:0:
40,160,359387,2,0,L|112:188,1,73.4999977569581,2|0,0:2|0:0,0:0:0:0:
260,76,359537,2,0,L|184:48,1,73.4999977569581,4|0,3:0|0:3,0:0:0:0:
100,236,359687,2,0,L|172:264,1,73.4999977569581,2|0,0:0|0:0,0:0:0:0:
304,352,359837,1,2,0:0:0:0:
316,316,359912,1,0,0:0:0:0:
328,280,359987,1,2,0:0:0:0:
340,244,360062,1,0,0:0:0:0:
304,256,360137,1,2,0:0:0:0:
268,248,360212,1,0,0:0:0:0:
248,216,360287,1,2,0:0:0:0:
256,180,360362,1,0,0:0:0:0:
284,156,360437,5,6,0:0:0:0:
408,80,360587,2,0,P|344:20|280:36,1,146.999995513916,2|4,0:0|3:0,0:0:0:0:
132,108,360887,2,0,B|168:192|168:192|156:220|164:252,1,146.999995513916,2|0,0:0|2:0,0:0:0:0:
184,376,361187,5,2,0:0:0:0:
360,312,361337,1,4,3:0:0:0:
84,216,361487,1,2,0:0:0:0:
316,120,361637,1,6,0:0:0:0:
316,120,361787,2,0,B|396:120|396:120|456:68,1,146.999995513916,2|4,0:0|3:0,0:0:0:0:
216,64,362087,2,0,P|200:136|240:200,1,146.999995513916,2|0,0:0|2:0,0:0:0:0:
364,268,362387,5,2,0:0:0:0:
132,32,362537,1,4,3:0:0:0:
84,312,362687,1,2,0:0:0:0:
296,40,362837,5,4,0:0:0:0:
360,44,362912,1,0,0:0:0:0:
412,84,362987,1,0,0:0:0:0:
432,148,363062,1,0,0:0:0:0:
420,212,363137,2,0,P|400:252|368:276,1,73.4999977569581,4|0,3:0|0:0,0:0:0:0:
192,120,363287,1,0,0:0:0:0:
128,136,363362,1,0,0:0:0:0:
88,188,363437,1,2,0:0:0:0:
80,252,363512,1,0,0:0:0:0:
116,308,363587,1,0,0:0:0:0:
180,324,363662,1,0,0:0:0:0:
244,312,363737,2,0,L|316:296,1,73.4999977569581,4|0,3:0|0:0,0:0:0:0:
500,216,363887,5,0,0:0:0:0:
436,200,363962,1,0,0:0:0:0:
371,184,364037,2,0,L|299:168,1,73.4999977569581,6|0,3:0|0:0,0:0:0:0:
96,64,364187,1,0,0:0:0:0:
96,64,364262,1,0,0:0:0:0:
96,64,364337,2,0,L|128:136,1,73.4999977569581,4|0,3:0|0:0,0:0:0:0:
256,352,364487,1,0,0:0:0:0:
256,352,364562,1,0,0:0:0:0:
256,352,364637,2,0,L|280:272,1,73.4999977569581,2|8,0:0|0:3,0:0:0:0:
356,76,364787,5,0,3:0:0:0:
424,72,364862,1,0,0:0:0:0:
476,112,364937,1,4,3:0:0:0:
508,168,365012,1,0,0:0:0:0:
504,236,365087,1,8,3:0:0:0:
464,292,365162,1,0,0:0:0:0:
400,316,365237,6,0,L|324:308,1,73.4999977569581,6|0,0:0|0:0,0:0:0:0:
185,308,365387,2,0,L|112:316,1,73.4999977569581,4|0,0:2|0:0,0:0:0:0:
60,172,365537,2,0,L|140:160,1,73.4999977569581,4|0,3:0|0:0,0:0:0:0:
379,161,365687,2,0,L|452:172,1,73.4999977569581,2|2,0:0|0:0,0:0:0:0:
384,40,365837,2,0,L|316:80,1,73.4999977569581,4|0,3:0|0:0,0:0:0:0:
192,76,365987,2,0,L|129:39,1,73.4999977569581,2|2,0:0|0:0,0:0:0:0:
380,160,366137,2,0,L|352:240,1,73.4999977569581,4|0,3:0|0:0,0:0:0:0:
156,229,366287,2,0,L|132:160,1,73.4999977569581,2|0,0:0|0:0,0:0:0:0:
400,68,366437,6,0,L|324:76,1,73.4999977569581,6|2,0:0|0:0,0:0:0:0:
185,75,366587,2,0,L|112:68,1,73.4999977569581,2|2,0:0|0:0,0:0:0:0:
60,212,366737,2,0,L|140:224,1,73.4999977569581,4|0,3:0|0:0,0:0:0:0:
379,222,366887,2,0,L|452:212,1,73.4999977569581,2|2,0:0|0:0,0:0:0:0:
384,344,367037,2,0,L|316:304,1,73.4999977569581,4|0,3:0|0:0,0:0:0:0:
192,304,367187,2,0,L|129:342,1,73.4999977569581,2|2,0:0|0:0,0:0:0:0:
380,224,367337,2,0,L|352:144,1,73.4999977569581,4|4,3:0|0:3,0:0:0:0:
156,154,367487,2,0,L|132:224,1,73.4999977569581,2|2,0:0|0:0,0:0:0:0:
252,32,367637,5,4,3:0:0:0:
228,60,367712,1,0,0:0:0:0:
204,88,367787,1,4,3:0:0:0:
180,116,367862,1,0,0:0:0:0:
156,144,367937,2,0,B|104:200|104:200|104:240|144:264|144:264|160:300|144:332,1,220.499993270874,2|0,0:0|2:0,0:0:0:0:
240,360,368237,1,4,3:0:0:0:
276,368,368312,1,0,0:0:0:0:
312,356,368387,1,4,3:0:0:0:
336,328,368462,1,0,0:0:0:0:
340,292,368537,2,0,P|312:192|408:156,1,220.499993270874,2|0,0:0|2:0,0:0:0:0:
452,84,368837,6,0,L|320:20,1,146.999995513916,6|0,0:0|0:0,0:0:0:0:
192,20,369062,1,0,0:0:0:0:
192,20,369137,2,0,L|60:84,1,146.999995513916,4|0,3:0|0:0,0:0:0:0:
96,160,369362,1,0,0:0:0:0:
96,160,369437,2,0,L|80:232,1,73.4999977569581,4|0,3:0|0:0,0:0:0:0:
164,204,369587,2,0,L|148:276,1,73.4999977569581,0|0,0:0|0:0,0:0:0:0:
232,252,369737,2,0,L|216:324,1,73.4999977569581,4|0,3:0|0:0,0:0:0:0:
300,296,369887,2,0,L|284:368,1,73.4999977569581,8|0,3:3|0:0,0:0:0:0:
372,348,370037,5,6,0:0:0:0:
436,360,370112,1,0,0:0:0:0:
496,328,370187,1,0,0:0:0:0:
504,264,370262,1,0,0:0:0:0:
468,208,370337,1,4,3:0:0:0:
404,196,370412,1,0,0:0:0:0:
356,152,370487,1,2,0:0:0:0:
340,88,370562,1,0,0:0:0:0:
360,24,370637,2,0,L|288:4,1,73.4999977569581,4|0,3:0|0:0,0:0:0:0:
64,64,370787,2,0,L|136:84,1,73.4999977569581,0|0,0:0|0:0,0:0:0:0:
384,112,370937,2,0,L|312:92,1,73.4999977569581,2|0,0:0|0:0,0:0:0:0:
16,132,371087,2,0,L|88:152,1,73.4999977569581,0|0,0:0|0:0,0:0:0:0:
296,200,371237,5,6,0:0:0:0:
344,248,371312,1,0,0:0:0:0:
340,316,371387,1,0,0:0:0:0:
292,360,371462,1,0,0:0:0:0:
228,364,371537,1,2,0:0:0:0:
176,324,371612,1,0,0:0:0:0:
124,284,371687,1,2,0:0:0:0:
60,276,371762,1,0,0:0:0:0:
4,312,371837,6,0,L|0:236,1,73.4999977569581,6|0,0:0|0:0,0:0:0:0:
148,36,371987,2,0,L|152:112,1,73.4999977569581,2|0,0:0|0:0,0:0:0:0:
364,348,372137,2,0,L|360:272,1,73.4999977569581,4|0,3:0|0:0,0:0:0:0:
508,72,372287,2,0,L|511:145,1,73.4999977569581,8|8,3:0|0:3,0:0:0:0:
444,260,372437,5,6,0:0:0:0:
380,280,372512,1,0,0:0:0:0:
316,300,372587,1,0,0:0:0:0:
252,320,372662,1,0,0:0:0:0:
188,336,372737,2,0,L|104:316,1,73.4999977569581,2|0,0:0|0:0,0:0:0:0:
68,124,372887,1,4,0:0:0:0:
132,104,372962,1,0,0:0:0:0:
196,84,373037,1,2,0:0:0:0:
260,64,373112,1,0,0:0:0:0:
324,48,373187,2,0,L|408:68,1,73.4999977569581,2|0,0:0|0:0,0:0:0:0:
444,260,373337,5,6,0:0:0:0:
380,280,373412,1,0,0:0:0:0:
316,300,373487,2,0,L|260:248,1,73.4999977569581,2|0,0:0|0:0,0:0:0:0:
68,124,373637,1,6,0:0:0:0:
132,104,373712,1,0,0:0:0:0:
196,84,373787,2,0,L|252:136,1,73.4999977569581,0|0,0:0|0:0,0:0:0:0:
252,320,373937,5,2,0:0:0:0:
192,348,374012,1,0,0:0:0:0:
124,348,374087,1,0,0:0:0:0:
72,308,374162,1,0,0:0:0:0:
48,248,374237,1,2,0:0:0:0:
68,184,374312,1,0,0:0:0:0:
124,148,374387,1,4,3:0:0:0:
188,136,374462,1,8,3:0:0:0:
248,160,374537,2,0,P|352:208|412:132,1,220.499993270874,6|0,0:0|0:0,0:0:0:0:
436,192,374837,6,0,L|456:324,1,125.999996154785,6|0,0:0|0:0,0:0:0:0:
141,160,375137,2,0,L|160:36,1,125.999996154785,0|2,0:0|0:0,0:0:0:0:
352,36,375437,2,0,L|372:168,1,125.999996154785,0|0,0:0|0:0,0:0:0:0:
57,316,375737,2,0,L|76:192,1,125.999996154785,2|0,0:0|0:0,0:0:0:0:
312,324,376037,2,0,P|384:320|420:252,1,125.999996154785,6|0,0:0|0:0,0:0:0:0:
200,60,376337,2,0,P|128:64|92:132,1,125.999996154785,0|2,0:0|0:0,0:0:0:0:
384,188,376637,2,0,L|312:84,1,125.999996154785,0|0,0:0|0:0,0:0:0:0:
128,196,376937,2,0,L|200:300,1,125.999996154785,2|0,0:0|0:0,0:0:0:0:
460,208,377237,6,0,P|412:264|360:260,1,125.999996154785,6|0,0:0|0:0,0:0:0:0:
128,80,377537,2,0,P|176:136|228:132,1,125.999996154785,0|2,0:0|0:0,0:0:0:0:
456,120,377837,2,0,L|328:152,1,125.999996154785,0|0,0:0|0:0,0:0:0:0:
56,252,378137,2,0,L|184:284,1,125.999996154785,2|0,0:0|0:0,0:0:0:0:
392,344,378437,2,0,B|472:316|472:316|496:252,1,146.999995513916,6|0,0:0|0:0,0:0:0:0:
480,24,378737,2,0,L|360:124,1,146.999995513916,0|2,0:0|0:0,0:0:0:0:
144,118,379037,2,0,L|32:24,1,146.999995513916,0|0,0:0|0:0,0:0:0:0:
18,257,379337,2,0,B|40:316|40:316|120:344,1,146.999995513916,2|0,0:0|0:0,0:0:0:0:
364,120,379637,6,0,P|332:40|252:28,1,168,6|0,0:0|0:0,0:0:0:0:
8,104,379937,2,0,P|40:184|120:196,1,168,0|2,0:0|0:0,0:0:0:0:
428,64,380237,2,0,P|344:40|284:96,1,168,0|0,0:0|0:0,0:0:0:0:
280,368,380537,2,0,P|344:316|336:236,1,168,2|0,0:0|0:0,0:0:0:0:
24,248,380837,2,0,L|116:364,1,146.999995513916,6|0,0:0|0:0,0:0:0:0:
396,364,381137,2,0,L|487:248,1,146.999995513916,0|2,0:0|0:0,0:0:0:0:
56,76,381437,2,0,L|120:220,1,146.999995513916,0|0,0:0|0:0,0:0:0:0:
396,210,381737,2,0,L|456:76,1,146.999995513916,2|0,0:0|0:0,0:0:0:0:
320,268,382037,6,0,P|392:304|452:284,1,146.999995513916,6|0,0:0|0:0,0:0:0:0:
192,268,382337,2,0,P|120:304|60:284,1,146.999995513916,0|2,0:0|0:0,0:0:0:0:
88,72,382637,2,0,B|119:155|119:155|120:216,1,146.999995513916,2|0,0:0|0:0,0:0:0:0:
392,213,382937,2,0,B|392:155|392:155|424:72,1,146.999995513916,0|0,0:0|0:0,0:0:0:0:
256,48,383237,5,4,0:0:0:0:
256,72,383312,1,0,0:0:0:0:
256,96,383387,1,0,0:0:0:0:
256,120,383462,1,0,0:0:0:0:
256,144,383537,1,4,3:0:0:0:
256,168,383612,1,0,0:0:0:0:
256,192,383687,1,0,0:0:0:0:
256,216,383762,1,0,0:0:0:0:
256,240,383837,1,4,3:0:0:0:
256,264,383912,1,0,0:0:0:0:
256,288,383987,1,8,0:3:0:0:
256,312,384062,1,0,0:0:0:0:
256,336,384137,2,0,P|196:360|148:240,1,220.499993270874,4|0,0:0|0:0,0:0:0:0:
196,224,384437,5,6,0:0:0:0:
408,340,384587,1,0,0:0:0:0:
408,340,384662,1,0,0:0:0:0:
408,340,384737,1,0,0:0:0:0:
476,112,384887,1,2,0:0:0:0:
236,48,385037,2,0,L|180:188,1,146.999995513916,0|0,0:2|0:0,0:0:0:0:
96,356,385337,1,2,0:0:0:0:
336,276,385487,1,0,0:0:0:0:
60,180,385637,6,0,P|32:112|72:52,1,146.999995513916,4|0,0:0|0:0,0:0:0:0:
392,220,385937,2,0,P|420:288|380:348,1,146.999995513916,0|2,0:0|0:0,0:0:0:0:
128,256,386237,1,0,0:0:0:0:
316,184,386387,1,0,0:0:0:0:
116,120,386537,1,2,0:0:0:0:
336,80,386687,1,0,0:0:0:0:
68,54,386837,6,0,P|31:115|60:180,1,146.999995513916,6|0,0:0|0:0,0:0:0:0:
256,276,387137,1,0,0:0:0:0:
448,176,387287,1,2,0:0:0:0:
472,132,387362,1,0,0:0:0:0:
464,84,387437,1,0,0:0:0:0:
256,32,387587,1,0,0:0:0:0:
380,268,387737,1,2,0:0:0:0:
376,12,387887,1,0,0:0:0:0:
280,240,388037,5,6,0:0:0:0:
0,296,388187,1,0,0:0:0:0:
180,376,388337,1,4,3:0:0:0:
72,176,388487,2,0,L|152:48,1,146.999995513916,2|0,0:0|0:0,0:0:0:0:
256,168,388787,1,0,0:0:0:0:
362,51,388937,2,0,L|440:176,1,146.999995513916,2|8,0:0|0:3,0:0:0:0:
20,284,389237,5,6,0:0:0:0:
284,228,389387,1,0,0:0:0:0:
284,228,389462,1,0,0:0:0:0:
284,228,389537,2,0,P|312:144|272:76,1,168,0|2,0:0|0:0,0:0:0:0:
20,64,389837,1,0,0:0:0:0:
168,304,389987,1,0,0:0:0:0:
228,152,390137,1,2,0:0:0:0:
8,184,390287,1,0,0:0:0:0:
268,324,390437,6,0,P|340:312|380:248,1,146.999995513916,6|0,0:0|0:0,0:0:0:0:
244,60,390737,2,0,P|172:72|132:136,1,146.999995513916,0|2,0:0|0:0,0:0:0:0:
124,340,391037,1,0,0:0:0:0:
228,152,391187,1,0,0:0:0:0:
432,348,391337,1,2,0:0:0:0:
488,104,391487,1,0,0:0:0:0:
488,104,391637,6,2,P|392:40|280:168,1,293.999991027832,6|0,0:0|0:0,0:0:0:0:
88,44,392087,2,2,B|56:112|116:176|168:164|168:164|144:296|284:348|376:308|428:212|380:124,1,587.999982055665,2|0,0:0|0:0,0:0:0:0:
256,24,392837,5,4,0:2:0:0:
280,196,392987,1,0,0:0:0:0:
280,196,393062,1,0,0:0:0:0:
280,196,393137,1,4,3:0:0:0:
256,24,393287,1,4,0:2:0:0:
140,288,393437,1,0,0:0:0:0:
180,320,393512,1,0,0:0:0:0:
228,340,393587,1,0,0:0:0:0:
280,344,393662,1,0,0:0:0:0:
332,332,393737,1,4,3:0:0:0:
376,304,393812,1,0,0:0:0:0:
408,264,393887,1,8,0:3:0:0:
424,216,393962,1,0,0:0:0:0:
416,164,394037,6,0,L|400:88,3,73.4999977569581,0|0|0|0,0:0|0:0|0:0|0:0,0:0:0:0:
328,160,394337,2,0,L|296:16,1,146.999995513916,4|0,3:0|0:0,0:0:0:0:
60,56,394637,1,2,0:0:0:0:
196,184,394787,1,0,0:0:0:0:
196,184,394862,1,0,0:0:0:0:
196,184,394937,1,4,3:0:0:0:
8,228,395087,1,0,0:0:0:0:
60,56,395237,6,0,L|208:28,1,146.999995513916,6|0,0:0|0:0,0:0:0:0:
276,184,395537,1,4,3:0:0:0:
204,355,395687,2,0,L|60:328,1,146.999995513916,2|0,0:0|0:0,0:0:0:0:
236,124,395987,1,0,0:0:0:0:
392,296,396137,1,4,3:0:0:0:
416,244,396212,1,0,0:0:0:0:
440,188,396287,1,2,0:2:0:0:
464,136,396362,1,0,0:0:0:0:
488,84,396437,6,0,P|436:24|352:28,1,146.999995513916,2|0,0:0|0:0,0:0:0:0:
176,208,396737,1,4,3:0:0:0:
400,116,396887,2,0,L|400:268,1,146.999995513916,2|0,0:0|0:0,0:0:0:0:
256,352,397187,1,2,0:0:0:0:
256,92,397337,1,4,3:0:0:0:
360,240,397487,1,2,0:0:0:0:
160,112,397637,5,4,0:0:0:0:
100,120,397712,1,0,0:0:0:0:
56,160,397787,1,0,0:0:0:0:
48,220,397862,1,0,0:0:0:0:
72,272,397937,1,4,3:0:0:0:
120,304,398012,1,0,0:0:0:0:
180,304,398087,1,0,0:0:0:0:
232,276,398162,1,0,0:0:0:0:
260,224,398237,2,0,L|272:144,1,73.4999977569581,4|0,3:0|0:0,0:0:0:0:
340,24,398387,2,0,L|350:96,1,73.4999977569581
412,240,398537,2,0,L|424:160,1,73.4999977569581,4|0,3:0|0:0,0:0:0:0:
488,8,398687,2,0,L|498:80,1,73.4999977569581
480,288,398837,6,0,P|448:364|372:356,1,146.999995513916,6|0,0:0|0:0,0:0:0:0:
160,320,399137,1,4,3:0:0:0:
412,240,399287,1,0,0:0:0:0:
144,160,399437,1,2,0:0:0:0:
128,128,399512,1,0,0:0:0:0:
136,96,399587,1,0,0:0:0:0:
340,24,399737,1,4,3:0:0:0:
244,188,399887,1,8,3:0:0:0:
132,240,400037,6,0,P|84:300|100:372,1,146.999995513916,6|0,0:0|0:0,0:0:0:0:
328,352,400337,1,4,3:0:0:0:
456,160,400487,2,0,P|504:100|488:28,1,146.999995513916,2|0,0:0|0:0,0:0:0:0:
256,224,400787,2,0,P|288:312|476:288,1,293.999991027832,2|2,0:0|0:0,0:0:0:0:
256,60,401237,5,6,0:0:0:0:
212,48,401312,1,0,0:0:0:0:
168,52,401387,1,0,0:0:0:0:
132,80,401462,1,0,0:0:0:0:
112,120,401537,1,4,3:0:0:0:
112,164,401612,1,0,0:0:0:0:
124,208,401687,1,2,0:0:0:0:
160,236,401762,1,0,0:0:0:0:
160,280,401837,1,4,3:0:0:0:
188,312,401912,1,0,0:0:0:0:
228,332,401987,1,2,0:0:0:0:
272,332,402062,1,0,0:0:0:0:
312,312,402137,1,0,0:0:0:0:
340,276,402212,1,0,2:0:0:0:
352,232,402287,1,2,0:0:0:0:
344,188,402362,1,0,0:0:0:0:
320,152,402437,6,0,P|304:80|352:24,1,146.999995513916,6|0,0:0|0:0,0:0:0:0:
432,108,402737,1,4,3:0:0:0:
216,256,402887,2,0,P|280:304|348:288,1,146.999995513916,0|4,0:0|3:0,0:0:0:0:
492,192,403187,1,0,0:0:0:0:
224,72,403337,1,4,3:0:0:0:
180,44,403412,1,0,0:0:0:0:
128,44,403487,1,8,3:0:0:0:
88,76,403562,1,0,0:0:0:0:
68,124,403637,6,0,L|36:268,1,146.999995513916,6|0,0:0|0:0,0:0:0:0:
260,356,403937,1,4,3:0:0:0:
176,168,404087,1,2,0:0:0:0:
0,348,404237,2,0,P|72:352|120:296,1,146.999995513916,2|0,0:0|0:0,0:0:0:0:
164,100,404537,1,4,3:0:0:0:
304,244,404687,1,8,3:0:0:0:
84,116,404837,2,0,P|108:40|168:16,1,146.999995513916,6|0,0:0|0:0,0:0:0:0:
256,192,405137,1,4,3:0:0:0:
346,16,405287,2,0,P|410:46|428:116,1,146.999995513916,2|4,0:0|0:0,0:0:0:0:
388,232,405587,1,2,0:0:0:0:
264,276,405737,1,4,3:0:0:0:
152,208,405887,1,2,0:0:0:0:
164,76,406037,6,0,P|176:180|24:248,1,293.999991027832,0|4,0:0|3:0,0:0:0:0:
124,336,406487,2,0,L|344:316,1,220.499993270874,2|0,0:0|2:0,0:0:0:0:
364,252,406787,2,0,P|332:180|364:120,1,146.999995513916,2|4,0:0|3:0,0:0:0:0:
476,188,407087,1,2,0:2:0:0:
292,32,407237,6,0,L|240:180,1,146.999995513916,6|0,0:0|0:0,0:0:0:0:
256,324,407537,1,4,3:0:0:0:
80,124,407687,2,0,L|132:272,1,146.999995513916,2|4,0:0|3:0,0:0:0:0:
352,344,407987,1,0,0:0:0:0:
472,152,408137,5,2,0:0:0:0:
240,56,408287,1,0,0:0:0:0:
92,272,408437,1,6,1:0:0:0:
125,328,408512,1,0,0:0:0:0:
187,350,408587,1,0,0:0:0:0:
252,341,408662,1,0,0:0:0:0:
306,303,408737,1,0,0:0:0:0:
329,241,408812,1,0,0:0:0:0:
318,175,408887,1,2,0:0:0:0:
333,110,408962,1,0,0:0:0:0:
394,85,409037,1,0,0:0:0:0:
451,117,409112,1,0,0:0:0:0:
458,182,409187,1,0,0:0:0:0:
445,246,409262,1,0,0:0:0:0:
464,309,409337,1,2,0:0:0:0:
464,309,409412,1,0,0:0:0:0:
464,309,409487,1,0,0:0:0:0:
464,309,409562,1,0,0:0:0:0:
464,309,409637,5,6,0:0:0:0:
426,254,409712,1,0,0:0:0:0:
360,242,409787,1,0,0:0:0:0:
294,249,409862,1,0,0:0:0:0:
244,293,409937,1,2,0:0:0:0:
178,300,410012,1,0,0:0:0:0:
121,265,410087,1,2,0:0:0:0:
97,203,410162,1,0,0:0:0:0:
113,138,410237,1,0,0:0:0:0:
170,105,410312,1,0,0:0:0:0:
236,102,410387,1,0,0:0:0:0:
295,130,410462,1,0,0:0:0:0:
321,190,410537,5,2,0:0:0:0:
316,263,410612,5,0,3:0:0:0:
267,327,410687,5,4,3:0:0:0:
186,362,410762,5,8,3:0:0:0:
91,351,410837,5,6,0:0:0:0:
16,28,410987,1,0,0:0:0:0:
16,28,411062,1,0,0:0:0:0:
16,28,411137,1,0,0:0:0:0:
440,192,411287,1,0,0:0:0:0:
440,192,411362,1,0,0:0:0:0:
440,192,411437,1,0,0:0:0:0:
16,356,411587,1,0,0:0:0:0:
364,316,411737,1,0,0:0:0:0:
76,104,411887,1,0,0:0:0:0:
368,204,412037,5,0,0:0:0:0:
368,204,412112,1,0,0:0:0:0:
368,204,412187,2,0,L|424:252,1,73.4999977569581,0|0,0:0|0:0,0:0:0:0:
296,304,412337,1,0,0:0:0:0:
248,340,412412,1,0,0:0:0:0:
188,336,412487,2,0,L|112:316,1,73.4999977569581
64,216,412637,1,0,0:0:0:0:
16,184,412712,1,0,0:0:0:0:
4,128,412787,1,0,0:0:0:0:
32,76,412862,1,0,0:0:0:0:
84,48,412937,1,0,0:0:0:0:
376,32,413087,1,0,0:0:0:0:
148,144,413237,6,0,L|64:168,3,73.4999977569581,4|0|0|0,0:0|0:0|0:0|0:0,0:0:0:0:
260,224,413537,2,0,L|344:248,3,73.4999977569581,0|0|0|0,0:0|0:0|0:0|0:0,0:0:0:0:
144,272,413837,2,0,P|88:324|16:296,1,146.999995513916,6|0,0:0|0:0,0:0:0:0:
76,112,414137,2,0,P|132:60|204:88,1,146.999995513916,2|0,0:0|0:0,0:0:0:0:
360,272,414437,1,2,0:0:0:0:
360,108,414587,1,0,0:0:0:0:
168,192,414737,1,0,0:0:0:0:
424,172,414887,2,0,P|448:96|420:40,2,146.999995513916,2|0|0,0:0|0:0|0:0,0:0:0:0:
256,352,415337,1,2,0:0:0:0:
256,352,415412,1,0,0:0:0:0:
256,352,415487,1,0,0:0:0:0:
24,216,415637,5,6,0:0:0:0:
280,136,415787,1,0,0:0:0:0:
444,332,415937,1,2,0:0:0:0:
244,256,416087,2,0,P|164:252|128:124,1,220.499993270874,2|0,0:0|0:0,0:0:0:0:
136,76,416387,1,0,0:0:0:0:
376,76,416537,1,2,0:0:0:0:
376,76,416612,1,0,0:0:0:0:
376,76,416687,1,0,0:0:0:0:
436,176,416837,5,6,0:0:0:0:
484,356,416987,1,0,0:0:0:0:
324,192,417137,1,4,3:0:0:0:
312,368,417287,1,0,0:0:0:0:
272,108,417437,5,4,3:0:0:0:
320,288,417587,1,0,0:0:0:0:
160,124,417737,1,4,3:0:0:0:
148,300,417887,1,0,0:0:0:0:
88,80,418037,6,0,P|156:36|216:64,1,146.999995513916,6|0,0:0|0:0,0:0:0:0:
388,328,418337,2,0,P|320:372|260:344,1,146.999995513916,0|0,0:0|0:0,0:0:0:0:
64,300,418637,2,0,L|208:252,1,146.999995513916,6|0,0:0|0:0,0:0:0:0:
504,232,418937,2,0,L|360:184,1,146.999995513916,2|0,0:0|0:0,0:0:0:0:
156,124,419237,1,6,0:0:0:0:
312,16,419387,1,0,0:0:0:0:
312,16,419462,1,0,0:0:0:0:
312,16,419537,1,2,0:0:0:0:
364,184,419687,2,0,B|320:248|320:248|244:264,2,146.999995513916,2|0|0,0:0|0:0|0:0,0:0:0:0:
212,24,420137,5,2,0:0:0:0:
280,176,420287,1,0,0:0:0:0:
156,124,420437,1,6,0:0:0:0:
156,124,420512,1,0,0:0:0:0:
156,124,420587,1,0,0:0:0:0:
352,96,420737,1,0,0:0:0:0:
252,296,420887,1,2,0:0:0:0:
252,296,420962,1,0,0:0:0:0:
252,296,421037,2,0,P|320:328|384:296,1,146.999995513916,0|0,0:0|0:0,0:0:0:0:
328,100,421337,1,2,0:0:0:0:
144,228,421487,1,0,0:0:0:0:
148,40,421637,5,6,0:0:0:0:
188,84,421712,1,0,0:0:0:0:
228,128,421787,1,0,0:0:0:0:
272,168,421862,1,0,0:0:0:0:
328,188,421937,1,2,0:0:0:0:
384,168,422012,1,0,0:0:0:0:
420,120,422087,2,0,L|496:152,5,73.4999977569581,0|0|0|0|0|0,0:0|0:0|0:0|0:0|0:0|0:0,0:0:0:0:
336,88,422537,1,0,0:0:0:0:
328,108,422612,1,0,0:0:0:0:
320,128,422687,1,0,0:0:0:0:
312,148,422762,1,0,0:0:0:0:
304,164,422837,6,0,P|216:160|192:108,1,146.999995513916,4|0,0:0|0:0,0:0:0:0:
112,4,423137,1,2,0:0:0:0:
32,196,423287,1,0,0:0:0:0:
180,344,423437,1,2,0:0:0:0:
144,120,423587,1,0,0:0:0:0:
288,264,423737,1,2,0:0:0:0:
60,116,423887,1,0,0:0:0:0:
276,352,424037,6,0,P|352:332|372:264,1,146.999995513916,6|0,0:0|0:0,0:0:0:0:
256,76,424337,1,0,0:0:0:0:
256,76,424412,1,0,0:0:0:0:
256,76,424487,2,0,L|404:32,2,146.999995513916,6|0|0,0:0|0:0|0:0,0:0:0:0:
64,164,424937,1,2,0:0:0:0:
448,220,425087,1,0,0:0:0:0:
112,248,425237,6,0,P|152:344|328:316,1,293.999991027832,6|0,0:0|0:0,0:0:0:0:
192,52,425687,2,0,P|325:17|399:134,1,293.999991027832,2|0,0:0|0:0,0:0:0:0:
392,284,426137,1,2,0:0:0:0:
292,96,426287,1,0,0:0:0:0:
224,276,426437,6,0,L|188:348,3,73.4999977569581,6|0|0|0,0:0|0:0|0:0|0:0,0:0:0:0:
112,228,426737,2,0,L|32:264,3,73.4999977569581,4|0|0|0,3:0|0:0|0:0|0:0,0:0:0:0:
76,120,427037,2,0,L|4:104,3,73.4999977569581,4|0|0|0,3:0|0:0|0:0|0:0,0:0:0:0:
196,144,427337,2,0,B|230:126|230:126|272:132,3,73.4999977569581,4|0|8|0,3:0|0:0|3:0|0:0,0:0:0:0:
278,195,427637,5,6,0:0:0:0:
302,256,427712,1,0,0:0:0:0:
365,275,427787,1,0,0:0:0:0:
416,233,427862,1,0,0:0:0:0:
403,168,427937,1,4,3:0:0:0:
342,141,428012,1,0,0:0:0:0:
277,156,428087,1,2,0:0:0:0:
231,108,428162,1,0,0:0:0:0:
231,41,428237,1,4,3:0:0:0:
285,2,428312,1,0,0:0:0:0:
348,20,428387,1,0,0:0:0:0:
376,79,428462,1,0,0:0:0:0:
342,141,428537,2,0,L|279:188,3,73.4999977569581,6|0|0|0,0:0|0:0|0:0|0:0,0:0:0:0:
218,199,428837,5,6,0:0:0:0:
153,186,428912,1,0,0:0:0:0:
121,127,428987,1,2,0:0:0:0:
131,61,429062,1,0,0:0:0:0:
183,20,429137,1,4,3:0:0:0:
249,17,429212,1,0,0:0:0:0:
292,67,429287,1,6,0:0:0:0:
301,132,429362,1,0,0:0:0:0:
344,181,429437,1,4,3:0:0:0:
410,177,429512,1,0,0:0:0:0:
447,122,429587,1,0,0:0:0:0:
423,60,429662,1,0,0:0:0:0:
358,43,429737,1,2,0:0:0:0:
300,76,429812,1,0,0:0:0:0:
294,141,429887,1,0,0:0:0:0:
259,197,429962,1,0,0:0:0:0:
195,216,430037,5,6,0:0:0:0:
195,216,430112,1,0,0:0:0:0:
195,216,430187,2,0,L|123:201,1,73.4999977569581
36,40,430337,1,4,3:0:0:0:
36,40,430412,1,0,0:0:0:0:
36,40,430487,2,0,L|108:25,1,73.4999977569581
320,136,430637,1,4,3:0:0:0:
320,136,430712,1,0,0:0:0:0:
320,136,430787,2,0,L|248:151,1,73.4999977569581
408,272,430937,1,4,3:0:0:0:
408,272,431012,1,0,0:0:0:0:
408,272,431087,2,0,L|480:287,1,73.4999977569581
228,332,431237,6,0,L|172:284,3,73.4999977569581,4|0|0|0,3:0|0:0|0:0|0:0,0:0:0:0:
336,240,431537,2,0,L|392:192,3,73.4999977569581,4|0|0|0,3:0|0:0|0:0|0:0,0:0:0:0:
124,148,431837,2,0,L|68:100,3,73.4999977569581,4|0|0|0,3:0|0:0|0:0|0:0,0:0:0:0:
440,56,432137,2,0,L|496:8,3,73.4999977569581,2|0|0|0,0:0|0:0|0:0|0:0,0:0:0:0:
372,33,432437,5,6,0:0:0:0:
299,44,432512,1,0,0:0:0:0:
258,105,432587,1,0,0:0:0:0:
266,177,432662,1,0,0:0:0:0:
320,226,432737,1,4,3:0:0:0:
333,298,432812,1,0,0:0:0:0:
286,354,432887,1,2,0:0:0:0:
213,367,432962,1,0,0:0:0:0:
147,334,433037,1,4,3:0:0:0:
127,263,433112,1,0,0:0:0:0:
157,196,433187,1,0,0:0:0:0:
133,126,433262,1,0,0:0:0:0:
60,112,433337,1,2,0:0:0:0:
2,158,433412,1,0,0:0:0:0:
4,231,433487,1,0,0:0:0:0:
64,273,433562,1,0,0:0:0:0:
134,250,433637,5,6,0:0:0:0:
176,189,433712,1,0,0:0:0:0:
244,163,433787,1,2,0:0:0:0:
315,181,433862,1,0,0:0:0:0:
359,239,433937,1,4,3:0:0:0:
355,312,434012,1,0,0:0:0:0:
400,370,434087,1,2,0:0:0:0:
473,366,434162,1,0,0:0:0:0:
511,303,434237,1,4,3:0:0:0:
492,231,434312,1,0,0:0:0:0:
423,204,434387,1,0,0:0:0:0:
381,143,434462,1,0,0:0:0:0:
388,69,434537,1,2,0:0:0:0:
326,29,434612,1,0,0:0:0:0:
253,40,434687,1,0,0:0:0:0:
221,106,434762,1,0,0:0:0:0:
257,169,434837,5,6,0:0:0:0:
328,184,434912,1,0,0:0:0:0:
365,247,434987,1,0,0:0:0:0:
343,317,435062,1,0,0:0:0:0:
279,354,435137,1,4,3:0:0:0:
205,354,435212,1,0,0:0:0:0:
144,312,435287,1,0,0:0:0:0:
151,238,435362,1,0,0:0:0:0:
223,226,435437,1,4,3:0:0:0:
273,172,435512,1,0,0:0:0:0:
234,109,435587,1,0,0:0:0:0:
160,104,435662,1,0,0:0:0:0:
96,66,435737,2,0,B|112:34|112:34|140:10,3,73.4999977569581,2|0|0|0,0:0|0:0|0:0|0:0,0:0:0:0:
98,138,436037,5,4,0:0:0:0:
228,104,437237,6,0,P|240:240|336:248,1,251.999992309571,6|0,0:0|0:0,0:0:0:0:
420,92,437687,2,0,L|204:224,1,251.999992309571,2|0,0:0|0:0,0:0:0:0:
56,288,438137,1,2,0:0:0:0:
264,44,438287,1,0,0:0:0:0:
448,248,438437,2,0,B|400:272|400:272|356:336|264:340|220:284,1,251.999992309571,6|0,0:0|0:0,0:0:0:0:
132,120,438887,2,0,B|213:104|213:104|304:124|304:228,1,251.999992309571,2|0,0:0|0:0,0:0:0:0:
408,356,439337,2,0,L|424:228,1,125.999996154785,2|0,0:0|0:0,0:0:0:0:
444,40,439637,6,0,P|376:114|258:46,1,251.999992309571,6|0,0:0|0:0,0:0:0:0:
488,124,440087,2,0,B|504:184|478:230|478:230|380:340,1,251.999992309571,2|0,0:0|0:0,0:0:0:0:
132,192,440537,1,2,0:0:0:0:
380,192,440687,1,0,0:0:0:0:
128,336,440837,2,0,B|33:230|33:230|8:184|24:124,1,251.999992309571,6|0,0:0|0:0,0:0:0:0:
256,32,441287,1,0,0:0:0:0:
228,168,441437,2,0,B|164:152,3,62.9999980773926,2|0|0|0,0:0|0:0|0:0|0:0,0:0:0:0:
176,256,441737,2,0,B|108:272,3,62.9999980773926,2|0|0|0,0:0|0:0|0:0|0:0,0:0:0:0:
276,244,442037,6,0,P|316:180|300:112,1,125.999996154785,6|0,0:0|0:0,0:0:0:0:
104,120,442337,1,0,0:0:0:0:
200,300,442487,2,0,P|280:336|331:326,1,125.999996154785,6|0,0:0|0:0,0:0:0:0:
444,196,442787,1,0,0:0:0:0:
276,244,442937,1,2,0:0:0:0:
400,348,443087,1,0,0:0:0:0:
324,96,443237,2,0,B|284:44|236:36|236:36|208:116|148:124|84:88,1,251.999992309571,6|0,0:0|0:0,0:0:0:0:
28,184,443687,1,0,0:0:0:0:
156,184,443837,6,0,L|176:320,1,125.999996154785,2|0,0:0|0:0,0:0:0:0:
252,208,444137,2,0,L|272:344,1,125.999996154785,2|0,0:0|0:0,0:0:0:0:
344,228,444437,2,0,P|464:268|496:164,1,251.999992309571,6|0,0:0|0:0,0:0:0:0:
416,44,444887,2,0,B|400:152|400:152|456:284,1,251.999992309571,2|0,0:0|0:0,0:0:0:0:
256,192,445337,1,2,0:0:0:0:
256,192,445412,1,0,0:0:0:0:
256,192,445487,1,0,0:0:0:0:
44,148,445637,6,0,B|4:200|36:260|36:260|152:256|184:360,1,314.999990386963,6|0,0:0|2:0,0:0:0:0:
240,328,446087,2,0,P|356:348|360:192,1,314.999990386963,2|0,0:0|2:0,0:0:0:0:
308,228,446537,2,0,L|324:104,1,125.999996154785,4|8,3:0|0:3,0:0:0:0:
424,24,446837,5,6,0:0:0:0:
500,124,446987,1,0,0:0:0:0:
408,208,447137,2,0,P|408:268|456:312,1,125.999996154785,0|2,0:0|0:0,0:0:0:0:
308,228,447437,2,0,L|288:104,1,125.999996154785
200,24,447737,1,2,0:0:0:0:
108,152,447887,1,0,0:0:0:0:
224,300,448037,2,0,P|164:304|116:256,1,125.999996154785,2|0,0:0|0:0,0:0:0:0:
120,56,448337,1,0,0:0:0:0:
316,40,448487,2,0,P|376:36|424:80,2,125.999996154785,2|0|0,0:0|0:0|0:0,0:0:0:0:
88,100,448937,1,2,0:0:0:0:
344,148,449087,1,0,0:0:0:0:
76,228,449237,6,0,P|120:328|216:264,1,251.999992309571,6|0,0:0|0:0,0:0:0:0:
296,267,449687,2,0,P|389:328|436:228,1,251.999992309571,2|0,0:0|0:0,0:0:0:0:
256,68,450137,1,2,0:0:0:0:
256,132,450212,1,0,0:0:0:0:
256,196,450287,1,0,0:0:0:0:
140,248,450437,6,0,L|64:148,1,125.999996154785,2|0,0:0|0:0,0:0:0:0:
448,148,450737,2,0,L|372:248,1,125.999996154785
256,344,451037,1,2,0:0:0:0:
256,132,451187,1,0,0:0:0:0:
256,344,451337,1,2,0:0:0:0:
256,132,451487,1,0,0:0:0:0:
42,200,451637,6,0,P|77:239|156:232,2,125.999996154785,6|0|0,0:0|0:0|0:0,0:0:0:0:
160,44,452087,2,0,L|112:164,2,125.999996154785,2|0|0,0:0|0:0|0:0,0:0:0:0:
284,24,452537,1,2,0:0:0:0:
284,24,452687,1,0,0:0:0:0:
384,100,452837,2,0,P|444:120|504:104,1,125.999996154785,6|0,0:0|0:0,0:0:0:0:
288,152,453137,2,0,P|320:200|384:228,1,125.999996154785
236,312,453437,5,2,0:0:0:0:
368,136,453587,1,0,0:0:0:0:
144,204,453737,1,2,0:0:0:0:
376,264,453887,1,0,0:0:0:0:
236,88,454037,1,2,0:0:0:0:
236,88,454112,1,0,0:0:0:0:
236,88,454187,1,2,0:0:0:0:
236,88,454262,1,0,0:0:0:0:
236,88,454337,2,0,L|180:52,1,62.9999980773926,2|0,0:0|0:0,0:0:0:0:
76,120,454487,2,0,L|20:152,1,62.9999980773926,2|0,0:0|0:0,0:0:0:0:
20,214,454637,5,6,0:0:0:0:
48,270,454712,1,0,0:0:0:0:
105,296,454787,1,0,0:0:0:0:
167,285,454862,1,0,0:0:0:0:
205,235,454937,1,2,0:0:0:0:
237,289,455012,1,0,0:0:0:0:
298,300,455087,1,2,0:0:0:0:
352,268,455162,1,0,0:0:0:0:
368,208,455237,2,0,B|360:136|360:136|360:116|372:64|396:29|396:29|420:64|432:116|432:136|432:136|432:164,1,314.999990386963,6|0,0:0|0:0,0:0:0:0:
440,212,455687,1,2,0:0:0:0:
456,272,455762,1,0,0:0:0:0:
472,332,455837,1,0,0:0:0:0:
148,352,455987,1,0,0:0:0:0:
472,332,456137,2,0,L|340:308,1,125.999996154785,2|0,0:0|0:0,0:0:0:0:
140,212,456437,6,2,P|220:188|220:32,1,262.5,6|0,0:0|0:0,0:0:0:0:
152,112,456887,1,0,0:0:0:0:
140,212,457037,6,2,P|244:200|220:32,1,315.000012016297,6|0,0:0|0:0,0:0:0:0:
104,84,457487,1,0,0:0:0:0:
140,212,457637,6,2,P|264:212|220:32,1,367.500003504753,6|0,0:0|0:0,0:0:0:0:
56,52,458087,1,0,0:0:0:0:
140,212,458237,6,2,P|299:208|220:32,1,420,6|0,0:0|0:0,0:0:0:0:
8,20,458687,1,0,0:0:0:0:
252,328,458837,6,0,L|356:368,1,105,2|0,0:0|0:0,0:0:0:0:
324,264,458987,2,0,L|428:304,1,105,2|0,0:0|0:0,0:0:0:0:
400,196,459137,1,0,0:0:0:0:
260,56,459437,6,0,L|161:18,1,105,2|0,0:0|0:0,0:0:0:0:
188,120,459587,2,0,L|89:82,1,105,2|0,0:0|0:0,0:0:0:0:
112,188,459737,1,0,0:0:0:0:
380,60,460037,6,0,L|448:48,3,65.625,6|0|0|0,0:0|0:0|0:0|0:0,0:0:0:0:
428,144,460337,2,0,L|500:140,3,65.625,2|0|0|0,0:0|0:0|0:0|0:0,0:0:0:0:
428,240,460637,2,0,L|493:243,3,65.625,2|0|0|0,0:0|0:0|0:0|0:0,0:0:0:0:
380,324,460937,2,0,L|448:336,3,65.625,2|0|0|0,0:0|0:0|0:0|0:0,0:0:0:0:
320,340,461237,5,2,0:0:0:0:
256,348,461312,1,0,0:0:0:0:
196,320,461387,1,0,0:0:0:0:
164,264,461462,1,0,0:0:0:0:
156,200,461537,1,2,0:0:0:0:
192,144,461612,1,0,0:0:0:0:
248,112,461687,1,0,0:0:0:0:
312,112,461762,1,0,0:0:0:0:
364,148,461837,6,0,L|436:168,1,65.625,2|0,0:0|0:0,0:0:0:0:
323,222,461987,2,0,L|260:240,1,65.625
192,88,462137,2,0,L|264:108,1,65.625,2|2,0:0|0:0,0:0:0:0:
175,262,462287,2,0,L|112:280,1,65.625
104,60,462437,2,0,B|180:24|180:24|184:120|272:136|272:136|396:76|464:128|508:208|504:328|376:372|276:312|276:312|260:324|260:324|244:312|244:312|232:324|232:324|216:316,1,813.75
164,340,465179,6,0,L|164:368,7,26.25
88,316,465779,6,0,L|88:364,5,35
12,320,466350,6,0,L|12:268,1,52.5
500,267,466702,6,0,L|500:319,1,52.5
392,220,467017,2,0,L|368:268,1,52.5
288,196,467333,5,0,0:0:0:0:
184,208,467563,1,0,0:0:0:0:
104,184,467794,5,0,0:0:0:0:
60,100,468079,5,0,0:0:0:0:
136,112,468394,6,0,L|336:48,1,210
336,47,469461,6,0,B|322:95|322:95|350:131|350:131|322:175|322:175|410:259|334:387|230:367,1,420
