osu file format v14

[General]
AudioFilename: Dragonforce - My Spirit Will Go On (with images and lyrics) 2010.mp3
AudioLeadIn: 0
PreviewTime: 106962
Countdown: 0
SampleSet: Normal
StackLeniency: 0.3
Mode: 0
LetterboxInBreaks: 0
WidescreenStoryboard: 0

[Editor]
Bookmarks: 195012,195462,195762,196212,196662,196962,267608,267961,268314,268667,268844,269020,277667,303450,355650,363300,363750,372900,373350,373650,374850,432900,433350,433650,434100,434550,434850,456448,457048,457648,458248,458848,469498
DistanceSpacing: 1.2
BeatDivisor: 4
GridSize: 4
TimelineZoom: 2.2

[Metadata]
Title:My Spirit Will Go On
TitleUnicode:My Spirit Will Go On
Artist:DragonForce
ArtistUnicode:DragonForce
Creator:Chewin
Version:Legend
Source:
Tags:TWILIGHT DEMENTIA speedmetal metal deathstream
BeatmapID:769389
BeatmapSetID:348808

[Difficulty]
HPDrainRate:4
CircleSize:5
OverallDifficulty:8
ApproachRate:8.5
SliderMultiplier:1.6
SliderTickRate:1

[Events]
//Background and Video events
0,0,"bg1.png",0,0
//Break Periods
2,375036,382562
//Storyboard Layer 0 (Background)
//Storyboard Layer 1 (Fail)
//Storyboard Layer 2 (Pass)
//Storyboard Layer 3 (Foreground)
//Storyboard Sound Samples

[TimingPoints]
155,300,4,2,1,60,1,0
19355,-100,4,1,1,60,0,0
28955,-100,4,1,0,60,0,0
38555,-100,4,1,1,60,0,0
109355,-90.9090909090909,4,1,1,60,0,1
127355,-100,4,1,1,60,0,0
128555,-100,4,1,1,60,0,1
128630,-100,4,1,1,60,0,0
148955,-100,4,1,1,60,0,0
151205,-100,4,1,1,5,0,0
151355,-100,4,1,1,60,0,0
199355,-90.9090909090909,4,1,1,60,0,1
217355,-100,4,1,1,60,0,0
218555,-100,4,1,1,60,0,1
218630,-100,4,1,1,60,0,0
241205,-100,4,1,1,5,0,0
241355,-100,4,1,1,60,0,0
250955,-100,4,1,0,60,0,0
259355,-100,4,1,1,60,0,0
260555,352.941176470588,4,1,1,60,1,0
294437,300,4,1,1,60,1,0
298037,-100,4,1,1,60,0,1
336437,-100,4,1,1,60,0,0
346037,-100,4,1,1,60,0,1
355637,-100,4,1,1,60,0,0
365237,-100,4,1,1,60,0,1
367637,-100,4,1,1,60,0,0
368837,-100,4,1,1,60,0,1
371237,-100,4,1,1,60,0,0
372437,-100,4,1,1,60,0,1
374837,-100,4,1,1,60,0,0
413237,-90.9090909090909,4,1,1,60,0,1
436037,-100,4,1,1,60,0,0
462437,342.857142857143,4,1,1,60,1,0
465179,600,4,1,1,60,1,0
465779,571.428571428571,4,1,1,60,1,0
466350,480,4,1,1,60,1,0
466470,461.538461538462,4,1,1,60,1,0
466702,631.578947368421,4,1,1,60,1,0
467333,461.538461538462,4,1,1,60,1,0
467794,571.428571428571,4,1,1,60,1,0
468079,631.578947368421,4,1,1,60,1,0
468394,845.070422535211,4,1,1,60,1,0
469239,444.444444444444,4,1,1,60,1,0

[Colours]
Combo1 : 221,221,221
Combo2 : 0,255,255
Combo3 : 53,202,162
Combo4 : 0,64,128

[HitObjects]
64,352,155,5,2,0:0:0:0:
144,300,305,1,0,0:0:0:0:
60,256,455,2,0,P|52:216|60:160,1,80,0|2,0:0|0:0,0:0:0:0:
152,176,755,2,0,P|168:140|172:92,1,80
108,28,1055,1,2,0:0:0:0:
108,28,1205,1,0,0:0:0:0:
172,99,1355,5,2,0:0:0:0:
240,28,1505,1,0,0:0:0:0:
260,124,1655,2,0,L|352:112,1,80,0|2,0:0|0:0,0:0:0:0:
392,32,1955,2,0,L|484:52,1,80
440,140,2255,2,0,L|448:240,1,80,2|0,0:0|0:0,0:0:0:0:
456,316,2555,5,2,0:0:0:0:
456,316,2705,1,0,0:0:0:0:
376,368,2855,2,0,P|328:364|288:332,1,80,0|2,0:0|0:0,0:0:0:0:
256,264,3155,2,0,P|208:272|164:300,1,80
120,360,3455,2,0,P|72:352|40:316,1,80,2|0,0:0|0:0,0:0:0:0:
12,244,3755,5,2,0:0:0:0:
12,244,3905,1,0,0:0:0:0:
108,244,4055,2,0,P|112:200|96:160,1,80,0|2,0:0|0:0,0:0:0:0:
20,112,4355,2,0,P|36:72|72:40,1,80
144,96,4655,1,2,0:0:0:0:
144,96,4805,1,0,0:0:0:0:
204,172,4955,6,0,P|248:160|284:128,1,80,2|0,0:0|0:0,0:0:0:0:
308,48,5255,2,0,P|356:40|408:64,1,80,0|2,0:0|0:0,0:0:0:0:
456,112,5555,1,0,0:0:0:0:
456,112,5705,1,0,0:0:0:0:
372,160,5855,2,0,L|376:248,1,80,2|0,0:0|0:0,0:0:0:0:
448,304,6155,5,2,0:0:0:0:
392,380,6305,1,0,0:0:0:0:
308,336,6455,1,0,0:0:0:0:
308,336,6605,1,2,0:0:0:0:
220,372,6755,2,0,L|132:368,1,80
44,364,7055,2,0,P|32:324|32:276,1,80,2|0,0:0|0:0,0:0:0:0:
80,200,7355,5,2,0:0:0:0:
80,200,7505,1,0,0:0:0:0:
128,284,7655,1,0,0:0:0:0:
128,284,7805,1,2,0:0:0:0:
216,244,7955,1,0,0:0:0:0:
216,244,8105,1,0,0:0:0:0:
168,160,8255,1,2,0:0:0:0:
168,160,8405,1,0,0:0:0:0:
80,200,8555,5,2,0:0:0:0:
128,284,8705,1,0,0:0:0:0:
216,244,8855,1,0,0:0:0:0:
168,160,9005,1,2,0:0:0:0:
80,200,9155,2,0,P|56:160|52:124,1,80
72,32,9455,1,2,0:0:0:0:
72,32,9605,1,0,0:0:0:0:
156,76,9755,6,0,P|196:92|304:40,1,160,2|0,0:0|0:0,0:0:0:0:
384,4,10205,2,0,P|448:12|500:112,1,160,2|0,0:0|0:0,0:0:0:0:
404,96,10655,2,0,L|416:192,1,80,2|0,0:0|0:0,0:0:0:0:
496,224,10955,6,0,P|464:260|356:256,1,160,2|0,0:0|0:0,0:0:0:0:
288,196,11405,2,0,P|208:196|148:260,1,160,2|0,0:0|0:0,0:0:0:0:
244,284,11855,2,0,L|232:368,1,80,2|0,0:0|0:0,0:0:0:0:
136,376,12155,6,0,P|88:372|48:328,1,80,2|0,0:0|0:0,0:0:0:0:
16,272,12455,1,0,0:0:0:0:
104,228,12605,1,2,0:0:0:0:
104,228,12755,2,0,L|96:132,1,80
16,96,13055,1,2,0:0:0:0:
80,24,13205,1,0,0:0:0:0:
156,84,13355,6,0,P|192:116|320:96,1,160,2|0,0:0|0:0,0:0:0:0:
348,32,13805,2,0,P|408:28|480:108,1,160,2|0,0:0|0:0,0:0:0:0:
484,188,14255,1,2,0:0:0:0:
440,272,14405,1,0,0:0:0:0:
480,360,14555,6,0,P|428:368|344:288,1,160,2|0,0:0|0:0,0:0:0:0:
312,216,15005,1,2,0:0:0:0:
256,292,15155,2,0,L|152:304,1,80
112,372,15455,2,0,P|80:328|80:276,1,80,2|0,0:0|0:0,0:0:0:0:
124,220,15755,6,0,P|140:176|112:64,1,160,2|0,0:0|0:0,0:0:0:0:
36,12,16205,1,2,0:0:0:0:
24,108,16355,2,0,L|28:212,1,80
124,220,16655,2,0,P|116:264|96:296,1,80,2|0,0:0|0:0,0:0:0:0:
28,360,16955,5,2,0:0:0:0:
28,360,17105,1,0,0:0:0:0:
97,293,17255,2,0,L|192:304,1,80,0|2,0:0|0:0,0:0:0:0:
252,364,17555,2,0,P|296:360|340:332,1,80
364,256,17855,2,0,L|360:160,1,80,2|0,0:0|0:0,0:0:0:0:
424,104,18155,6,0,P|376:84|276:136,1,160,2|0,0:0|0:0,0:0:0:0:
256,216,18605,2,0,P|204:224|112:144,1,160,2|0,0:0|0:0,0:0:0:0:
100,72,19055,2,0,P|124:36|176:12,1,80,2|0,0:0|0:0,0:0:0:0:
196,104,19355,5,4,0:0:0:0:
196,104,19430,1,0,0:0:0:0:
196,104,19505,1,0,0:0:0:0:
256,28,19655,1,0,0:0:0:0:
256,28,19805,1,0,0:0:0:0:
328,92,19955,2,0,L|384:80,1,40,4|0,0:0|0:0,0:0:0:0:
416,72,20105,1,0,0:0:0:0:
488,136,20255,1,0,0:0:0:0:
488,136,20330,1,0,0:0:0:0:
488,136,20405,1,0,0:0:0:0:
444,224,20555,5,0,0:0:0:0:
444,224,20705,1,0,0:0:0:0:
356,184,20855,1,0,0:0:0:0:
356,184,21005,1,0,0:0:0:0:
360,280,21155,1,0,0:0:0:0:
360,280,21230,1,0,0:0:0:0:
360,280,21305,1,0,0:0:0:0:
300,356,21455,2,0,L|244:352,1,40
212,348,21605,1,0,0:0:0:0:
160,268,21755,5,0,0:0:0:0:
160,268,21905,1,0,0:0:0:0:
108,348,22055,1,0,0:0:0:0:
108,348,22205,1,0,0:0:0:0:
44,276,22355,1,0,0:0:0:0:
36,228,22430,1,0,0:0:0:0:
28,180,22505,1,0,0:0:0:0:
52,88,22655,1,0,0:0:0:0:
52,88,22730,1,0,0:0:0:0:
52,88,22805,1,0,0:0:0:0:
124,148,22955,5,0,0:0:0:0:
188,76,23105,1,0,0:0:0:0:
256,144,23255,1,0,0:0:0:0:
256,144,23405,1,0,0:0:0:0:
320,76,23555,1,0,0:0:0:0:
320,76,23630,1,0,0:0:0:0:
320,76,23705,1,0,0:0:0:0:
392,140,23855,2,0,L|440:136,1,40
480,132,24005,1,0,0:0:0:0:
428,52,24155,5,0,0:0:0:0:
392,140,24305,1,0,0:0:0:0:
448,216,24455,1,0,0:0:0:0:
448,216,24605,1,0,0:0:0:0:
416,308,24755,1,0,0:0:0:0:
372,332,24830,1,0,0:0:0:0:
332,356,24905,1,0,0:0:0:0:
312,260,25055,1,0,0:0:0:0:
268,284,25130,1,0,0:0:0:0:
228,308,25205,1,0,0:0:0:0:
148,364,25355,6,0,P|100:360|56:332,1,80
24,264,25655,2,0,P|20:216|36:172,1,80
116,228,25955,2,0,L|164:224,1,40
204,220,26105,1,0,0:0:0:0:
256,140,26255,2,0,L|304:144,1,40
344,148,26405,1,0,0:0:0:0:
428,192,26555,5,0,0:0:0:0:
492,120,26705,1,0,0:0:0:0:
452,32,26855,1,0,0:0:0:0:
452,32,27005,1,0,0:0:0:0:
360,56,27155,1,0,0:0:0:0:
360,56,27230,1,0,0:0:0:0:
360,56,27305,1,0,0:0:0:0:
344,148,27455,1,0,0:0:0:0:
344,148,27530,1,0,0:0:0:0:
344,148,27605,1,0,0:0:0:0:
428,192,27755,6,0,L|436:288,1,80
416,364,28055,2,0,P|376:344|340:296,1,80
296,240,28355,1,0,0:0:0:0:
296,240,28430,1,0,0:0:0:0:
296,240,28505,1,0,0:0:0:0:
256,328,28655,2,0,L|208:332,1,40
168,336,28805,1,0,0:0:0:0:
72,348,28955,6,0,P|64:308|68:260,1,80,2|0,3:0|0:0,0:0:0:0:
148,216,29255,1,0,0:0:0:0:
220,152,29405,2,0,L|212:60,1,80,2|0,3:0|0:0,0:0:0:0:
116,48,29705,1,0,0:0:0:0:
116,48,29855,2,0,L|122:127,1,80,2|0,3:0|0:0,0:0:0:0:
148,216,30155,5,2,3:0:0:0:
220,152,30305,1,0,0:0:0:0:
256,240,30455,1,0,0:0:0:0:
256,240,30605,2,0,L|348:232,1,80,2|0,3:0|0:0,0:0:0:0:
396,308,30905,1,0,0:0:0:0:
472,252,31055,2,0,P|488:212|492:164,1,80,2|0,3:0|0:0,0:0:0:0:
476,80,31355,6,0,P|456:44|424:16,1,80,2|0,3:0|0:0,0:0:0:0:
384,104,31655,1,0,0:0:0:0:
292,128,31805,2,0,P|312:164|344:192,1,80,2|0,3:0|0:0,0:0:0:0:
384,104,32105,1,0,0:0:0:0:
476,80,32255,2,0,P|456:44|424:16,1,80,2|0,3:0|0:0,0:0:0:0:
384,104,32555,5,2,0:0:0:0:
444,180,32705,1,0,0:0:0:0:
392,260,32855,1,0,0:0:0:0:
320,196,33005,5,2,0:0:0:0:
300,288,33155,1,0,0:0:0:0:
368,356,33305,1,0,0:0:0:0:
392,260,33455,5,2,0:0:0:0:
352,255,33530,1,0,0:0:0:0:
313,262,33605,1,0,0:0:0:0:
278,281,33680,1,0,0:0:0:0:
250,310,33755,6,0,L|156:304,1,80,2|0,3:0|0:0,0:0:0:0:
88,356,34055,1,0,0:0:0:0:
24,284,34205,2,0,P|20:236|32:188,1,80,2|0,3:0|0:0,0:0:0:0:
76,120,34505,1,0,0:0:0:0:
140,192,34655,2,0,L|232:184,1,80,2|0,3:0|0:0,0:0:0:0:
260,96,34955,6,0,P|304:100|348:128,1,80,2|0,3:0|0:0,0:0:0:0:
392,192,35255,1,0,0:0:0:0:
472,136,35405,2,0,L|464:48,1,80,2|0,3:0|0:0,0:0:0:0:
392,192,35705,1,0,0:0:0:0:
392,192,35855,2,0,L|399:271,1,80,2|0,3:0|0:0,0:0:0:0:
440,360,36155,6,0,P|388:364|336:328,1,80,2|0,3:0|0:0,0:0:0:0:
300,280,36455,1,0,0:0:0:0:
256,364,36605,2,0,L|148:360,1,80,2|0,3:0|0:0,0:0:0:0:
80,356,36905,1,0,0:0:0:0:
24,276,37055,2,0,P|32:232|56:200,1,80,2|0,3:0|0:0,0:0:0:0:
120,272,37355,5,2,0:0:0:0:
52,203,37505,1,0,0:0:0:0:
100,120,37655,1,0,0:0:0:0:
64,32,37805,1,2,0:0:0:0:
64,32,37880,1,0,0:0:0:0:
64,32,37955,1,0,0:0:0:0:
100,120,38105,1,0,0:0:0:0:
100,120,38180,1,0,0:0:0:0:
100,120,38255,1,2,0:0:0:0:
52,203,38405,1,0,0:0:0:0:
120,272,38555,6,0,L|176:280,3,40
208,280,38855,1,0,0:0:0:0:
236,240,38930,1,0,0:0:0:0:
284,236,39005,1,0,0:0:0:0:
324,264,39080,1,0,0:0:0:0:
320,312,39155,1,0,0:0:0:0:
340,356,39230,5,0,0:0:0:0:
384,372,39305,1,0,0:0:0:0:
432,364,39380,1,0,0:0:0:0:
464,328,39455,1,0,0:0:0:0:
472,280,39530,1,0,0:0:0:0:
440,244,39605,1,0,0:0:0:0:
396,224,39680,1,0,0:0:0:0:
380,180,39755,5,4,0:0:0:0:
236,360,40055,1,4,0:0:0:0:
0,156,40355,1,4,0:0:0:0:
512,28,40655,1,4,0:0:0:0:
424,192,40955,6,0,P|368:200|272:120,1,160,6|0,0:0|0:0,0:0:0:0:
256,56,41405,2,0,P|204:40|104:92,1,160,2|0,0:0|0:0,0:0:0:0:
60,164,41855,1,2,0:0:0:0:
60,164,42005,1,0,0:0:0:0:
108,248,42155,6,0,P|168:256|260:188,1,160,2|0,0:0|0:0,0:0:0:0:
284,308,42605,2,0,P|332:304|436:360,1,160,2|0,0:0|0:0,0:0:0:0:
456,232,43055,2,0,L|444:144,1,80,2|0,0:0|0:0,0:0:0:0:
484,64,43355,6,0,P|436:56|344:136,1,160,2|0,0:0|0:0,0:0:0:0:
316,208,43805,2,0,P|328:160|296:48,1,160,2|0,0:0|0:0,0:0:0:0:
228,120,44255,1,2,0:0:0:0:
228,120,44405,1,0,0:0:0:0:
184,204,44555,6,0,P|128:216|32:144,1,160,2|0,0:0|0:0,0:0:0:0:
24,72,45005,1,0,0:0:0:0:
96,8,45155,5,2,0:0:0:0:
124,48,45230,1,0,0:0:0:0:
128,96,45305,1,0,0:0:0:0:
104,136,45380,1,0,0:0:0:0:
56,148,45455,1,2,0:0:0:0:
20,180,45530,1,0,0:0:0:0:
4,224,45605,1,0,0:0:0:0:
12,272,45680,1,0,0:0:0:0:
48,304,45755,6,0,P|91:317|203:265,1,160,2|0,0:0|0:0,0:0:0:0:
240,364,46205,2,0,L|408:356,1,160,2|0,0:0|0:0,0:0:0:0:
440,268,46655,1,2,0:0:0:0:
440,268,46805,1,0,0:0:0:0:
352,216,46955,6,0,L|364:120,1,80,2|0,0:0|0:0,0:0:0:0:
476,108,47255,2,0,L|466:187,1,80
352,304,47555,5,2,0:0:0:0:
305,297,47630,1,0,0:0:0:0:
267,268,47705,1,0,0:0:0:0:
249,224,47780,1,0,0:0:0:0:
255,177,47855,1,2,0:0:0:0:
284,139,47930,1,0,0:0:0:0:
320,108,48005,1,0,0:0:0:0:
332,60,48080,1,0,0:0:0:0:
304,24,48155,6,0,P|254:16|150:88,1,160,2|0,0:0|0:0,0:0:0:0:
72,28,48605,2,0,P|116:76|124:188,1,160,2|0,0:0|0:0,0:0:0:0:
52,224,49055,2,0,L|48:284,1,40,2|0,0:0|0:0,0:0:0:0:
44,312,49205,1,0,0:0:0:0:
120,372,49355,5,2,0:0:0:0:
159,376,49430,1,0,0:0:0:0:
195,360,49505,1,0,0:0:0:0:
216,327,49580,1,0,0:0:0:0:
217,287,49655,1,0,0:0:0:0:
188,261,49730,1,0,0:0:0:0:
180,223,49805,1,0,0:0:0:0:
196,187,49880,1,0,0:0:0:0:
230,167,49955,6,0,L|224:112,3,40,2|0|0|0,0:0|0:0|0:0|0:0,0:0:0:0:
196,88,50255,2,0,L|208:24,3,40,2|0|0|0,0:0|0:0|0:0|0:0,0:0:0:0:
240,16,50555,6,0,P|280:16|384:84,1,160,6|0,0:0|0:0,0:0:0:0:
476,88,51005,2,0,P|464:128|464:176,1,80,2|0,0:0|0:0,0:0:0:0:
488,260,51305,1,0,0:0:0:0:
444,344,51455,2,0,P|404:336|364:304,1,80,2|0,0:0|0:0,0:0:0:0:
284,352,51755,6,0,P|324:316|344:192,1,160,2|0,0:0|0:0,0:0:0:0:
260,184,52205,2,2,P|200:184|120:116,1,160,2|0,0:0|0:0,0:0:0:0:
48,64,52655,2,0,L|28:152,1,80,2|0,0:0|0:0,0:0:0:0:
88,220,52955,5,2,0:0:0:0:
88,220,53030,1,0,0:0:0:0:
88,220,53105,2,0,L|96:316,1,80
160,368,53405,2,0,P|208:368|300:288,1,160,2|0,0:0|0:0,0:0:0:0:
244,220,53855,2,0,P|232:172|232:124,1,80,2|0,0:0|0:0,0:0:0:0:
168,72,54155,5,2,0:0:0:0:
192,32,54230,1,0,0:0:0:0:
240,20,54305,1,0,0:0:0:0:
280,44,54380,1,0,0:0:0:0:
304,88,54455,1,0,0:0:0:0:
340,120,54530,1,0,0:0:0:0:
388,120,54605,1,0,0:0:0:0:
432,96,54680,1,0,0:0:0:0:
460,56,54755,6,0,P|424:96|416:224,1,160,2|2,0:0|0:0,0:0:0:0:
480,260,55205,1,0,0:0:0:0:
460,352,55355,6,0,P|416:360|316:300,1,160,6|0,0:0|0:0,0:0:0:0:
276,220,55805,2,0,P|228:220|140:304,1,160,2|0,0:0|0:0,0:0:0:0:
96,372,56255,2,0,P|56:364|16:324,1,80,2|0,0:0|0:0,0:0:0:0:
72,256,56555,5,2,0:0:0:0:
72,256,56705,1,0,0:0:0:0:
16,180,56855,1,0,0:0:0:0:
12,132,56930,1,0,0:0:0:0:
8,84,57005,1,0,0:0:0:0:
80,20,57155,2,0,P|104:52|112:104,1,80,2|0,0:0|0:0,0:0:0:0:
132,184,57455,1,2,0:0:0:0:
132,184,57530,1,0,0:0:0:0:
132,184,57605,1,0,0:0:0:0:
132,184,57680,1,0,0:0:0:0:
132,184,57755,5,2,0:0:0:0:
164,220,57830,1,0,0:0:0:0:
212,224,57905,1,0,0:0:0:0:
256,200,57980,1,0,0:0:0:0:
268,152,58055,1,0,0:0:0:0:
244,108,58130,1,0,0:0:0:0:
252,60,58205,5,2,0:0:0:0:
288,28,58280,1,0,0:0:0:0:
336,28,58355,1,0,0:0:0:0:
372,60,58430,1,0,0:0:0:0:
384,108,58505,1,0,0:0:0:0:
420,136,58580,1,0,0:0:0:0:
468,124,58655,1,2,0:0:0:0:
496,216,58805,5,0,0:0:0:0:
496,216,58880,1,0,0:0:0:0:
496,216,58955,1,2,0:0:0:0:
452,240,59030,1,0,0:0:0:0:
432,284,59105,1,0,0:0:0:0:
452,328,59180,1,0,0:0:0:0:
432,372,59255,1,0,0:0:0:0:
384,380,59330,1,0,0:0:0:0:
344,356,59405,6,0,L|300:340,3,40,2|0|0|0,0:0|0:0|0:0|0:0,0:0:0:0:
264,320,59705,2,0,L|212:336,3,40,0|2|0|0,0:0|0:0|0:0|0:0,0:0:0:0:
192,368,60005,1,0,0:0:0:0:
148,348,60080,1,0,0:0:0:0:
140,300,60155,5,6,0:0:0:0:
16,180,61355,6,0,P|68:188|164:120,1,160,6|0,0:0|0:0,0:0:0:0:
248,168,61805,2,0,P|240:128|236:80,1,80,2|0,0:0|0:0,0:0:0:0:
304,16,62105,1,0,0:0:0:0:
376,80,62255,1,2,0:0:0:0:
376,80,62330,1,0,0:0:0:0:
376,80,62405,1,0,0:0:0:0:
456,28,62555,6,0,P|468:68|468:116,1,80,2|0,0:0|0:0,0:0:0:0:
392,164,62855,1,0,0:0:0:0:
476,212,63005,2,0,P|476:268|396:340,1,160,2|0,0:0|0:0,0:0:0:0:
316,376,63455,2,0,L|328:284,1,80,2|0,0:0|0:0,0:0:0:0:
336,248,63680,1,0,0:0:0:0:
336,248,63755,6,0,P|288:236|180:300,1,160,2|0,0:0|0:0,0:0:0:0:
136,360,64205,2,0,P|76:368|8:276,1,160,2|0,0:0|0:0,0:0:0:0:
100,272,64655,2,0,L|112:184,1,80,2|0,0:0|0:0,0:0:0:0:
43,36,64955,6,0,P|44:76|52:116,1,80,2|0,0:0|0:0,0:0:0:0:
136,68,65255,1,0,0:0:0:0:
216,12,65405,2,0,P|232:64|176:164,1,160,2|0,0:0|0:0,0:0:0:0:
244,236,65855,2,0,L|160:252,1,80,2|0,0:0|0:0,0:0:0:0:
32,344,66155,6,0,L|110:358,1,80,2|0,0:0|0:0,0:0:0:0:
204,336,66455,1,0,0:0:0:0:
165,250,66605,2,0,P|161:190|225:106,1,160,2|0,0:0|0:0,0:0:0:0:
304,156,67055,2,0,P|352:156|400:120,1,80,2|0,0:0|0:0,0:0:0:0:
460,44,67355,5,2,0:0:0:0:
460,44,67505,2,0,P|420:104|432:200,1,160,2|0,0:0|0:0,0:0:0:0:
480,268,67955,2,0,P|472:316|440:352,1,80,2|0,0:0|0:0,0:0:0:0:
376,284,68255,1,2,0:0:0:0:
304,348,68405,1,0,0:0:0:0:
304,348,68480,1,0,0:0:0:0:
304,348,68555,5,6,0:0:0:0:
272,312,68630,1,0,0:0:0:0:
268,264,68705,1,0,0:0:0:0:
292,220,68780,1,0,0:0:0:0:
336,200,68855,1,0,0:0:0:0:
384,208,68930,1,0,0:0:0:0:
432,196,69005,1,0,0:0:0:0:
456,156,69080,1,0,0:0:0:0:
456,108,69155,6,0,L|440:44,3,40,2|0|0|0,0:0|0:0|0:0|0:0,0:0:0:0:
424,28,69455,1,0,0:0:0:0:
380,12,69530,1,0,0:0:0:0:
344,44,69605,1,0,0:0:0:0:
352,92,69680,1,0,0:0:0:0:
324,132,69755,5,2,0:0:0:0:
306,121,69830,1,0,0:0:0:0:
289,111,69905,1,0,0:0:0:0:
272,101,69980,1,0,0:0:0:0:
254,91,70055,1,0,0:0:0:0:
164,24,70205,5,2,0:0:0:0:
143,28,70280,1,0,0:0:0:0:
124,32,70355,1,0,0:0:0:0:
104,36,70430,1,0,0:0:0:0:
84,41,70505,1,0,0:0:0:0:
164,128,70655,5,2,0:0:0:0:
157,148,70730,1,0,0:0:0:0:
151,166,70805,1,0,0:0:0:0:
144,185,70880,1,0,0:0:0:0:
139,204,70955,6,0,L|45:198,1,80,6|0,0:0|0:0,0:0:0:0:
9,281,71255,1,0,0:0:0:0:
62,360,71405,2,0,P|118:365|223:297,1,160,2|0,0:0|0:0,0:0:0:0:
256,236,71855,1,2,0:0:0:0:
256,236,72005,1,0,0:0:0:0:
296,324,72155,6,0,L|392:328,1,80,2|0,0:0|0:0,0:0:0:0:
460,372,72455,1,0,0:0:0:0:
464,276,72605,2,0,P|480:232|452:112,1,160,2|0,0:0|0:0,0:0:0:0:
376,172,73055,2,0,L|296:168,1,80,2|0,0:0|0:0,0:0:0:0:
208,296,73355,6,0,P|239:271|256:236,1,80,2|0,0:0|0:0,0:0:0:0:
232,144,73655,1,0,0:0:0:0:
172,72,73805,2,0,P|140:145|173:215,1,160,2|0,0:0|0:0,0:0:0:0:
232,144,74255,2,0,L|320:140,1,80,2|0,0:0|0:0,0:0:0:0:
356,56,74555,5,2,0:0:0:0:
444,20,74705,1,0,0:0:0:0:
500,96,74855,1,0,0:0:0:0:
440,172,75005,1,2,0:0:0:0:
440,172,75155,1,0,0:0:0:0:
484,256,75305,5,0,0:0:0:0:
500,300,75380,1,0,0:0:0:0:
488,348,75455,1,0,0:0:0:0:
444,368,75530,1,0,0:0:0:0:
396,360,75605,1,0,0:0:0:0:
368,320,75680,1,0,0:0:0:0:
380,272,75755,6,0,P|324:264|228:336,1,160,6|0,0:0|0:0,0:0:0:0:
164,376,76205,2,0,P|88:368|24:284,1,160,2|0,0:0|0:0,0:0:0:0:
24,216,76655,1,2,0:0:0:0:
116,244,76805,1,0,0:0:0:0:
116,244,76880,1,0,0:0:0:0:
116,244,76955,2,0,P|148:212|164:156,1,80,2|0,0:0|0:0,0:0:0:0:
120,92,77255,1,0,0:0:0:0:
161,180,77405,2,0,L|332:172,1,160,2|0,0:0|0:0,0:0:0:0:
388,240,77855,1,2,0:0:0:0:
472,196,78005,5,0,0:0:0:0:
472,196,78080,1,0,0:0:0:0:
472,196,78155,2,0,P|468:144|416:40,1,160,6|2,0:0|0:0,0:0:0:0:
422,47,78530,1,0,0:0:0:0:
422,47,78605,1,0,0:0:0:0:
364,124,78755,2,0,L|248:120,1,80,2|0,0:0|0:0,0:0:0:0:
216,56,79055,2,0,L|160:60,1,40,2|0,0:0|0:0,0:0:0:0:
128,64,79205,1,0,0:0:0:0:
44,112,79355,5,2,0:0:0:0:
100,188,79505,1,0,0:0:0:0:
40,264,79655,1,0,0:0:0:0:
12,304,79730,1,0,0:0:0:0:
20,352,79805,1,0,0:0:0:0:
64,376,79880,1,0,0:0:0:0:
112,368,79955,2,0,L|132:312,3,40
124,280,80255,1,0,0:0:0:0:
160,248,80330,1,0,0:0:0:0:
208,248,80405,1,0,0:0:0:0:
240,280,80480,1,0,0:0:0:0:
244,328,80555,6,0,B|276:352|276:352|328:356,1,80,4|0,0:0|0:0,0:0:0:0:
388,292,80855,1,2,0:0:0:0:
388,292,81005,1,0,0:0:0:0:
456,360,81155,2,0,P|476:320|420:196,1,160,2|2,0:0|0:0,0:0:0:0:
388,292,81605,1,0,0:0:0:0:
336,212,81755,6,0,P|340:168|380:120,1,80,2|0,0:0|0:0,0:0:0:0:
432,80,82055,1,0,0:0:0:0:
428,176,82205,2,0,P|384:160|336:64,1,160,2|0,0:0|0:0,0:0:0:0:
256,116,82655,2,0,P|216:120|172:136,1,80,2|0,0:0|0:0,0:0:0:0:
92,92,82955,6,0,P|128:120|168:236,2,160,2|2|2,0:0|0:0|0:0,0:0:0:0:
4,132,83705,1,0,0:0:0:0:
4,132,83855,1,0,0:0:0:0:
64,208,84005,2,0,L|40:376,2,160,2|2|2,0:0|0:0|0:0,0:0:0:0:
132,140,84755,5,0,0:0:0:0:
132,140,84905,1,0,0:0:0:0:
216,96,85055,1,0,0:0:0:0:
288,160,85205,1,0,0:0:0:0:
256,252,85355,5,4,0:0:0:0:
256,252,85430,1,0,0:0:0:0:
256,252,85505,1,0,0:0:0:0:
184,316,85655,2,0,L|100:308,1,80,2|0,0:0|0:0,0:0:0:0:
260,376,85955,2,0,L|339:368,1,80,2|0,0:0|0:0,0:0:0:0:
436,360,86255,1,2,0:0:0:0:
436,360,86405,1,0,0:0:0:0:
480,272,86555,6,0,P|476:220|448:168,1,80,2|2,0:0|0:0,0:0:0:0:
388,248,86855,1,0,0:0:0:0:
324,176,87005,2,0,P|316:104|364:28,1,160,2|2,0:0|0:0,0:0:0:0:
452,8,87455,1,0,0:0:0:0:
504,88,87605,1,0,0:0:0:0:
476,180,87755,6,0,L|388:164,1,80,2|0,0:0|0:0,0:0:0:0:
328,100,88055,1,0,0:0:0:0:
256,164,88205,2,0,P|236:216|248:332,1,160,2|0,0:0|0:0,0:0:0:0:
324,368,88655,2,0,P|384:368|416:356,1,80,2|0,0:0|0:0,0:0:0:0:
484,288,88955,5,0,0:0:0:0:
512,248,89030,1,0,0:0:0:0:
504,200,89105,1,0,0:0:0:0:
468,168,89180,1,0,0:0:0:0:
420,172,89255,1,0,0:0:0:0:
396,216,89330,1,0,0:0:0:0:
400,264,89405,1,0,0:0:0:0:
360,292,89480,1,0,0:0:0:0:
312,280,89555,6,0,L|264:260,3,40
232,284,89855,2,0,L|164:300,3,40
152,268,90155,5,4,0:0:0:0:
152,268,90305,1,0,0:0:0:0:
116,356,90455,2,0,P|72:320|56:272,1,80,2|0,0:0|0:0,0:0:0:0:
80,204,90755,2,0,P|104:168|112:48,1,160,2|2,0:0|0:0,0:0:0:0:
20,80,91205,1,0,0:0:0:0:
96,140,91355,6,0,P|144:136|184:104,1,80,2|0,0:0|0:0,0:0:0:0:
220,36,91655,1,0,0:0:0:0:
220,36,91805,2,0,P|268:28|368:76,1,160,2|2,0:0|0:0,0:0:0:0:
365,73,92180,1,0,0:0:0:0:
365,73,92255,1,2,0:0:0:0:
292,136,92405,1,0,0:0:0:0:
196,144,92555,6,0,P|172:204|188:304,1,160,2|0,0:0|0:0,0:0:0:0:
264,352,93005,2,0,L|352:344,1,80,2|0,0:0|0:0,0:0:0:0:
436,376,93305,1,2,0:0:0:0:
488,296,93455,2,0,P|496:256|472:196,1,80
365,73,93755,5,0,0:0:0:0:
340,116,93830,1,0,0:0:0:0:
340,164,93905,1,0,0:0:0:0:
372,200,93980,1,0,0:0:0:0:
400,236,94055,1,0,0:0:0:0:
388,284,94130,1,0,0:0:0:0:
356,316,94205,1,0,0:0:0:0:
308,312,94280,1,0,0:0:0:0:
272,280,94355,6,0,L|208:284,1,40
196,316,94505,2,0,L|128:308,1,40
116,284,94655,1,0,0:0:0:0:
84,320,94730,1,0,0:0:0:0:
36,312,94805,1,0,0:0:0:0:
20,268,94880,1,0,0:0:0:0:
44,224,94955,6,0,L|56:128,1,80,4|0,0:0|0:0,0:0:0:0:
32,52,95255,1,2,0:0:0:0:
32,52,95405,1,0,0:0:0:0:
116,96,95555,2,0,P|180:100|260:40,1,160,2|2,0:0|0:0,0:0:0:0:
312,128,96005,1,0,0:0:0:0:
396,80,96155,2,0,L|388:0,1,80,2|0,0:0|0:0,0:0:0:0:
480,124,96455,5,0,0:0:0:0:
480,124,96605,2,0,P|492:192|468:280,1,160,2|2,0:0|0:0,0:0:0:0:
412,356,97055,2,0,P|384:328|372:280,1,80
412,204,97355,5,2,0:0:0:0:
412,204,97505,1,0,0:0:0:0:
372,290,97655,1,2,0:0:0:0:
288,248,97805,2,0,P|232:252|152:320,1,160,2|2,0:0|0:0,0:0:0:0:
80,380,98255,1,0,0:0:0:0:
4,320,98405,1,0,0:0:0:0:
68,248,98555,6,0,L|60:192,3,40
40,164,98855,2,0,L|48:108,3,40
24,80,99155,5,0,0:0:0:0:
44,36,99230,1,0,0:0:0:0:
88,16,99305,1,0,0:0:0:0:
132,36,99380,1,0,0:0:0:0:
152,80,99455,1,0,0:0:0:0:
132,124,99530,1,0,0:0:0:0:
144,172,99605,1,0,0:0:0:0:
180,204,99680,1,0,0:0:0:0:
228,204,99755,6,0,P|260:180|280:144,1,80,4|0,0:0|0:0,0:0:0:0:
256,52,100055,1,2,0:0:0:0:
279,145,100205,1,0,0:0:0:0:
348,80,100355,2,0,P|388:64|508:128,1,160,2|2,0:0|0:0,0:0:0:0:
412,156,100805,1,0,0:0:0:0:
412,156,100955,6,0,L|420:252,1,80,2|0,0:0|0:0,0:0:0:0:
496,296,101255,1,0,0:0:0:0:
428,364,101405,2,0,P|380:372|284:308,1,160,2|2,0:0|0:0,0:0:0:0:
248,228,101855,1,0,0:0:0:0:
288,316,102005,1,0,0:0:0:0:
204,364,102155,6,0,L|104:352,1,80,2|0,0:0|0:0,0:0:0:0:
28,340,102455,1,0,0:0:0:0:
92,268,102605,2,0,L|84:108,1,160,2|2,0:0|0:0,0:0:0:0:
24,36,103055,1,0,0:0:0:0:
84,108,103205,1,0,0:0:0:0:
148,36,103355,6,0,P|204:32|300:88,1,160,2|0,0:0|0:0,0:0:0:0:
348,160,103805,2,0,P|408:172|492:96,1,160,2|0,0:0|0:0,0:0:0:0:
472,24,104255,1,2,0:0:0:0:
472,24,104405,1,0,0:0:0:0:
404,92,104555,6,0,L|352:68,1,40,2|0,0:0|0:0,0:0:0:0:
328,48,104705,2,0,L|276:76,1,40
256,100,104855,2,0,L|204:80,1,40
188,48,105005,2,0,L|136:76,1,40,2|0,0:0|0:0,0:0:0:0:
116,100,105155,2,0,L|128:160,3,40
152,176,105455,2,0,L|136:232,3,40,2|0|0|0,0:0|0:0|0:0|0:0,0:0:0:0:
120,260,105755,5,2,0:0:0:0:
80,232,105830,1,0,0:0:0:0:
36,248,105905,1,0,0:0:0:0:
8,288,105980,1,0,0:0:0:0:
20,336,106055,1,0,0:0:0:0:
60,364,106130,1,0,0:0:0:0:
108,356,106205,1,2,0:0:0:0:
152,332,106280,1,0,0:0:0:0:
196,352,106355,5,0,0:0:0:0:
240,332,106430,1,0,0:0:0:0:
252,284,106505,1,0,0:0:0:0:
224,244,106580,1,0,0:0:0:0:
196,204,106655,1,2,0:0:0:0:
204,156,106730,1,0,0:0:0:0:
240,124,106805,1,0,0:0:0:0:
288,124,106880,1,0,0:0:0:0:
320,160,106955,5,4,0:0:0:0:
316,164,109355,5,4,0:0:0:0:
372,252,109505,2,0,L|460:244,1,88.000002685547
304,328,109805,1,0,0:0:0:0:
304,328,109955,2,0,P|232:320|140:368,1,176.000005371094,2|2,0:0|0:0,0:0:0:0:
44,324,110405,1,0,0:0:0:0:
108,240,110555,6,0,L|100:144,1,88.000002685547,2|0,0:0|0:0,0:0:0:0:
52,60,110855,1,0,0:0:0:0:
100,152,111005,2,0,P|183:130|231:58,1,176.000005371094,2|2,0:0|0:0,0:0:0:0:
316,124,111455,2,0,L|416:120,1,88.000002685547,2|0,0:0|0:0,0:0:0:0:
468,36,111755,5,2,0:0:0:0:
403,120,111905,1,0,0:0:0:0:
480,192,112055,1,2,0:0:0:0:
480,192,112130,1,0,0:0:0:0:
480,192,112205,1,2,0:0:0:0:
408,268,112355,1,0,0:0:0:0:
460,360,112505,1,0,0:0:0:0:
408,268,112655,1,2,0:0:0:0:
408,268,112730,1,0,0:0:0:0:
408,268,112805,1,0,0:0:0:0:
332,340,112955,5,0,0:0:0:0:
288,372,113030,1,0,0:0:0:0:
236,368,113105,1,0,0:0:0:0:
204,324,113180,1,0,0:0:0:0:
212,272,113255,2,0,L|232:216,3,44.0000013427735
280,216,113555,5,0,0:0:0:0:
320,180,113630,1,0,0:0:0:0:
316,128,113705,1,0,0:0:0:0:
292,80,113780,1,0,0:0:0:0:
240,64,113855,1,0,0:0:0:0:
196,92,113930,1,0,0:0:0:0:
192,144,114005,1,0,0:0:0:0:
148,172,114080,1,0,0:0:0:0:
104,144,114155,5,4,2:0:0:0:
52,52,114305,1,0,0:0:0:0:
104,144,114455,1,0,0:0:0:0:
40,232,114605,1,0,0:0:0:0:
40,232,114680,1,0,0:0:0:0:
40,232,114755,1,2,0:0:0:0:
72,332,114905,1,0,0:0:0:0:
160,272,115055,1,2,0:0:0:0:
216,360,115205,1,0,0:0:0:0:
304,300,115355,6,0,P|356:296|472:364,1,176.000005371094,2|0,0:0|0:0,0:0:0:0:
468,244,115805,2,0,L|476:144,2,88.000002685547,2|0|0,0:0|0:0|0:0,0:0:0:0:
376,192,116255,1,2,0:0:0:0:
376,192,116330,1,0,0:0:0:0:
376,192,116405,1,0,0:0:0:0:
304,300,116555,6,0,P|268:244|272:136,1,176.000005371094,2|0,0:0|0:0,0:0:0:0:
360,76,117005,2,0,L|448:68,2,88.000002685547,2|0|0,0:0|0:0|0:0,0:0:0:0:
271,137,117455,2,0,L|172:128,1,88.000002685547,2|0,0:0|0:0,0:0:0:0:
124,40,117755,1,2,0:0:0:0:
124,40,117905,1,0,0:0:0:0:
40,100,118055,1,2,0:0:0:0:
40,100,118205,1,0,0:0:0:0:
108,180,118355,5,0,0:0:0:0:
144,220,118430,1,0,0:0:0:0:
128,272,118505,1,0,0:0:0:0:
80,296,118580,1,0,0:0:0:0:
36,268,118655,1,0,0:0:0:0:
0,308,118730,1,0,0:0:0:0:
12,360,118805,1,0,0:0:0:0:
64,376,118880,1,0,0:0:0:0:
116,364,118955,6,0,L|220:360,1,88.000002685547,4|0,0:0|0:0,0:0:0:0:
256,268,119255,1,2,0:0:0:0:
256,268,119405,1,0,0:0:0:0:
328,344,119555,2,0,P|376:352|496:268,1,176.000005371094,2|2,0:0|0:0,0:0:0:0:
456,192,120005,1,0,0:0:0:0:
483,90,120155,6,0,P|436:44|380:40,1,88.000002685547,2|0,0:0|0:0,0:0:0:0:
316,68,120455,1,0,0:0:0:0:
360,164,120605,2,0,P|304:172|212:88,1,176.000005371094,2|0,0:0|0:0,0:0:0:0:
156,188,121055,2,0,L|160:296,1,88.000002685547,2|0,0:0|0:0,0:0:0:0:
92,112,121355,5,2,0:0:0:0:
92,112,121505,1,0,0:0:0:0:
16,184,121655,2,0,P|-8:140|0:80,1,88.000002685547,2|2,0:0|0:0,0:0:0:0:
92,112,121955,1,0,0:0:0:0:
16,184,122105,1,0,0:0:0:0:
80,268,122255,1,2,0:0:0:0:
80,268,122405,1,0,0:0:0:0:
16,352,122555,5,0,0:0:0:0:
64,376,122630,1,0,0:0:0:0:
116,372,122705,1,0,0:0:0:0:
160,344,122780,1,0,0:0:0:0:
184,296,122855,2,0,L|176:244,3,44.0000013427735
168,200,123155,1,0,0:0:0:0:
256,140,123305,1,0,0:0:0:0:
312,228,123455,2,0,L|304:336,1,88.000002685547,2|0,0:0|0:0,0:0:0:0:
396,368,123755,5,6,0:0:0:0:
448,376,123830,1,0,0:0:0:0:
492,348,123905,1,0,0:0:0:0:
504,296,123980,1,0,0:0:0:0:
480,248,124055,2,0,L|416:264,3,44.0000013427735,0|0|6|0,0:0|0:0|0:0|0:0,0:0:0:0:
388,280,124355,5,0,0:0:0:0:
340,256,124430,1,0,0:0:0:0:
332,204,124505,1,0,0:0:0:0:
368,164,124580,1,0,0:0:0:0:
420,168,124655,2,0,L|432:100,3,44.0000013427735,6|0|0|0,0:0|0:0|0:0|0:0,0:0:0:0:
480,116,124955,5,6,0:0:0:0:
500,68,125030,1,0,0:0:0:0:
476,20,125105,1,0,0:0:0:0:
424,4,125180,1,0,0:0:0:0:
380,32,125255,1,0,0:0:0:0:
368,84,125330,1,0,0:0:0:0:
320,108,125405,1,6,0:0:0:0:
272,88,125480,1,0,0:0:0:0:
252,40,125555,5,0,0:0:0:0:
204,20,125630,1,0,0:0:0:0:
152,32,125705,1,0,0:0:0:0:
128,80,125780,1,0,0:0:0:0:
136,132,125855,1,6,0:0:0:0:
184,156,125930,1,0,0:0:0:0:
236,148,126005,1,0,0:0:0:0:
284,172,126080,1,0,0:0:0:0:
304,220,126155,6,0,L|312:272,3,44.0000013427735,6|0|0|0,0:0|0:0|0:0|0:0,0:0:0:0:
332,312,126455,2,0,L|320:376,3,44.0000013427735,2|0|0|0,0:0|0:0|0:0|0:0,0:0:0:0:
276,376,126755,1,2,0:0:0:0:
224,376,126830,1,0,0:0:0:0:
184,340,126905,1,0,0:0:0:0:
184,288,126980,1,0,0:0:0:0:
228,260,127055,1,2,0:0:0:0:
236,208,127130,1,0,0:0:0:0:
208,164,127205,1,0,0:0:0:0:
156,160,127280,1,0,0:0:0:0:
120,192,127355,5,4,0:0:0:0:
416,356,128555,6,0,L|424:260,1,80,2|0,0:0|0:0,0:0:0:0:
343,129,128855,2,0,P|344:169|356:208,1,80,2|0,0:0|0:0,0:0:0:0:
440,160,129155,1,2,0:0:0:0:
440,160,129305,1,0,0:0:0:0:
468,68,129455,1,2,0:0:0:0:
468,68,129605,1,0,0:0:0:0:
376,36,129755,6,0,L|272:48,1,80,2|0,0:0|0:0,0:0:0:0:
244,128,130055,2,0,P|204:128|156:96,1,80,2|0,0:0|0:0,0:0:0:0:
104,40,130355,1,2,0:0:0:0:
104,40,130505,1,0,0:0:0:0:
28,100,130655,1,2,0:0:0:0:
144,192,130805,6,0,P|148:240|92:340,1,160,2|0,0:0|0:0,0:0:0:0:
20,276,131255,1,0,0:0:0:0:
20,276,131405,1,0,0:0:0:0:
112,256,131555,2,0,P|160:272|192:324,1,80,2|0,0:0|0:0,0:0:0:0:
248,360,131855,2,0,P|288:356|328:328,1,80,2|0,0:0|0:0,0:0:0:0:
392,268,132155,5,2,0:0:0:0:
480,304,132305,1,0,0:0:0:0:
404,360,132455,1,2,0:0:0:0:
392,268,132605,1,0,0:0:0:0:
460,200,132755,2,0,L|464:112,1,80,2|0,0:0|0:0,0:0:0:0:
452,24,133055,1,2,0:0:0:0:
348,36,133205,6,2,P|324:88|360:216,1,160
392,268,133655,1,0,0:0:0:0:
392,268,133805,1,0,0:0:0:0:
404,360,133955,2,0,L|304:356,1,80,2|0,0:0|0:0,0:0:0:0:
236,316,134255,2,0,P|192:324|148:352,1,80,2|0,0:0|0:0,0:0:0:0:
68,364,134555,6,0,P|32:344|8:304,1,80,2|0,0:0|0:0,0:0:0:0:
113,195,134855,2,0,P|111:235|96:272,1,80,2|0,0:0|0:0,0:0:0:0:
20,212,135155,1,2,0:0:0:0:
48,120,135305,1,2,0:0:0:0:
48,120,135380,1,0,0:0:0:0:
48,120,135455,1,0,0:0:0:0:
144,116,135605,6,0,P|204:124|292:68,1,160,2|0,0:0|0:0,0:0:0:0:
286,75,135980,1,0,0:0:0:0:
286,75,136055,1,2,0:0:0:0:
364,20,136205,1,0,0:0:0:0:
428,92,136355,1,2,0:0:0:0:
364,164,136505,1,0,0:0:0:0:
404,252,136655,1,2,0:0:0:0:
348,332,136805,5,0,0:0:0:0:
348,332,136880,1,0,0:0:0:0:
348,332,136955,2,0,P|396:348|444:340,1,80,2|0,0:0|0:0,0:0:0:0:
288,268,137255,2,0,L|204:276,1,80,2|0,0:0|0:0,0:0:0:0:
140,340,137555,2,0,L|40:332,2,80,2|0|2,0:0|0:0|0:0,0:0:0:0:
208,275,138005,6,0,L|196:108,1,160,4|0,0:0|0:0,0:0:0:0:
152,32,138455,1,2,0:0:0:0:
152,32,138605,1,0,0:0:0:0:
68,76,138755,2,0,P|48:120|40:172,1,80,2|0,0:0|0:0,0:0:0:0:
91,305,139055,2,0,P|104:267|100:228,1,80,2|0,0:0|0:0,0:0:0:0:
144,144,139355,6,0,L|232:132,1,80,2|0,0:0|0:0,0:0:0:0:
300,192,139655,1,2,0:0:0:0:
308,96,139805,1,0,0:0:0:0:
384,156,139955,2,2,P|400:112|408:68,1,80
406,79,140180,1,0,0:0:0:0:
406,79,140255,1,0,0:0:0:0:
488,192,140405,6,2,P|472:264|464:352,1,160,2|0,0:0|0:0,0:0:0:0:
368,332,140855,2,0,L|288:348,1,80,2|0,0:0|0:0,0:0:0:0:
116,312,141155,2,0,L|196:320,1,80,2|0,0:0|0:0,0:0:0:0:
268,256,141455,1,2,0:0:0:0:
268,256,141605,1,0,0:0:0:0:
196,192,141755,6,0,P|204:144|224:108,1,80,2|0,0:0|0:0,0:0:0:0:
113,48,142055,2,0,L|124:128,1,80,2|0,0:0|0:0,0:0:0:0:
218,116,142355,1,2,0:0:0:0:
218,116,142505,1,0,0:0:0:0:
256,28,142655,1,2,0:0:0:0:
296,168,142805,6,2,P|348:176|452:104,1,160,2|0,0:0|0:0,0:0:0:0:
348,92,143255,2,0,L|340:8,1,80,2|0,0:0|0:0,0:0:0:0:
438,126,143555,2,0,P|456:184|452:224,1,80,2|0,0:0|0:0,0:0:0:0:
399,338,143855,2,0,P|381:303|380:264,1,80,2|0,0:0|0:0,0:0:0:0:
476,280,144155,5,2,0:0:0:0:
476,280,144305,1,0,0:0:0:0:
400,339,144455,1,2,0:0:0:0:
400,339,144605,1,0,0:0:0:0:
316,288,144755,1,2,0:0:0:0:
252,360,144905,1,0,0:0:0:0:
176,300,145055,1,2,0:0:0:0:
104,364,145205,6,0,P|68:336|40:216,1,160,2|0,0:0|0:0,0:0:0:0:
36,230,145580,1,0,0:0:0:0:
36,230,145655,1,2,0:0:0:0:
100,156,145805,1,0,0:0:0:0:
168,224,145955,2,0,L|264:216,1,80,2|0,0:0|0:0,0:0:0:0:
316,288,146255,2,0,L|408:296,1,80,2|0,0:0|0:0,0:0:0:0:
395,294,146480,1,2,0:0:0:0:
395,294,146555,5,2,0:0:0:0:
468,232,146705,1,0,0:0:0:0:
420,148,146855,1,2,0:0:0:0:
420,148,147005,1,0,0:0:0:0:
336,196,147155,2,0,L|256:189,1,80,2|0,0:0|0:0,0:0:0:0:
192,116,147455,1,2,0:0:0:0:
56,216,147605,5,4,0:0:0:0:
256,192,147680,12,0,148955,0:0:0:0:
256,192,149030,12,4,150155,0:0:0:0:
256,192,150230,12,0,151205,0:0:0:0:
324,328,151355,5,2,0:0:0:0:
256,260,151505,1,0,0:0:0:0:
220,348,151655,1,0,0:0:0:0:
220,348,151805,2,0,P|168:364|68:300,1,160,2|0,0:0|0:0,0:0:0:0:
164,276,152255,2,0,L|172:180,1,80,2|2,0:0|0:0,0:0:0:0:
180,100,152555,5,0,0:0:0:0:
108,36,152705,1,2,0:0:0:0:
24,84,152855,2,0,P|16:132|24:188,1,80
18,163,153080,1,0,0:0:0:0:
18,163,153155,1,2,0:0:0:0:
112,136,153305,1,0,0:0:0:0:
180,204,153455,2,0,P|168:244|144:280,1,80,2|0,0:0|0:0,0:0:0:0:
52,288,153755,6,0,P|96:296|184:376,1,160,2|0,0:0|0:0,0:0:0:0:
272,336,154205,2,0,L|456:328,1,160,2|0,0:0|0:0,0:0:0:0:
496,256,154655,1,2,0:0:0:0:
496,256,154805,1,0,0:0:0:0:
432,184,154955,6,0,P|372:184|292:244,1,160,2|0,0:0|0:0,0:0:0:0:
272,336,155405,2,0,L|192:328,1,80,2|0,0:0|0:0,0:0:0:0:
104,368,155705,1,0,0:0:0:0:
44,296,155855,1,2,0:0:0:0:
20,256,155930,1,0,0:0:0:0:
32,208,156005,1,0,0:0:0:0:
72,184,156080,1,0,0:0:0:0:
120,196,156155,5,6,0:0:0:0:
156,284,156305,1,0,0:0:0:0:
156,284,156455,1,0,0:0:0:0:
240,239,156605,2,0,P|266:165|254:86,1,160,2|0,0:0|0:0,0:0:0:0:
204,8,157055,1,2,0:0:0:0:
204,8,157205,1,0,0:0:0:0:
132,60,157355,6,0,L|36:56,1,80,2|0,0:0|0:0,0:0:0:0:
176,132,157655,1,0,0:0:0:0:
176,132,157805,2,0,P|224:144|332:72,1,160,2|0,0:0|0:0,0:0:0:0:
360,8,158255,1,2,0:0:0:0:
318,96,158405,1,0,0:0:0:0:
368,176,158555,5,2,0:0:0:0:
408,204,158630,1,0,0:0:0:0:
456,204,158705,1,0,0:0:0:0:
492,176,158780,1,0,0:0:0:0:
504,128,158855,2,0,L|496:84,3,40
492,40,159155,1,2,0:0:0:0:
492,40,159305,1,2,0:0:0:0:
428,112,159455,2,0,L|444:216,1,80
480,280,159755,5,2,0:0:0:0:
488,328,159830,1,0,0:0:0:0:
460,368,159905,1,0,0:0:0:0:
412,376,159980,1,0,0:0:0:0:
364,368,160055,1,0,0:0:0:0:
332,332,160130,1,0,0:0:0:0:
332,288,160205,1,0,0:0:0:0:
360,248,160280,1,0,0:0:0:0:
368,200,160355,1,0,0:0:0:0:
352,156,160430,1,0,0:0:0:0:
312,128,160505,1,0,0:0:0:0:
264,140,160580,1,0,0:0:0:0:
236,180,160655,6,0,L|248:284,1,80,2|0,0:0|0:0,0:0:0:0:
252,308,160880,1,0,0:0:0:0:
252,308,160955,2,0,P|200:348|96:316,1,160,6|0,0:0|0:0,0:0:0:0:
36,276,161405,2,0,L|44:112,1,160,2|0,0:0|0:0,0:0:0:0:
12,24,161855,1,2,0:0:0:0:
43,116,162005,1,0,0:0:0:0:
124,64,162155,6,0,L|212:56,1,80,2|2,0:0|0:0,0:0:0:0:
256,136,162455,1,0,0:0:0:0:
256,136,162605,2,0,P|312:136|392:60,1,160,2|0,0:0|0:0,0:0:0:0:
452,144,163055,2,0,L|464:232,1,80,2|0,0:0|0:0,0:0:0:0:
488,316,163355,6,0,P|456:348|332:328,1,160,2|0,0:0|0:0,0:0:0:0:
296,264,163805,2,0,L|120:272,1,160,2|0,0:0|0:0,0:0:0:0:
68,340,164255,1,2,0:0:0:0:
24,256,164405,5,0,0:0:0:0:
24,256,164480,1,0,0:0:0:0:
24,256,164555,2,0,P|44:212|72:184,1,80,2|2,0:0|0:0,0:0:0:0:
136,252,164855,1,0,0:0:0:0:
212,192,165005,2,0,P|228:144|204:28,2,160,2|0|0,0:0|0:0|0:0,0:0:0:0:
152,116,165755,6,0,L|64:108,1,80,2|0,0:0|0:0,0:0:0:0:
212,192,166055,1,0,0:0:0:0:
212,192,166205,2,0,L|376:180,1,160,2|0,0:0|0:0,0:0:0:0:
432,108,166655,2,0,P|440:60|436:16,1,80,2|0,0:0|0:0,0:0:0:0:
371,180,166955,5,2,0:0:0:0:
371,180,167105,1,0,0:0:0:0:
448,240,167255,1,0,0:0:0:0:
432,336,167405,2,0,P|352:328|280:368,1,160,2|0,0:0|0:0,0:0:0:0:
236,280,167855,2,0,L|248:176,1,80,2|0,0:0|0:0,0:0:0:0:
168,344,168155,5,2,0:0:0:0:
124,368,168230,1,0,0:0:0:0:
76,364,168305,1,0,0:0:0:0:
44,328,168380,1,0,0:0:0:0:
52,280,168455,2,0,L|68:224,3,40,0|0|2|0,0:0|0:0|0:0|0:0,0:0:0:0:
92,204,168755,2,0,L|80:144,3,40
48,132,169055,2,0,L|56:64,3,40,2|0|0|0,0:0|0:0|0:0|0:0,0:0:0:0:
60,44,169355,5,2,0:0:0:0:
60,44,169505,1,0,0:0:0:0:
140,96,169655,2,0,L|228:92,1,80
296,32,169955,1,0,0:0:0:0:
328,68,170030,1,0,0:0:0:0:
324,116,170105,1,0,0:0:0:0:
304,160,170180,1,0,0:0:0:0:
260,184,170255,1,0,0:0:0:0:
212,172,170330,1,0,0:0:0:0:
168,188,170405,1,0,0:0:0:0:
140,224,170480,1,0,0:0:0:0:
140,272,170555,6,0,L|160:368,1,80,4|0,0:0|0:0,0:0:0:0:
236,292,170855,2,0,P|288:292|388:352,2,160,2|2|2,0:0|0:0|0:0,0:0:0:0:
156,350,171605,1,0,0:0:0:0:
68,316,171755,2,0,P|56:264|64:216,1,80,2|0,0:0|0:0,0:0:0:0:
96,152,172055,1,0,0:0:0:0:
168,216,172205,2,0,P|216:216|312:144,1,160,2|0,0:0|0:0,0:0:0:0:
344,244,172655,2,0,L|348:344,1,80,2|0,0:0|0:0,0:0:0:0:
444,232,172955,6,0,P|464:184|456:72,1,160,2|2,0:0|0:0,0:0:0:0:
392,8,173405,1,0,0:0:0:0:
348,92,173555,1,2,0:0:0:0:
348,92,173705,2,0,L|244:84,1,80,2|0,0:0|0:0,0:0:0:0:
184,132,174005,2,0,P|132:124|48:44,2,160,2|2|2,0:0|0:0|0:0,0:0:0:0:
256,196,174755,2,0,L|364:188,1,80
224,280,175055,2,0,L|144:274,1,80
256,364,175355,6,0,L|416:352,1,160,0|2,0:0|0:0,0:0:0:0:
488,288,175805,1,0,0:0:0:0:
396,260,175955,2,0,P|400:212|416:172,1,80,2|0,0:0|0:0,0:0:0:0:
496,140,176255,2,0,P|496:100|476:52,1,80,2|0,0:0|0:0,0:0:0:0:
404,8,176555,1,2,0:0:0:0:
372,96,176705,6,0,L|204:96,1,160,2|2,0:0|0:0,0:0:0:0:
144,28,177155,1,0,0:0:0:0:
144,28,177305,1,0,0:0:0:0:
68,84,177455,2,0,L|76:180,1,80,2|0,0:0|0:0,0:0:0:0:
148,228,177755,6,0,P|152:280|84:376,1,160,2|0,0:0|0:0,0:0:0:0:
64,276,178205,2,0,P|112:276|188:356,1,160,2|0,0:0|0:0,0:0:0:0:
256,284,178655,1,2,0:0:0:0:
256,284,178805,1,0,0:0:0:0:
320,356,178955,6,0,L|372:352,3,40
408,360,179255,1,0,0:0:0:0:
452,344,179330,1,0,0:0:0:0:
480,304,179405,1,0,0:0:0:0:
476,256,179480,1,0,0:0:0:0:
456,212,179555,1,0,0:0:0:0:
408,200,179630,1,0,0:0:0:0:
360,212,179705,5,0,0:0:0:0:
332,252,179780,1,0,0:0:0:0:
284,260,179855,1,0,0:0:0:0:
244,236,179930,1,0,0:0:0:0:
228,192,180005,1,0,0:0:0:0:
244,148,180080,1,0,0:0:0:0:
284,124,180155,6,0,L|276:20,1,80,4|0,0:0|0:0,0:0:0:0:
368,80,180455,1,2,0:0:0:0:
368,80,180605,1,2,0:0:0:0:
444,24,180755,2,0,P|456:68|400:176,1,160,2|2,0:0|0:0,0:0:0:0:
316,192,181205,1,0,0:0:0:0:
256,264,181355,6,0,L|264:348,1,80,2|0,0:0|0:0,0:0:0:0:
172,312,181655,1,0,0:0:0:0:
100,376,181805,2,0,P|80:328|116:228,2,160,2|2|0,0:0|0:0|0:0,0:0:0:0:
172,312,182555,6,0,L|256:320,1,80,2|0,0:0|0:0,0:0:0:0:
332,372,182855,1,0,0:0:0:0:
392,296,183005,2,0,P|444:296|524:368,2,160,2|2|0,0:0|0:0|0:0,0:0:0:0:
332,372,183755,5,2,0:0:0:0:
392,296,183905,1,0,0:0:0:0:
372,204,184055,1,0,0:0:0:0:
372,204,184205,1,0,0:0:0:0:
304,272,184355,5,2,0:0:0:0:
248,192,184505,1,0,0:0:0:0:
152,196,184655,1,0,0:0:0:0:
152,196,184805,1,0,0:0:0:0:
200,280,184955,6,0,L|208:368,1,80,4|0,0:0|0:0,0:0:0:0:
116,332,185255,1,2,0:0:0:0:
116,332,185405,1,0,0:0:0:0:
32,380,185555,2,0,P|32:308|88:232,1,160,2|0,0:0|0:0,0:0:0:0:
116,332,186005,1,0,0:0:0:0:
200,280,186155,6,0,L|300:288,1,80,2|0,0:0|0:0,0:0:0:0:
348,356,186455,1,0,0:0:0:0:
436,316,186605,2,0,P|460:264|464:152,2,160,2|2|0,0:0|0:0|0:0,0:0:0:0:
348,356,187355,2,0,B|288:348|288:348|240:364|240:364|172:348,1,160,2|2,0:0|0:0,0:0:0:0:
240,268,187805,2,0,L|260:104,1,160,2|2,0:0|0:0,0:0:0:0:
216,24,188255,1,0,0:0:0:0:
259,109,188405,1,0,0:0:0:0:
336,52,188555,5,0,0:0:0:0:
368,16,188630,1,0,0:0:0:0:
416,16,188705,1,0,0:0:0:0:
452,44,188780,1,0,0:0:0:0:
468,88,188855,1,0,0:0:0:0:
448,132,188930,1,0,0:0:0:0:
404,156,189005,1,0,0:0:0:0:
360,140,189080,5,0,0:0:0:0:
312,136,189155,1,0,0:0:0:0:
272,164,189230,1,0,0:0:0:0:
256,208,189305,1,0,0:0:0:0:
272,252,189380,1,0,0:0:0:0:
312,280,189455,2,0,L|360:272,3,40
400,264,189755,5,4,0:0:0:0:
400,264,189905,1,0,0:0:0:0:
476,204,190055,2,0,P|496:248|488:304,1,80,2|0,0:0|0:0,0:0:0:0:
432,352,190355,2,0,L|244:376,1,160,2|0,0:0|0:0,0:0:0:0:
204,304,190805,1,0,0:0:0:0:
128,364,190955,6,0,P|112:320|116:276,1,80,2|0,0:0|0:0,0:0:0:0:
204,304,191255,1,0,0:0:0:0:
256,224,191405,2,0,P|268:184|236:64,1,160,2|2,0:0|0:0,0:0:0:0:
176,4,191855,1,0,0:0:0:0:
241,71,192005,1,0,0:0:0:0:
180,148,192155,6,0,L|84:144,1,80,2|0,0:0|0:0,0:0:0:0:
20,200,192455,1,0,0:0:0:0:
36,296,192605,2,0,P|72:328|200:312,1,160,2|2,0:0|0:0,0:0:0:0:
256,272,193055,1,0,0:0:0:0:
256,272,193205,1,0,0:0:0:0:
288,360,193355,6,0,L|376:348,1,80,2|0,0:0|0:0,0:0:0:0:
464,336,193655,1,0,0:0:0:0:
400,264,193805,2,0,L|412:88,1,160,2|0,0:0|0:0,0:0:0:0:
468,24,194255,1,2,0:0:0:0:
410,104,194405,1,0,0:0:0:0:
340,40,194555,5,2,0:0:0:0:
296,16,194630,1,0,0:0:0:0:
248,20,194705,1,0,0:0:0:0:
216,56,194780,1,0,0:0:0:0:
204,104,194855,1,0,0:0:0:0:
220,148,194930,1,0,0:0:0:0:
260,172,195005,6,0,L|308:168,1,40,2|0,0:0|0:0,0:0:0:0:
340,140,195155,1,0,0:0:0:0:
384,128,195230,1,0,0:0:0:0:
428,148,195305,1,0,0:0:0:0:
456,188,195380,1,0,0:0:0:0:
456,236,195455,6,0,L|452:292,1,40,2|0,0:0|0:0,0:0:0:0:
464,324,195605,1,0,0:0:0:0:
436,360,195680,1,0,0:0:0:0:
388,364,195755,6,0,L|336:356,1,40,2|0,0:0|0:0,0:0:0:0:
320,320,195905,1,0,0:0:0:0:
276,300,195980,1,0,0:0:0:0:
228,312,196055,1,0,0:0:0:0:
200,352,196130,1,0,0:0:0:0:
152,364,196205,6,0,L|104:356,1,40,2|0,0:0|0:0,0:0:0:0:
64,348,196355,1,0,0:0:0:0:
28,316,196430,1,0,0:0:0:0:
28,268,196505,1,0,0:0:0:0:
52,224,196580,1,0,0:0:0:0:
96,204,196655,6,0,L|92:148,1,40,2|0,0:0|0:0,0:0:0:0:
120,124,196805,1,0,0:0:0:0:
88,88,196880,1,0,0:0:0:0:
96,40,196955,5,4,0:0:0:0:
456,192,198755,5,0,0:0:0:0:
456,192,198830,1,0,0:0:0:0:
456,192,198905,1,0,0:0:0:0:
456,192,198980,1,0,0:0:0:0:
456,192,199055,1,0,0:0:0:0:
456,192,199130,1,0,0:0:0:0:
456,192,199205,1,0,0:0:0:0:
456,192,199280,1,0,0:0:0:0:
456,192,199355,5,4,0:0:0:0:
372,256,199505,2,0,L|380:356,1,88.000002685547
472,292,199805,1,0,0:0:0:0:
372,256,199955,2,0,P|312:252|208:324,1,176.000005371094,2|2,0:0|0:0,0:0:0:0:
144,384,200405,1,0,0:0:0:0:
60,316,200555,6,0,L|68:212,1,88.000002685547,2|0,0:0|0:0,0:0:0:0:
28,132,200855,1,0,0:0:0:0:
66,228,201005,2,0,P|128:216|200:120,1,176.000005371094,2|2,0:0|0:0,0:0:0:0:
220,28,201455,1,0,0:0:0:0:
220,28,201605,1,0,0:0:0:0:
292,104,201755,6,0,L|392:100,1,88.000002685547,2|0,0:0|0:0,0:0:0:0:
452,24,202055,1,0,0:0:0:0:
500,120,202205,1,2,0:0:0:0:
424,192,202355,1,0,0:0:0:0:
424,192,202430,1,0,0:0:0:0:
424,192,202505,1,0,0:0:0:0:
472,288,202655,1,2,0:0:0:0:
396,360,202805,1,0,0:0:0:0:
320,284,202955,5,2,0:0:0:0:
320,284,203030,1,0,0:0:0:0:
320,284,203105,1,0,0:0:0:0:
256,368,203255,1,2,0:0:0:0:
256,368,203405,1,0,0:0:0:0:
200,280,203555,1,2,0:0:0:0:
200,280,203705,1,0,0:0:0:0:
128,356,203855,1,0,0:0:0:0:
76,372,203930,1,0,0:0:0:0:
36,336,204005,1,0,0:0:0:0:
52,288,204080,1,0,0:0:0:0:
100,268,204155,6,0,L|92:172,1,88.000002685547,4|0,0:0|0:0,0:0:0:0:
36,92,204455,1,0,0:0:0:0:
92,180,204605,1,0,0:0:0:0:
164,104,204755,2,0,P|212:104|316:28,1,176.000005371094,2|2,0:0|0:0,0:0:0:0:
364,128,205205,1,0,0:0:0:0:
280,192,205355,6,0,L|292:308,1,88.000002685547,2|0,0:0|0:0,0:0:0:0:
340,372,205655,1,0,0:0:0:0:
444,356,205805,2,0,P|464:308|448:184,1,176.000005371094,2|0,0:0|0:0,0:0:0:0:
364,128,206255,2,0,L|372:40,1,88.000002685547,2|0,0:0|0:0,0:0:0:0:
280,192,206555,6,0,L|288:280,1,88.000002685547,2|0,0:0|0:0,0:0:0:0:
256,380,206855,1,0,0:0:0:0:
184,300,207005,2,0,P|132:296|24:368,1,176.000005371094,2|0,0:0|0:0,0:0:0:0:
72,216,207455,2,0,L|64:124,1,88.000002685547,2|0,0:0|0:0,0:0:0:0:
52,24,207755,5,2,0:0:0:0:
64,128,207905,1,0,0:0:0:0:
148,64,208055,1,2,0:0:0:0:
148,64,208205,1,0,0:0:0:0:
164,168,208355,1,0,0:0:0:0:
196,208,208430,1,0,0:0:0:0:
248,220,208505,1,0,0:0:0:0:
300,204,208580,1,0,0:0:0:0:
324,156,208655,2,0,L|316:92,3,44.0000013427735
312,60,208955,5,4,0:0:0:0:
312,60,209105,1,0,0:0:0:0:
412,96,209255,2,0,P|440:56|444:8,1,88.000002685547,2|0,0:0|0:0,0:0:0:0:
504,132,209555,2,0,L|512:240,1,88.000002685547,2|0,0:0|0:0,0:0:0:0:
508,324,209855,1,2,0:0:0:0:
508,324,210005,1,0,0:0:0:0:
424,264,210155,6,0,P|360:260|264:344,1,176.000005371094,2|0,0:0|0:0,0:0:0:0:
180,376,210605,2,0,P|104:376|28:288,1,176.000005371094,2|0,0:0|0:0,0:0:0:0:
136,280,211055,2,0,L|144:172,1,88.000002685547,2|0,0:0|0:0,0:0:0:0:
81,16,211355,6,0,L|88:104,1,88.000002685547,2|0,0:0|0:0,0:0:0:0:
142,192,211655,1,0,0:0:0:0:
212,112,211805,2,0,L|392:104,1,176.000005371094,2|0,0:0|0:0,0:0:0:0:
440,12,212255,1,2,0:0:0:0:
387,104,212405,1,0,0:0:0:0:
464,176,212555,5,0,0:0:0:0:
492,220,212630,1,0,0:0:0:0:
488,272,212705,1,0,0:0:0:0:
464,320,212780,1,0,0:0:0:0:
416,344,212855,2,0,L|336:332,3,44.0000013427735
320,328,213155,1,0,0:0:0:0:
320,328,213305,1,0,0:0:0:0:
256,244,213455,2,0,L|152:252,1,88.000002685547,2|0,0:0|0:0,0:0:0:0:
136,352,213755,6,0,L|68:344,1,44.0000013427735,6|0,0:0|0:0,0:0:0:0:
44,372,213905,1,0,0:0:0:0:
8,332,213980,1,0,0:0:0:0:
24,280,214055,1,0,0:0:0:0:
72,256,214130,1,0,0:0:0:0:
112,220,214205,6,0,L|104:156,1,44.0000013427735,6|0,0:0|0:0,0:0:0:0:
72,136,214355,1,0,0:0:0:0:
44,92,214430,1,0,0:0:0:0:
60,44,214505,1,0,0:0:0:0:
108,20,214580,1,0,0:0:0:0:
156,44,214655,6,0,L|200:40,1,44.0000013427735,6|0,0:0|0:0,0:0:0:0:
244,12,214805,1,0,0:0:0:0:
296,28,214880,1,0,0:0:0:0:
304,80,214955,6,0,L|292:144,1,44.0000013427735,6|0,0:0|0:0,0:0:0:0:
308,176,215105,1,0,0:0:0:0:
280,220,215180,1,0,0:0:0:0:
228,212,215255,1,0,0:0:0:0:
184,240,215330,1,0,0:0:0:0:
172,292,215405,6,0,L|184:348,1,44.0000013427735,6|0,0:0|0:0,0:0:0:0:
208,380,215555,1,0,0:0:0:0:
260,384,215630,1,0,0:0:0:0:
292,340,215705,1,0,0:0:0:0:
344,324,215780,1,0,0:0:0:0:
388,352,215855,6,0,L|444:352,1,44.0000013427735,6|0,0:0|0:0,0:0:0:0:
480,328,216005,1,0,0:0:0:0:
492,276,216080,1,0,0:0:0:0:
468,228,216155,5,4,0:0:0:0:
468,228,216305,1,0,0:0:0:0:
400,132,216455,5,0,0:0:0:0:
400,132,216530,1,0,0:0:0:0:
400,132,216605,1,0,0:0:0:0:
344,324,216755,5,0,0:0:0:0:
344,324,216830,1,0,0:0:0:0:
344,324,216905,1,0,0:0:0:0:
200,208,217055,5,0,0:0:0:0:
200,208,217130,1,0,0:0:0:0:
200,208,217205,1,0,0:0:0:0:
200,208,217280,1,0,0:0:0:0:
200,208,217355,5,4,0:0:0:0:
96,28,218555,6,0,L|88:124,1,80,2|0,0:0|0:0,0:0:0:0:
169,255,218855,2,0,P|168:215|156:176,1,80,2|0,0:0|0:0,0:0:0:0:
72,224,219155,1,2,0:0:0:0:
72,224,219305,1,0,0:0:0:0:
44,316,219455,1,2,0:0:0:0:
44,316,219605,1,0,0:0:0:0:
136,348,219755,6,0,L|240:336,1,80,2|0,0:0|0:0,0:0:0:0:
268,256,220055,2,0,P|308:256|356:288,1,80,2|0,0:0|0:0,0:0:0:0:
408,344,220355,1,2,0:0:0:0:
408,344,220505,1,0,0:0:0:0:
484,284,220655,1,2,0:0:0:0:
368,192,220805,6,0,P|364:144|420:44,1,160,2|0,0:0|0:0,0:0:0:0:
492,108,221255,1,0,0:0:0:0:
492,108,221405,1,0,0:0:0:0:
400,128,221555,2,0,P|352:112|320:60,1,80,2|0,0:0|0:0,0:0:0:0:
264,24,221855,2,0,P|224:28|184:56,1,80,2|0,0:0|0:0,0:0:0:0:
120,116,222155,5,2,0:0:0:0:
32,80,222305,1,0,0:0:0:0:
108,24,222455,1,2,0:0:0:0:
120,116,222605,1,0,0:0:0:0:
52,184,222755,2,0,L|48:272,1,80,2|0,0:0|0:0,0:0:0:0:
60,360,223055,1,2,0:0:0:0:
164,348,223205,6,2,P|188:296|152:168,1,160,2|0,0:0|0:0,0:0:0:0:
120,116,223655,1,0,0:0:0:0:
120,116,223805,1,0,0:0:0:0:
108,24,223955,2,0,L|208:28,1,80,2|0,0:0|0:0,0:0:0:0:
276,68,224255,2,0,P|320:60|364:32,1,80,2|0,0:0|0:0,0:0:0:0:
444,20,224555,6,0,P|480:40|504:80,1,80,2|0,0:0|0:0,0:0:0:0:
399,189,224855,2,0,P|401:149|416:112,1,80,2|0,0:0|0:0,0:0:0:0:
492,172,225155,1,2,0:0:0:0:
464,264,225305,1,2,0:0:0:0:
464,264,225380,1,0,0:0:0:0:
464,264,225455,1,0,0:0:0:0:
368,268,225605,6,0,P|308:260|220:316,1,160,2|0,0:0|0:0,0:0:0:0:
226,309,225980,1,0,0:0:0:0:
226,309,226055,1,2,0:0:0:0:
148,364,226205,1,0,0:0:0:0:
84,292,226355,1,2,0:0:0:0:
148,220,226505,1,0,0:0:0:0:
108,132,226655,1,2,0:0:0:0:
164,52,226805,5,0,0:0:0:0:
164,52,226880,1,0,0:0:0:0:
164,52,226955,2,0,P|116:36|68:44,1,80,2|0,0:0|0:0,0:0:0:0:
224,116,227255,2,0,L|308:108,1,80,2|0,0:0|0:0,0:0:0:0:
372,44,227555,2,0,L|472:52,2,80,2|0|2,0:0|0:0|0:0,0:0:0:0:
304,109,228005,6,0,L|316:276,1,160,4|0,0:0|0:0,0:0:0:0:
360,352,228455,1,2,0:0:0:0:
360,352,228605,1,0,0:0:0:0:
444,308,228755,2,0,P|464:264|472:212,1,80,2|0,0:0|0:0,0:0:0:0:
421,79,229055,2,0,P|408:117|412:156,1,80,2|0,0:0|0:0,0:0:0:0:
368,240,229355,6,0,L|280:252,1,80,2|0,0:0|0:0,0:0:0:0:
212,192,229655,1,2,0:0:0:0:
204,288,229805,1,0,0:0:0:0:
128,228,229955,2,2,P|112:272|104:316,1,80
106,305,230180,1,0,0:0:0:0:
106,305,230255,1,0,0:0:0:0:
24,192,230405,6,2,P|40:120|48:32,1,160,2|0,0:0|0:0,0:0:0:0:
144,52,230855,2,0,L|224:36,1,80,2|0,0:0|0:0,0:0:0:0:
396,72,231155,2,0,L|316:64,1,80,2|0,0:0|0:0,0:0:0:0:
244,128,231455,1,2,0:0:0:0:
244,128,231605,1,0,0:0:0:0:
316,192,231755,6,0,P|308:240|288:276,1,80,2|0,0:0|0:0,0:0:0:0:
399,336,232055,2,0,L|388:256,1,80,2|0,0:0|0:0,0:0:0:0:
294,268,232355,1,2,0:0:0:0:
294,268,232505,1,0,0:0:0:0:
256,356,232655,1,2,0:0:0:0:
216,216,232805,6,2,P|164:208|60:280,1,160,2|0,0:0|0:0,0:0:0:0:
164,292,233255,2,0,L|172:376,1,80,2|0,0:0|0:0,0:0:0:0:
74,258,233555,2,0,P|56:200|60:160,1,80,2|0,0:0|0:0,0:0:0:0:
113,46,233855,2,0,P|131:81|132:120,1,80,2|0,0:0|0:0,0:0:0:0:
36,104,234155,5,2,0:0:0:0:
36,104,234305,1,0,0:0:0:0:
112,45,234455,1,2,0:0:0:0:
112,45,234605,1,0,0:0:0:0:
196,96,234755,1,2,0:0:0:0:
260,24,234905,1,0,0:0:0:0:
336,84,235055,1,2,0:0:0:0:
408,20,235205,6,0,P|444:48|472:168,1,160,2|0,0:0|0:0,0:0:0:0:
476,154,235580,1,0,0:0:0:0:
476,154,235655,1,2,0:0:0:0:
412,228,235805,1,0,0:0:0:0:
344,160,235955,2,0,L|248:168,1,80,2|0,0:0|0:0,0:0:0:0:
196,96,236255,2,0,L|104:88,1,80,2|0,0:0|0:0,0:0:0:0:
117,90,236480,1,2,0:0:0:0:
117,90,236555,5,2,0:0:0:0:
44,152,236705,1,0,0:0:0:0:
92,236,236855,1,2,0:0:0:0:
92,236,237005,1,0,0:0:0:0:
176,188,237155,2,0,L|256:195,1,80,2|0,0:0|0:0,0:0:0:0:
320,268,237455,1,2,0:0:0:0:
456,168,237605,5,4,0:0:0:0:
256,192,237680,12,4,238955,0:0:0:0:
256,192,239030,12,4,240155,0:0:0:0:
256,192,240230,12,0,241205,0:0:0:0:
456,168,241355,5,0,0:0:0:0:
456,168,241430,1,0,0:0:0:0:
456,168,241505,1,0,0:0:0:0:
492,256,241655,1,0,0:0:0:0:
492,256,241805,1,0,0:0:0:0:
432,332,241955,1,0,0:0:0:0:
432,332,242030,1,0,0:0:0:0:
432,332,242105,1,0,0:0:0:0:
340,308,242255,1,0,0:0:0:0:
340,308,242330,1,0,0:0:0:0:
340,308,242405,1,0,0:0:0:0:
256,352,242555,5,0,0:0:0:0:
256,352,242705,1,0,0:0:0:0:
180,292,242855,1,0,0:0:0:0:
180,292,243005,1,0,0:0:0:0:
216,204,243155,1,0,0:0:0:0:
216,204,243230,1,0,0:0:0:0:
216,204,243305,1,0,0:0:0:0:
312,220,243455,1,0,0:0:0:0:
312,220,243530,1,0,0:0:0:0:
312,220,243605,1,0,0:0:0:0:
392,164,243755,5,0,0:0:0:0:
392,164,243905,1,0,0:0:0:0:
376,68,244055,1,0,0:0:0:0:
376,68,244205,1,0,0:0:0:0:
288,108,244355,1,0,0:0:0:0:
288,108,244430,1,0,0:0:0:0:
288,108,244505,1,0,0:0:0:0:
228,32,244655,1,0,0:0:0:0:
228,32,244730,1,0,0:0:0:0:
228,32,244805,1,0,0:0:0:0:
172,108,244955,5,0,0:0:0:0:
172,108,245105,1,0,0:0:0:0:
88,60,245255,1,0,0:0:0:0:
88,60,245405,1,0,0:0:0:0:
40,144,245555,1,0,0:0:0:0:
40,144,245630,1,0,0:0:0:0:
40,144,245705,1,0,0:0:0:0:
96,220,245855,1,0,0:0:0:0:
96,220,245930,1,0,0:0:0:0:
96,220,246005,1,0,0:0:0:0:
32,292,246155,5,0,0:0:0:0:
32,292,246305,1,0,0:0:0:0:
84,372,246455,1,0,0:0:0:0:
84,372,246605,1,0,0:0:0:0:
176,352,246755,1,0,0:0:0:0:
176,352,246830,1,0,0:0:0:0:
176,352,246905,1,0,0:0:0:0:
192,256,247055,1,0,0:0:0:0:
192,256,247130,1,0,0:0:0:0:
192,256,247205,1,0,0:0:0:0:
284,288,247355,5,0,0:0:0:0:
284,288,247505,1,0,0:0:0:0:
356,224,247655,1,0,0:0:0:0:
356,224,247805,1,0,0:0:0:0:
420,296,247955,1,0,0:0:0:0:
420,296,248030,1,0,0:0:0:0:
420,296,248105,1,0,0:0:0:0:
492,232,248255,1,0,0:0:0:0:
492,232,248330,1,0,0:0:0:0:
492,232,248405,1,0,0:0:0:0:
428,160,248555,5,0,0:0:0:0:
428,160,248705,1,0,0:0:0:0:
472,76,248855,1,0,0:0:0:0:
472,76,249005,1,0,0:0:0:0:
384,36,249155,1,0,0:0:0:0:
384,36,249230,1,0,0:0:0:0:
384,36,249305,1,0,0:0:0:0:
340,120,249455,1,0,0:0:0:0:
340,120,249530,1,0,0:0:0:0:
340,120,249605,1,0,0:0:0:0:
264,64,249755,5,0,0:0:0:0:
264,64,249905,1,0,0:0:0:0:
340,120,250055,1,0,0:0:0:0:
340,120,250205,1,0,0:0:0:0:
308,212,250355,1,0,0:0:0:0:
308,212,250430,1,0,0:0:0:0:
308,212,250505,1,0,0:0:0:0:
212,208,250655,1,0,0:0:0:0:
212,208,250730,1,0,0:0:0:0:
212,208,250805,1,0,0:0:0:0:
176,120,250955,6,0,L|76:128,1,80,2|0,3:0|0:0,0:0:0:0:
28,192,251255,1,0,0:0:0:0:
100,256,251405,2,0,P|96:296|108:348,1,80,2|0,3:0|0:0,0:0:0:0:
188,376,251705,1,0,0:0:0:0:
256,308,251855,2,0,L|336:312,1,80,2|0,3:0|0:0,0:0:0:0:
408,376,252155,6,0,L|496:360,1,80,2|0,3:0|0:0,0:0:0:0:
436,280,252455,1,0,0:0:0:0:
436,280,252605,2,0,L|448:176,1,80,2|0,3:0|0:0,0:0:0:0:
368,144,252905,1,0,0:0:0:0:
368,144,253055,2,0,L|358:223,1,80,2|0,3:0|0:0,0:0:0:0:
352,272,253280,1,0,0:0:0:0:
352,272,253355,6,0,P|312:264|272:224,1,80,2|0,3:0|0:0,0:0:0:0:
256,332,253655,1,0,0:0:0:0:
256,332,253805,2,0,L|160:324,1,80,2|0,3:0|0:0,0:0:0:0:
8,372,254105,1,0,0:0:0:0:
8,372,254255,2,0,L|87:365,1,80,2|0,3:0|0:0,0:0:0:0:
176,325,254555,6,0,P|176:280|156:224,1,80,2|0,3:0|0:0,0:0:0:0:
76,272,254855,1,0,0:0:0:0:
24,192,255005,2,0,L|32:96,1,80,2|0,3:0|0:0,0:0:0:0:
92,40,255305,1,0,0:0:0:0:
120,132,255455,2,0,P|164:128|200:104,1,80,2|0,3:0|0:0,0:0:0:0:
216,68,255680,1,0,0:0:0:0:
216,68,255755,6,0,L|312:76,1,80,2|0,3:0|0:0,0:0:0:0:
372,16,256055,1,0,0:0:0:0:
432,92,256205,2,0,P|476:76|500:44,1,80,2|0,3:0|0:0,0:0:0:0:
356,144,256505,1,0,0:0:0:0:
356,144,256655,2,0,L|360:240,1,80,2|0,3:0|0:0,0:0:0:0:
456,349,256955,6,0,P|455:310|444:272,1,80,2|0,3:0|0:0,0:0:0:0:
360,320,257255,1,0,0:0:0:0:
360,320,257405,2,0,L|248:332,1,80,2|0,3:0|0:0,0:0:0:0:
192,364,257705,1,0,0:0:0:0:
192,364,257855,2,0,L|92:352,1,80,2|0,3:0|0:0,0:0:0:0:
16,364,258155,6,0,P|32:304|52:280,1,80,2|0,3:0|0:0,0:0:0:0:
136,264,258455,1,0,0:0:0:0:
136,264,258605,2,0,L|128:172,1,80,2|0,3:0|0:0,0:0:0:0:
60,116,258905,1,0,0:0:0:0:
129,184,259055,2,0,P|168:156|188:120,1,80,2|0,3:0|0:0,0:0:0:0:
180,32,259355,6,0,P|224:40|256:76,1,80
304,140,259655,2,0,P|344:136|392:96,1,80
377,115,259880,1,0,0:0:0:0:
377,115,259955,1,0,0:0:0:0:
440,44,260105,1,0,0:0:0:0:
492,124,260255,1,0,0:0:0:0:
488,172,260330,1,0,0:0:0:0:
484,220,260405,1,0,0:0:0:0:
480,268,260480,1,0,0:0:0:0:
476,316,260555,5,2,0:0:0:0:
384,288,260731,2,0,P|328:288|240:364,1,160,2|2,0:0|0:0,0:0:0:0:
176,284,261260,1,2,0:0:0:0:
84,312,261437,1,2,0:0:0:0:
156,376,261613,2,0,P|172:336|132:228,1,160,2|2,0:0|0:0,0:0:0:0:
16,184,262143,6,0,P|28:132|108:60,1,160,2|2,0:0|0:0,0:0:0:0:
164,136,262672,1,2,0:0:0:0:
172,184,262760,1,0,0:0:0:0:
212,208,262849,1,2,0:0:0:0:
260,204,262937,1,0,0:0:0:0:
292,168,263025,2,0,P|292:120|300:68,1,80,2|0,0:0|0:0,0:0:0:0:
352,12,263378,1,2,0:0:0:0:
452,88,263555,6,0,P|468:128|452:248,1,160,2|2,0:0|0:0,0:0:0:0:
412,328,264084,1,2,0:0:0:0:
412,328,264172,1,0,0:0:0:0:
412,328,264260,2,0,L|320:332,1,80,2|0,0:0|0:0,0:0:0:0:
284,332,264525,1,0,0:0:0:0:
284,332,264613,1,2,0:0:0:0:
204,280,264790,5,2,0:0:0:0:
156,276,264878,1,0,0:0:0:0:
120,304,264966,1,2,0:0:0:0:
108,352,265055,1,0,0:0:0:0:
64,364,265143,1,2,0:0:0:0:
24,340,265231,1,0,0:0:0:0:
12,292,265319,1,0,0:0:0:0:
32,248,265407,1,0,0:0:0:0:
80,232,265496,2,0,P|80:188|72:140,1,80,2|0,0:0|0:0,0:0:0:0:
24,72,265849,2,0,P|68:60|152:112,1,120,2|0,0:0|0:0,0:0:0:0:
168,124,266202,6,0,L|252:116,1,80,2|2,0:0|0:0,0:0:0:0:
304,40,266555,1,0,0:0:0:0:
344,12,266643,1,0,0:0:0:0:
392,16,266731,1,2,0:0:0:0:
428,48,266819,1,0,0:0:0:0:
444,92,266907,2,0,L|500:80,2,40,2|2|2,0:0|0:0|0:0,0:0:0:0:
352,124,267260,5,2,0:0:0:0:
324,164,267349,1,0,0:0:0:0:
332,212,267437,1,2,0:0:0:0:
368,244,267525,1,0,0:0:0:0:
416,240,267613,6,0,L|472:236,1,40,2|0,0:0|0:0,0:0:0:0:
488,264,267790,1,0,0:0:0:0:
504,308,267878,1,0,0:0:0:0:
484,352,267966,2,0,L|432:344,1,40,2|0,0:0|0:0,0:0:0:0:
400,328,268143,1,0,0:0:0:0:
352,328,268231,1,0,0:0:0:0:
316,360,268319,6,0,L|268:356,1,40,2|0,0:0|0:0,0:0:0:0:
240,324,268496,1,0,0:0:0:0:
200,296,268584,1,0,0:0:0:0:
152,308,268672,1,2,0:0:0:0:
120,344,268760,1,2,0:0:0:0:
76,360,268849,2,0,L|32:344,1,40,2|0,0:0|0:0,0:0:0:0:
4,320,269025,5,0,0:0:0:0:
68,248,269202,2,0,L|80:72,1,160,2|2,0:0|0:0,0:0:0:0:
164,132,269731,2,0,P|208:124|248:104,1,80,2|0,0:0|0:0,0:0:0:0:
386,49,270084,2,0,P|347:38|308:40,1,80,2|0,0:0|0:0,0:0:0:0:
336,160,270437,5,2,0:0:0:0:
428,136,270613,2,0,P|456:192|448:304,1,160,2|2,0:0|0:0,0:0:0:0:
396,364,271143,1,2,0:0:0:0:
336,292,271319,1,2,0:0:0:0:
336,292,271407,1,0,0:0:0:0:
336,292,271496,1,0,0:0:0:0:
260,348,271672,1,2,0:0:0:0:
184,292,271849,6,0,L|116:300,1,40,2|0,0:0|0:0,0:0:0:0:
116,336,272025,1,0,0:0:0:0:
72,352,272113,1,2,0:0:0:0:
28,332,272202,1,0,0:0:0:0:
20,284,272290,1,0,0:0:0:0:
60,256,272378,1,2,0:0:0:0:
72,208,272466,1,0,0:0:0:0:
48,164,272555,1,2,0:0:0:0:
24,72,272731,1,2,0:0:0:0:
116,104,272907,5,2,0:0:0:0:
148,68,272996,1,0,0:0:0:0:
196,64,273084,1,2,0:0:0:0:
240,88,273172,1,0,0:0:0:0:
248,136,273260,1,2,0:0:0:0:
248,136,273349,1,2,0:0:0:0:
248,136,273437,2,0,P|296:144|368:88,1,120
356,60,273790,6,0,L|412:72,1,40,2|0,0:0|0:0,0:0:0:0:
432,100,273966,1,2,0:0:0:0:
468,64,274055,1,0,0:0:0:0:
512,84,274143,1,2,0:0:0:0:
508,132,274231,1,0,0:0:0:0:
460,140,274319,1,2,0:0:0:0:
460,140,274407,1,2,0:0:0:0:
460,140,274496,2,0,L|464:236,1,80,0|2,0:0|0:0,0:0:0:0:
448,264,274760,5,0,0:0:0:0:
480,300,274849,1,2,0:0:0:0:
468,348,274937,1,2,0:0:0:0:
424,368,275025,1,2,0:0:0:0:
380,352,275113,1,0,0:0:0:0:
356,312,275202,2,0,L|360:268,1,40
364,224,275378,1,2,0:0:0:0:
300,152,275555,1,2,0:0:0:0:
248,232,275731,5,2,0:0:0:0:
204,216,275819,1,0,0:0:0:0:
164,240,275907,1,2,0:0:0:0:
156,288,275996,1,0,0:0:0:0:
192,320,276084,1,2,0:0:0:0:
108,364,276260,1,0,0:0:0:0:
108,364,276349,1,2,0:0:0:0:
108,364,276437,5,2,0:0:0:0:
64,380,276525,1,2,0:0:0:0:
24,352,276613,1,2,0:0:0:0:
28,304,276702,1,0,0:0:0:0:
68,276,276790,2,0,L|60:208,3,40,2|0|2|0,0:0|0:0|0:0|0:0,0:0:0:0:
24,208,277143,2,0,L|40:136,3,40,2|0|2|0,0:0|0:0|0:0|0:0,0:0:0:0:
72,140,277496,5,2,0:0:0:0:
144,204,277672,1,0,0:0:0:0:
192,204,277760,1,0,0:0:0:0:
232,176,277849,1,0,0:0:0:0:
240,128,277937,1,0,0:0:0:0:
220,84,278025,2,0,L|232:40,1,40
276,28,278202,5,2,0:0:0:0:
324,16,278290,1,0,0:0:0:0:
368,32,278378,1,0,0:0:0:0:
388,76,278466,1,0,0:0:0:0:
376,124,278555,1,0,0:0:0:0:
344,160,278643,1,0,0:0:0:0:
344,208,278731,2,0,L|352:268,1,40
336,292,278907,5,2,0:0:0:0:
320,336,278996,1,0,0:0:0:0:
344,376,279084,1,0,0:0:0:0:
392,384,279172,1,0,0:0:0:0:
432,360,279260,1,0,0:0:0:0:
444,312,279349,1,0,0:0:0:0:
484,284,279437,2,0,L|472:216,1,40
448,204,279613,5,2,0:0:0:0:
480,168,279702,1,0,0:0:0:0:
484,120,279790,1,0,0:0:0:0:
456,80,279878,1,0,0:0:0:0:
416,104,279966,1,0,0:0:0:0:
368,92,280055,1,0,0:0:0:0:
340,52,280143,2,0,L|272:56,1,40
256,36,280319,5,2,0:0:0:0:
208,24,280407,1,0,0:0:0:0:
164,48,280496,1,0,0:0:0:0:
156,96,280584,1,0,0:0:0:0:
176,140,280672,1,2,0:0:0:0:
220,160,280760,1,0,0:0:0:0:
264,144,280849,5,0,0:0:0:0:
300,112,280937,1,0,0:0:0:0:
348,112,281025,1,2,0:0:0:0:
384,144,281113,1,0,0:0:0:0:
396,192,281202,1,0,0:0:0:0:
380,236,281290,1,0,0:0:0:0:
340,264,281378,2,0,L|288:256,3,40,2|0|0|0,0:0|0:0|0:0|0:0,0:0:0:0:
260,284,281731,5,2,0:0:0:0:
232,248,281819,1,0,0:0:0:0:
188,232,281907,1,0,0:0:0:0:
140,248,281996,1,0,0:0:0:0:
116,288,282084,2,0,L|124:332,3,40,2|0|0|0,0:0|0:0|0:0|0:0,0:0:0:0:
132,376,282437,5,2,0:0:0:0:
180,376,282525,1,0,0:0:0:0:
216,344,282613,1,0,0:0:0:0:
208,296,282702,1,0,0:0:0:0:
180,256,282790,2,0,L|184:208,1,40,2|0,0:0|0:0,0:0:0:0:
220,188,282966,2,0,L|212:128,1,40
200,104,283143,5,2,0:0:0:0:
200,104,283231,1,2,0:0:0:0:
200,104,283319,1,0,0:0:0:0:
200,104,283407,1,0,0:0:0:0:
200,104,283496,5,0,0:0:0:0:
248,108,283584,1,2,0:0:0:0:
288,84,283672,1,0,0:0:0:0:
300,36,283760,1,0,0:0:0:0:
344,16,283849,1,2,0:0:0:0:
388,36,283937,1,0,0:0:0:0:
404,80,284025,6,0,L|456:72,1,40,2|0,0:0|0:0,0:0:0:0:
492,88,284202,1,0,0:0:0:0:
500,136,284290,1,0,0:0:0:0:
472,176,284378,2,0,L|480:232,1,40,2|0,0:0|0:0,0:0:0:0:
500,260,284555,6,0,P|496:308|404:364,1,160,2|0,0:0|0:0,0:0:0:0:
356,284,285084,1,2,0:0:0:0:
356,284,285172,1,0,0:0:0:0:
356,284,285260,2,0,P|312:284|216:360,1,160,2|0,0:0|0:0,0:0:0:0:
140,296,285790,1,0,0:0:0:0:
76,364,285966,5,2,0:0:0:0:
36,340,286055,1,0,0:0:0:0:
28,292,286143,1,0,0:0:0:0:
52,252,286231,1,0,0:0:0:0:
68,212,286319,1,0,0:0:0:0:
68,212,286407,1,0,0:0:0:0:
68,212,286496,2,0,L|56:144,1,40,2|0,0:0|0:0,0:0:0:0:
28,136,286672,5,2,0:0:0:0:
40,88,286760,1,0,0:0:0:0:
76,56,286849,1,0,0:0:0:0:
124,64,286937,1,0,0:0:0:0:
156,100,287025,1,0,0:0:0:0:
144,148,287113,1,0,0:0:0:0:
164,192,287202,2,0,L|212:188,1,40,2|0,0:0|0:0,0:0:0:0:
248,172,287378,5,2,0:0:0:0:
276,212,287466,1,0,0:0:0:0:
260,256,287555,1,0,0:0:0:0:
228,292,287643,1,0,0:0:0:0:
244,336,287731,1,0,0:0:0:0:
288,352,287819,1,0,0:0:0:0:
328,328,287907,2,0,L|380:336,1,40,2|0,0:0|0:0,0:0:0:0:
408,352,288084,5,2,0:0:0:0:
456,352,288172,1,0,0:0:0:0:
488,316,288260,1,0,0:0:0:0:
488,268,288349,1,0,0:0:0:0:
456,232,288437,1,0,0:0:0:0:
408,236,288525,1,0,0:0:0:0:
364,216,288613,1,0,0:0:0:0:
360,168,288702,1,0,0:0:0:0:
388,128,288790,6,0,L|400:76,3,40,2|0|2|0,0:0|0:0|0:0|0:0,0:0:0:0:
408,40,289143,2,0,L|336:52,3,40,2|0|2|0,0:0|0:0|0:0|0:0,0:0:0:0:
328,72,289496,2,0,L|288:64,1,40,2|0,0:0|0:0,0:0:0:0:
244,48,289672,2,0,L|252:104,1,40,2|0,0:0|0:0,0:0:0:0:
268,132,289849,1,2,0:0:0:0:
240,168,289937,1,0,0:0:0:0:
252,216,290025,1,2,0:0:0:0:
284,252,290113,1,0,0:0:0:0:
304,296,290202,6,0,L|288:348,1,40,2|0,0:0|0:0,0:0:0:0:
256,364,290378,2,0,L|184:352,1,40,2|0,0:0|0:0,0:0:0:0:
172,336,290555,2,0,L|108:344,1,40,2|0,0:0|0:0,0:0:0:0:
88,360,290731,1,2,0:0:0:0:
88,360,290819,1,0,0:0:0:0:
88,360,290907,2,0,P|56:308|52:204,2,160,2|2|2,0:0|0:0|0:0,0:0:0:0:
132,340,291702,6,0,L|172:336,1,40
216,357,291878,1,0,0:0:0:0:
253,326,291966,2,0,L|293:334,1,40,2|0,0:0|0:0,0:0:0:0:
332,360,292143,1,2,0:0:0:0:
380,352,292231,1,0,0:0:0:0:
404,312,292319,5,2,0:0:0:0:
392,268,292407,1,0,0:0:0:0:
352,240,292496,1,2,0:0:0:0:
336,196,292584,1,0,0:0:0:0:
356,152,292672,1,0,0:0:0:0:
400,140,292760,1,2,0:0:0:0:
436,172,292849,1,0,0:0:0:0:
484,164,292937,1,0,0:0:0:0:
500,120,293025,5,2,0:0:0:0:
500,120,293113,1,0,0:0:0:0:
500,120,293202,1,2,0:0:0:0:
500,120,293290,1,0,0:0:0:0:
500,120,293378,6,0,L|492:64,3,40,2|0|2|0,0:0|0:0|0:0|0:0,0:0:0:0:
392,40,293731,2,0,L|400:-12,3,40,2|0|2|0,0:0|0:0|0:0|0:0,0:0:0:0:
356,152,294084,2,0,L|364:208,3,40,2|0|2|0,0:0|0:0|0:0|0:0,0:0:0:0:
256,52,294437,5,4,0:0:0:0:
204,140,295037,5,4,0:0:0:0:
72,40,295637,5,4,0:0:0:0:
88,360,296237,5,4,0:0:0:0:
480,192,296837,5,4,0:0:0:0:
480,192,298037,5,2,0:0:0:0:
444,160,298112,1,0,0:0:0:0:
396,168,298187,1,2,0:0:0:0:
376,212,298262,1,0,0:0:0:0:
400,252,298337,1,2,0:0:0:0:
440,276,298412,1,0,0:0:0:0:
456,320,298487,1,2,0:0:0:0:
432,360,298562,1,0,0:0:0:0:
384,368,298637,6,0,L|336:356,3,40,2|0|0|0,0:0|0:0|0:0|0:0,0:0:0:0:
300,340,298937,2,0,L|240:352,3,40,2|0|0|0,0:0|0:0|0:0|0:0,0:0:0:0:
216,368,299237,5,2,0:0:0:0:
172,344,299312,1,0,0:0:0:0:
176,296,299387,1,2,0:0:0:0:
220,276,299462,1,0,0:0:0:0:
260,248,299537,1,2,0:0:0:0:
280,204,299612,1,0,0:0:0:0:
280,156,299687,1,2,0:0:0:0:
252,116,299762,1,0,0:0:0:0:
204,104,299837,6,0,L|144:140,3,40,2|0|0|0,0:0|0:0|0:0|0:0,0:0:0:0:
124,144,300137,2,0,L|72:120,3,40,2|0|0|0,0:0|0:0|0:0|0:0,0:0:0:0:
44,108,300437,5,2,0:0:0:0:
52,204,300587,1,0,0:0:0:0:
52,204,300662,1,0,0:0:0:0:
52,204,300737,1,2,0:0:0:0:
16,292,300887,1,2,0:0:0:0:
124,384,301037,5,2,0:0:0:0:
124,384,301112,1,0,0:0:0:0:
124,384,301187,1,2,0:0:0:0:
124,288,301337,1,2,0:0:0:0:
124,288,301412,1,0,0:0:0:0:
124,288,301487,1,2,0:0:0:0:
180,192,301637,5,2,0:0:0:0:
228,180,301712,1,0,0:0:0:0:
276,192,301787,1,0,0:0:0:0:
300,236,301862,1,0,0:0:0:0:
300,284,301937,2,0,L|292:332,3,40,2|0|0|0,0:0|0:0|0:0|0:0,0:0:0:0:
312,368,302237,5,0,0:0:0:0:
360,380,302312,1,0,0:0:0:0:
404,364,302387,1,0,0:0:0:0:
420,320,302462,1,0,0:0:0:0:
400,276,302537,2,2,L|404:244,6,20
408,212,302837,5,2,0:0:0:0:
388,168,302912,1,0,0:0:0:0:
404,124,302987,1,0,0:0:0:0:
452,112,303062,1,0,0:0:0:0:
476,68,303137,1,2,0:0:0:0:
464,20,303212,1,0,0:0:0:0:
420,0,303287,1,0,0:0:0:0:
376,20,303362,1,0,0:0:0:0:
348,60,303437,6,0,L|296:52,1,40,2|0,0:0|0:0,0:0:0:0:
268,32,303587,2,0,L|228:48,1,40,2|0,0:0|0:0,0:0:0:0:
188,64,303737,1,2,0:0:0:0:
256,132,303887,1,0,0:0:0:0:
288,224,304037,5,2,0:0:0:0:
264,264,304112,1,0,0:0:0:0:
216,276,304187,1,0,0:0:0:0:
176,248,304262,1,0,0:0:0:0:
176,200,304337,2,0,L|124:196,1,40,2|0,0:0|0:0,0:0:0:0:
100,164,304487,2,0,L|48:180,1,40,2|0,0:0|0:0,0:0:0:0:
28,208,304637,5,2,0:0:0:0:
84,284,304787,1,2,0:0:0:0:
84,284,304862,1,0,0:0:0:0:
84,284,304937,1,2,0:0:0:0:
24,360,305087,1,0,0:0:0:0:
176,248,305237,6,0,L|180:340,1,80,2|2,0:0|0:0,0:0:0:0:
84,284,305537,1,0,0:0:0:0:
28,208,305687,2,0,P|24:148|92:68,1,160,2|2,0:0|0:0,0:0:0:0:
132,156,306137,1,2,0:0:0:0:
224,128,306287,6,0,L|320:124,1,80,2|0,0:0|0:0,0:0:0:0:
303,124,306512,1,0,0:0:0:0:
303,124,306587,1,0,0:0:0:0:
360,48,306737,1,2,0:0:0:0:
404,28,306812,1,0,0:0:0:0:
452,36,306887,1,0,0:0:0:0:
476,76,306962,1,0,0:0:0:0:
480,124,307037,6,0,L|464:156,14,20,2|0|0|0|0|0|0|0|0|0|0|0|0|0|0,0:0|0:0|0:0|0:0|0:0|0:0|0:0|0:0|0:0|0:0|0:0|0:0|0:0|0:0|0:0,0:0:0:0:
456,188,307637,6,0,L|464:240,1,40,6|0,0:0|0:0,0:0:0:0:
472,276,307787,1,0,0:0:0:0:
424,360,307937,1,2,0:0:0:0:
424,360,308012,1,0,0:0:0:0:
424,360,308087,1,0,0:0:0:0:
356,292,308237,6,0,L|360:260,4,20,2|0|0|0|0,0:0|0:0|0:0|0:0|0:0,0:0:0:0:
296,368,308537,1,2,0:0:0:0:
224,304,308687,1,2,0:0:0:0:
256,192,308837,6,0,L|264:104,1,80,2|2,0:0|0:0,0:0:0:0:
228,24,309137,1,0,0:0:0:0:
263,112,309287,2,0,P|180:112|128:48,1,160,2|2,0:0|0:0,0:0:0:0:
48,144,309737,1,0,0:0:0:0:
48,144,309812,1,0,0:0:0:0:
48,144,309887,1,0,0:0:0:0:
48,144,309962,1,0,0:0:0:0:
48,144,310037,5,2,0:0:0:0:
80,180,310112,1,0,0:0:0:0:
88,228,310187,1,0,0:0:0:0:
52,260,310262,1,0,0:0:0:0:
24,300,310337,1,2,0:0:0:0:
44,344,310412,1,0,0:0:0:0:
88,360,310487,1,0,0:0:0:0:
128,336,310562,1,0,0:0:0:0:
152,296,310637,5,2,0:0:0:0:
200,288,310712,1,0,0:0:0:0:
236,324,310787,1,0,0:0:0:0:
268,360,310862,1,0,0:0:0:0:
312,340,310937,1,2,0:0:0:0:
360,336,311012,1,0,0:0:0:0:
400,360,311087,1,0,0:0:0:0:
444,348,311162,1,0,0:0:0:0:
472,308,311237,6,0,L|468:264,3,40,2|0|0|0,0:0|0:0|0:0|0:0,0:0:0:0:
444,224,311537,5,2,0:0:0:0:
356,188,311687,1,2,0:0:0:0:
356,188,311762,1,0,0:0:0:0:
356,188,311837,2,0,L|368:84,1,80,2|0,0:0|0:0,0:0:0:0:
416,28,312137,1,2,0:0:0:0:
416,28,312212,1,0,0:0:0:0:
416,28,312287,1,2,0:0:0:0:
365,108,312437,5,6,0:0:0:0:
320,128,312512,1,0,0:0:0:0:
272,116,312587,1,0,0:0:0:0:
248,76,312662,1,0,0:0:0:0:
220,36,312737,1,0,0:0:0:0:
172,24,312812,1,0,0:0:0:0:
128,40,312887,1,0,0:0:0:0:
104,84,312962,1,0,0:0:0:0:
128,128,313037,6,0,L|120:176,3,40,2|0|0|0,0:0|0:0|0:0|0:0,0:0:0:0:
80,188,313337,2,0,L|88:232,3,40,2|0|0|0,0:0|0:0|0:0|0:0,0:0:0:0:
76,272,313637,5,2,0:0:0:0:
48,312,313712,1,0,0:0:0:0:
72,356,313787,1,0,0:0:0:0:
120,368,313862,1,0,0:0:0:0:
160,340,313937,1,0,0:0:0:0:
164,292,314012,1,0,0:0:0:0:
200,260,314087,1,0,0:0:0:0:
248,264,314162,1,0,0:0:0:0:
284,296,314237,6,0,L|296:340,3,40,2|0|0|0,0:0|0:0|0:0|0:0,0:0:0:0:
328,368,314537,2,0,L|388:356,3,40,2|0|0|0,0:0|0:0|0:0|0:0,0:0:0:0:
400,328,314837,6,0,L|488:336,1,80,2|2,0:0|0:0,0:0:0:0:
356,252,315137,2,0,P|352:208|368:156,1,80,2|0,0:0|0:0,0:0:0:0:
392,136,315362,1,0,0:0:0:0:
436,156,315437,6,0,L|484:168,2,40,2|0|0,0:0|0:0|0:0,0:0:0:0:
392,136,315662,1,0,0:0:0:0:
368,96,315737,1,2,0:0:0:0:
312,16,315887,1,0,0:0:0:0:
308,172,316037,5,2,0:0:0:0:
268,200,316112,1,0,0:0:0:0:
220,188,316187,1,0,0:0:0:0:
200,144,316262,1,0,0:0:0:0:
228,104,316337,2,0,L|216:52,3,40
224,16,316637,5,2,0:0:0:0:
188,48,316712,1,0,0:0:0:0:
140,36,316787,1,0,0:0:0:0:
96,16,316862,1,0,0:0:0:0:
56,40,316937,1,0,0:0:0:0:
52,88,317012,1,0,0:0:0:0:
92,112,317087,1,0,0:0:0:0:
100,160,317162,1,0,0:0:0:0:
72,200,317237,5,2,0:0:0:0:
20,280,317387,1,2,0:0:0:0:
76,356,317537,2,0,P|124:364|168:348,1,80,2|0,0:0|0:0,0:0:0:0:
200,308,317762,1,0,0:0:0:0:
200,308,317837,2,0,L|280:324,1,80,2|0,0:0|0:0,0:0:0:0:
336,368,318062,1,0,0:0:0:0:
336,368,318137,2,0,L|424:360,1,80,2|0,0:0|0:0,0:0:0:0:
493,210,318437,6,0,P|472:244|472:284,1,80,2|0,0:0|0:0,0:0:0:0:
415,360,318737,1,2,0:0:0:0:
376,272,318887,2,0,L|392:84,2,160,2|2|0,0:0|0:0|0:0,0:0:0:0:
336,368,319637,6,0,L|248:360,1,80,6|0,0:0|0:0,0:0:0:0:
208,356,319862,1,0,0:0:0:0:
208,356,319937,2,2,P|216:308|236:272,1,80
269,145,320237,2,0,P|292:177|304:216,1,80,2|2,0:0|0:0,0:0:0:0:
208,216,320537,1,0,0:0:0:0:
208,216,320687,1,0,0:0:0:0:
144,144,320837,5,2,0:0:0:0:
208,216,320987,1,2,0:0:0:0:
160,300,321137,1,2,0:0:0:0:
64,288,321287,1,2,0:0:0:0:
56,192,321437,2,0,P|52:100|120:40,2,160,2|2|2,0:0|0:0|0:0,0:0:0:0:
88,228,322112,5,0,0:0:0:0:
136,232,322187,1,2,0:0:0:0:
172,200,322262,1,0,0:0:0:0:
168,152,322337,2,0,L|160:96,3,40,2|0|0|0,0:0|0:0|0:0|0:0,0:0:0:0:
160,64,322637,5,2,0:0:0:0:
188,24,322712,1,0,0:0:0:0:
236,20,322787,1,2,0:0:0:0:
272,52,322862,1,0,0:0:0:0:
276,100,322937,2,0,L|264:156,3,40,2|0|0|0,0:0|0:0|0:0|0:0,0:0:0:0:
256,188,323237,5,2,0:0:0:0:
272,232,323312,1,0,0:0:0:0:
252,276,323387,1,2,0:0:0:0:
208,292,323462,1,0,0:0:0:0:
192,336,323537,2,0,L|228:368,3,40,2|0|0|0,0:0|0:0|0:0|0:0,0:0:0:0:
268,368,323837,5,2,0:0:0:0:
308,340,323912,1,0,0:0:0:0:
344,372,323987,1,2,0:0:0:0:
392,364,324062,1,0,0:0:0:0:
424,328,324137,2,0,L|408:276,3,40,2|0|0|0,0:0|0:0|0:0|0:0,0:0:0:0:
380,256,324437,5,2,0:0:0:0:
412,220,324512,1,0,0:0:0:0:
380,184,324587,1,0,0:0:0:0:
408,144,324662,1,0,0:0:0:0:
380,104,324737,6,0,L|316:96,1,40,2|0,0:0|0:0,0:0:0:0:
296,84,324887,2,0,L|236:96,1,40,2|0,0:0|0:0,0:0:0:0:
220,124,325037,2,0,P|180:120|136:76,1,80,2|2,0:0|0:0,0:0:0:0:
128,52,325262,1,0,0:0:0:0:
88,24,325337,1,0,0:0:0:0:
44,40,325412,1,0,0:0:0:0:
24,84,325487,1,2,0:0:0:0:
44,128,325562,1,0,0:0:0:0:
84,152,325637,6,0,L|92:212,1,40,2|0,0:0|0:0,0:0:0:0:
108,236,325787,2,0,L|92:288,1,40,2|0,0:0|0:0,0:0:0:0:
56,304,325937,2,0,L|64:344,1,40,2|0,0:0|0:0,0:0:0:0:
104,372,326087,5,2,0:0:0:0:
152,372,326162,1,0,0:0:0:0:
184,336,326237,1,0,0:0:0:0:
188,288,326312,1,0,0:0:0:0:
228,264,326387,1,0,0:0:0:0:
272,280,326462,1,0,0:0:0:0:
280,328,326537,5,0,0:0:0:0:
280,328,326612,1,0,0:0:0:0:
280,328,326687,1,0,0:0:0:0:
280,328,326762,1,0,0:0:0:0:
280,328,326837,6,2,L|328:352,1,40,6|2,0:0|0:0,0:0:0:0:
356,372,326987,2,0,L|420:360,1,40
444,368,327137,1,0,0:0:0:0:
480,336,327212,1,0,0:0:0:0:
484,288,327287,1,0,0:0:0:0:
456,252,327362,1,0,0:0:0:0:
416,276,327437,5,2,0:0:0:0:
368,272,327512,1,0,0:0:0:0:
340,232,327587,1,0,0:0:0:0:
360,188,327662,1,2,0:0:0:0:
404,168,327737,2,0,L|400:112,3,40
432,92,328037,5,2,0:0:0:0:
408,48,328112,1,0,0:0:0:0:
364,32,328187,1,0,0:0:0:0:
320,52,328262,1,2,0:0:0:0:
308,96,328337,1,0,0:0:0:0:
280,136,328412,1,0,0:0:0:0:
232,140,328487,1,0,0:0:0:0:
196,108,328562,1,0,0:0:0:0:
180,64,328637,6,0,L|192:16,2,40,2|0|0,0:0|0:0|0:0,0:0:0:0:
196,108,328862,1,0,0:0:0:0:
164,144,328937,2,0,P|128:144|72:116,1,80,2|0,0:0|0:0,0:0:0:0:
52,220,329237,5,2,0:0:0:0:
24,260,329312,1,0,0:0:0:0:
32,308,329387,1,0,0:0:0:0:
68,340,329462,1,0,0:0:0:0:
116,336,329537,2,0,L|164:324,3,40,2|0|0|0,0:0|0:0|0:0|0:0,0:0:0:0:
172,280,329837,5,2,0:0:0:0:
216,256,329912,1,0,0:0:0:0:
260,272,329987,1,0,0:0:0:0:
284,312,330062,1,0,0:0:0:0:
280,360,330137,2,0,L|328:368,3,40,2|0|0|0,0:0|0:0|0:0|0:0,0:0:0:0:
368,372,330437,5,2,0:0:0:0:
404,340,330512,1,0,0:0:0:0:
448,360,330587,1,0,0:0:0:0:
488,332,330662,1,0,0:0:0:0:
488,284,330737,1,2,0:0:0:0:
456,248,330812,1,0,0:0:0:0:
408,256,330887,5,0,0:0:0:0:
384,296,330962,1,0,0:0:0:0:
336,300,331037,1,2,0:0:0:0:
304,264,331112,1,0,0:0:0:0:
308,216,331187,1,0,0:0:0:0:
352,192,331262,1,0,0:0:0:0:
396,208,331337,2,0,L|412:156,3,40,2|0|0|0,0:0|0:0|0:0|0:0,0:0:0:0:
424,124,331637,5,2,0:0:0:0:
460,92,331712,1,0,0:0:0:0:
448,44,331787,1,2,0:0:0:0:
404,24,331862,1,0,0:0:0:0:
368,56,331937,2,0,L|312:48,3,40,2|0|0|0,0:0|0:0|0:0|0:0,0:0:0:0:
288,28,332237,5,2,0:0:0:0:
252,60,332312,1,0,0:0:0:0:
268,104,332387,1,2,0:0:0:0:
304,136,332462,1,2,0:0:0:0:
300,184,332537,2,0,L|288:232,3,40
268,268,332837,5,2,0:0:0:0:
300,304,332912,1,0,0:0:0:0:
284,348,332987,1,2,0:0:0:0:
240,364,333062,1,2,0:0:0:0:
196,344,333137,2,0,L|144:352,3,40
116,372,333437,5,2,0:0:0:0:
76,348,333512,1,0,0:0:0:0:
76,300,333587,1,0,0:0:0:0:
116,272,333662,1,0,0:0:0:0:
164,272,333737,6,2,L|156:236,6,20
136,216,334037,6,0,L|144:168,1,40,2|0,0:0|0:0,0:0:0:0:
176,140,334187,2,0,L|164:80,1,40,2|0,0:0|0:0,0:0:0:0:
132,68,334337,1,0,0:0:0:0:
156,24,334412,1,0,0:0:0:0:
204,28,334487,2,0,L|260:36,1,40
284,60,334637,6,0,L|336:52,1,40,2|0,0:0|0:0,0:0:0:0:
364,28,334787,1,0,0:0:0:0:
392,64,334862,1,2,0:0:0:0:
436,48,334937,1,0,0:0:0:0:
480,72,335012,1,2,0:0:0:0:
496,116,335087,1,0,0:0:0:0:
472,160,335162,1,2,0:0:0:0:
424,160,335237,6,0,L|372:152,3,40,0|0|2|0,0:0|0:0|0:0|0:0,0:0:0:0:
344,124,335537,1,2,0:0:0:0:
296,128,335612,1,0,0:0:0:0:
264,164,335687,1,0,0:0:0:0:
272,212,335762,1,0,0:0:0:0:
316,236,335837,1,2,0:0:0:0:
360,220,335912,1,0,0:0:0:0:
408,232,335987,1,0,0:0:0:0:
436,272,336062,1,0,0:0:0:0:
440,320,336137,6,0,L|436:352,6,20
404,376,336437,5,2,0:0:0:0:
332,312,336587,2,0,P|268:312|192:368,1,160,2|2,0:0|0:0,0:0:0:0:
124,300,337037,1,0,0:0:0:0:
124,300,337187,1,0,0:0:0:0:
60,372,337337,2,0,P|36:336|32:288,1,80,2|2,0:0|0:0,0:0:0:0:
124,300,337637,6,0,L|112:168,1,120,2|2,0:0|0:0,0:0:0:0:
108,132,337937,1,2,0:0:0:0:
48,56,338087,2,0,P|104:36|196:100,1,160,2|0,0:0|0:0,0:0:0:0:
216,176,338537,1,2,0:0:0:0:
216,176,338612,1,0,0:0:0:0:
216,176,338687,1,0,0:0:0:0:
292,116,338837,5,2,0:0:0:0:
352,192,338987,2,0,L|344:296,1,80
272,332,339287,2,0,P|312:360|424:320,1,160,2|0,0:0|0:0,0:0:0:0:
476,260,339737,1,2,0:0:0:0:
413,334,339887,1,0,0:0:0:0:
345,271,340037,6,2,L|352:192,1,80
425,39,340337,2,0,P|393:62|372:96,1,80,0|2,0:0|0:0,0:0:0:0:
372,95,340562,1,0,0:0:0:0:
372,95,340637,1,2,0:0:0:0:
444,160,340787,1,2,0:0:0:0:
444,160,340862,1,0,0:0:0:0:
444,160,340937,1,2,0:0:0:0:
345,272,341087,5,0,0:0:0:0:
345,272,341162,1,0,0:0:0:0:
345,272,341237,2,0,L|240:268,1,80,2|0,0:0|0:0,0:0:0:0:
208,348,341537,1,0,0:0:0:0:
132,292,341687,2,0,P|80:296|20:344,1,120,2|2,0:0|0:0,0:0:0:0:
26,334,341987,2,0,L|28:240,1,80,0|2,0:0|0:0,0:0:0:0:
100,192,342287,1,0,0:0:0:0:
56,108,342437,6,0,P|116:100|176:148,1,120,2|2,0:0|0:0,0:0:0:0:
252,244,342887,2,0,P|296:240|372:172,1,120,2|0,0:0|0:0,0:0:0:0:
357,197,343187,2,0,L|352:284,1,80,2|2,0:0|0:0,0:0:0:0:
404,360,343487,1,0,0:0:0:0:
472,280,343637,6,0,L|464:228,3,40
448,196,343937,2,0,L|460:140,3,40
480,116,344237,2,0,L|468:56,3,40
436,44,344537,2,0,L|388:60,3,40
364,92,344837,5,2,0:0:0:0:
288,32,344987,2,0,P|272:76|320:188,1,160,2|0,0:0|0:0,0:0:0:0:
392,228,345437,1,2,0:0:0:0:
428,260,345512,1,0,0:0:0:0:
440,308,345587,1,0,0:0:0:0:
416,348,345662,1,0,0:0:0:0:
372,364,345737,2,0,L|332:352,3,40
312,312,346037,5,6,0:0:0:0:
264,300,346112,1,0,0:0:0:0:
220,320,346187,1,0,0:0:0:0:
200,364,346262,1,0,0:0:0:0:
152,368,346337,1,2,0:0:0:0:
120,336,346412,1,0,0:0:0:0:
132,288,346487,1,0,0:0:0:0:
172,260,346562,1,0,0:0:0:0:
188,216,346637,5,2,0:0:0:0:
200,168,346712,1,0,0:0:0:0:
184,124,346787,1,2,0:0:0:0:
148,92,346862,1,0,0:0:0:0:
100,92,346937,1,2,0:0:0:0:
60,116,347012,1,0,0:0:0:0:
44,160,347087,1,2,0:0:0:0:
52,208,347162,1,0,0:0:0:0:
92,236,347237,5,0,0:0:0:0:
140,232,347312,1,0,0:0:0:0:
188,216,347387,1,0,0:0:0:0:
200,168,347462,1,2,0:0:0:0:
244,148,347537,1,0,0:0:0:0:
292,156,347612,1,0,0:0:0:0:
316,196,347687,1,0,0:0:0:0:
308,244,347762,1,0,0:0:0:0:
268,272,347837,5,2,0:0:0:0:
236,308,347912,1,0,0:0:0:0:
248,356,347987,1,0,0:0:0:0:
288,380,348062,1,0,0:0:0:0:
336,368,348137,6,2,B|380:360|380:360|448:372|448:372|500:352,1,160
504,308,348512,5,0,0:0:0:0:
496,260,348587,1,0,0:0:0:0:
456,232,348662,1,2,0:0:0:0:
412,248,348737,1,0,0:0:0:0:
396,292,348812,1,0,0:0:0:0:
352,308,348887,1,0,0:0:0:0:
308,292,348962,1,0,0:0:0:0:
280,252,349037,5,2,0:0:0:0:
288,204,349112,1,0,0:0:0:0:
328,180,349187,1,0,0:0:0:0:
376,184,349262,1,2,0:0:0:0:
408,220,349337,1,0,0:0:0:0:
456,232,349412,1,0,0:0:0:0:
500,212,349487,1,0,0:0:0:0:
508,164,349562,1,0,0:0:0:0:
476,128,349637,6,0,L|484:76,3,40,2|0|2|0,0:0|0:0|0:0|0:0,0:0:0:0:
472,40,349937,1,2,0:0:0:0:
428,20,350012,1,0,0:0:0:0:
380,32,350087,1,0,0:0:0:0:
364,76,350162,1,0,0:0:0:0:
376,124,350237,1,2,0:0:0:0:
344,160,350312,1,0,0:0:0:0:
296,164,350387,1,0,0:0:0:0:
260,132,350462,1,0,0:0:0:0:
260,84,350537,6,2,B|200:80|200:80|160:88|160:88|100:76,1,160
76,36,350912,5,0,0:0:0:0:
28,40,350987,1,0,0:0:0:0:
12,84,351062,1,0,0:0:0:0:
44,120,351137,2,0,L|52:172,1,40,2|0,0:0|0:0,0:0:0:0:
88,192,351287,2,0,L|80:240,1,40
48,268,351437,5,2,0:0:0:0:
44,316,351512,1,0,0:0:0:0:
76,352,351587,1,2,0:0:0:0:
124,344,351662,1,2,0:0:0:0:
148,304,351737,1,0,0:0:0:0:
196,300,351812,1,0,0:0:0:0:
236,328,351887,1,0,0:0:0:0:
260,368,351962,1,0,0:0:0:0:
308,368,352037,6,0,L|372:356,3,40,0|0|2|0,0:0|0:0|0:0|0:0,0:0:0:0:
392,344,352337,2,0,L|440:352,3,40
476,364,352637,1,2,0:0:0:0:
500,320,352712,1,0,0:0:0:0:
484,276,352787,1,0,0:0:0:0:
440,260,352862,1,0,0:0:0:0:
400,288,352937,6,2,B|408:228|408:228|396:180|396:180|408:116,1,160
420,84,353312,5,0,0:0:0:0:
452,52,353387,1,0,0:0:0:0:
432,8,353462,1,0,0:0:0:0:
384,12,353537,1,2,0:0:0:0:
376,60,353612,1,0,0:0:0:0:
420,84,353687,5,0,0:0:0:0:
440,128,353762,1,0,0:0:0:0:
424,172,353837,1,0,0:0:0:0:
384,196,353912,1,0,0:0:0:0:
336,192,353987,1,2,0:0:0:0:
300,160,354062,1,2,0:0:0:0:
292,112,354137,2,0,L|296:64,3,40
300,24,354437,5,2,0:0:0:0:
300,24,354512,1,0,0:0:0:0:
300,24,354587,1,2,0:0:0:0:
220,76,354737,1,2,0:0:0:0:
220,76,354812,1,0,0:0:0:0:
220,76,354887,1,2,0:0:0:0:
132,40,355037,5,0,0:0:0:0:
88,24,355112,1,2,0:0:0:0:
44,40,355187,1,0,0:0:0:0:
24,84,355262,1,0,0:0:0:0:
40,128,355337,1,2,0:0:0:0:
40,128,355412,1,0,0:0:0:0:
40,128,355487,1,0,0:0:0:0:
40,128,355562,1,0,0:0:0:0:
40,128,355637,2,0,L|48:228,1,80,4|0,0:0|0:0,0:0:0:0:
144,352,355937,6,0,P|204:348|272:256,2,160,2|2|2,0:0|0:0|0:0,0:0:0:0:
84,276,356687,1,0,0:0:0:0:
132,192,356837,2,0,P|164:224|180:276,1,80,2|0,0:0|0:0,0:0:0:0:
252,192,357137,1,0,0:0:0:0:
256,344,357287,6,0,L|432:332,1,160,2|0,0:0|0:0,0:0:0:0:
480,260,357737,2,2,P|492:212|444:112,1,160
448,115,358112,5,0,0:0:0:0:
448,115,358187,1,2,0:0:0:0:
408,200,358337,2,0,L|328:196,1,80
256,132,358637,1,2,0:0:0:0:
200,52,358787,1,2,0:0:0:0:
200,52,358862,1,0,0:0:0:0:
200,52,358937,2,0,P|172:80|160:136,1,80,2|0,0:0|0:0,0:0:0:0:
196,208,359237,5,2,0:0:0:0:
212,252,359312,1,0,0:0:0:0:
188,292,359387,1,2,0:0:0:0:
140,304,359462,1,0,0:0:0:0:
108,268,359537,1,0,0:0:0:0:
60,268,359612,1,0,0:0:0:0:
32,308,359687,1,0,0:0:0:0:
48,352,359762,1,0,0:0:0:0:
92,372,359837,5,2,0:0:0:0:
136,352,359912,1,0,0:0:0:0:
140,304,359987,1,2,0:0:0:0:
108,268,360062,1,0,0:0:0:0:
108,220,360137,1,2,0:0:0:0:
144,192,360212,1,0,0:0:0:0:
196,208,360287,1,0,0:0:0:0:
196,208,360362,1,0,0:0:0:0:
196,208,360437,6,0,L|192:108,1,80,6|2,0:0|0:0,0:0:0:0:
140,48,360737,1,0,0:0:0:0:
192,128,360887,1,2,0:0:0:0:
256,56,361037,1,2,0:0:0:0:
256,56,361187,1,0,0:0:0:0:
312,132,361337,1,2,0:0:0:0:
312,132,361412,1,0,0:0:0:0:
312,132,361487,1,0,0:0:0:0:
388,76,361637,6,0,L|476:72,2,80,2|2|0,0:0|0:0|0:0,0:0:0:0:
312,132,362087,1,2,0:0:0:0:
256,208,362237,2,0,P|256:256|264:308,1,80,2|0,0:0|0:0,0:0:0:0:
324,364,362537,1,2,0:0:0:0:
324,364,362612,1,0,0:0:0:0:
324,364,362687,1,0,0:0:0:0:
432,320,362837,6,0,L|440:256,1,40,2|0,0:0|0:0,0:0:0:0:
460,236,362987,1,0,0:0:0:0:
456,188,363062,1,0,0:0:0:0:
412,168,363137,1,2,0:0:0:0:
368,188,363212,1,0,0:0:0:0:
360,236,363287,6,0,L|312:240,1,40,2|0,0:0|0:0,0:0:0:0:
288,276,363437,1,0,0:0:0:0:
240,276,363512,1,0,0:0:0:0:
204,244,363587,1,2,0:0:0:0:
216,196,363662,1,0,0:0:0:0:
260,180,363737,6,2,L|264:136,1,40,2|0,0:0|0:0,0:0:0:0:
304,112,363887,1,0,0:0:0:0:
304,64,363962,1,0,0:0:0:0:
268,32,364037,1,2,0:0:0:0:
220,40,364112,1,0,0:0:0:0:
192,76,364187,6,0,L|148:68,1,40,2|0,0:0|0:0,0:0:0:0:
116,36,364337,1,0,0:0:0:0:
68,36,364412,1,0,0:0:0:0:
36,72,364487,1,2,0:0:0:0:
52,116,364562,1,0,0:0:0:0:
92,144,364637,6,0,L|84:200,1,40,2|0,0:0|0:0,0:0:0:0:
100,232,364787,1,0,0:0:0:0:
60,260,364862,1,0,0:0:0:0:
40,304,364937,6,0,L|64:360,1,40,2|0,0:0|0:0,0:0:0:0:
100,360,365087,1,0,0:0:0:0:
148,352,365162,1,0,0:0:0:0:
168,308,365237,6,0,L|220:316,3,40,6|0|0|0,0:0|0:0|0:0|0:0,0:0:0:0:
240,348,365537,2,0,L|292:340,3,40,2|0|0|0,0:0|0:0|0:0|0:0,0:0:0:0:
316,312,365837,6,0,L|364:332,1,40,2|0,0:0|0:0,0:0:0:0:
392,360,365987,2,0,L|452:340,1,40,2|0,0:0|0:0,0:0:0:0:
472,324,366137,2,0,L|456:276,1,40,2|0,0:0|0:0,0:0:0:0:
416,260,366287,2,0,L|432:216,1,40,2|0,0:0|0:0,0:0:0:0:
464,188,366437,6,0,L|448:132,3,40,2|0|0|0,0:0|0:0|0:0|0:0,0:0:0:0:
456,100,366737,2,0,L|396:120,3,40,2|0|0|0,0:0|0:0|0:0|0:0,0:0:0:0:
380,144,367037,6,0,L|336:132,1,40,2|0,0:0|0:0,0:0:0:0:
300,108,367187,2,0,L|264:136,1,40,2|0,0:0|0:0,0:0:0:0:
232,164,367337,2,0,L|252:212,1,40,2|0,0:0|0:0,0:0:0:0:
288,224,367487,2,0,L|280:272,1,40,2|0,0:0|0:0,0:0:0:0:
272,312,367637,5,2,0:0:0:0:
272,312,367787,1,2,0:0:0:0:
192,368,367937,2,0,P|136:372|56:304,1,160,2|2,0:0|0:0,0:0:0:0:
44,216,368387,1,0,0:0:0:0:
144,120,368537,6,0,L|152:280,1,160,2|2,0:0|0:0,0:0:0:0:
212,356,368987,1,2,0:0:0:0:
260,352,369062,1,0,0:0:0:0:
272,312,369137,1,2,0:0:0:0:
316,296,369212,1,0,0:0:0:0:
360,320,369287,1,0,0:0:0:0:
384,360,369362,1,0,0:0:0:0:
432,364,369437,5,2,0:0:0:0:
468,332,369512,1,0,0:0:0:0:
468,284,369587,1,0,0:0:0:0:
428,256,369662,1,0,0:0:0:0:
384,276,369737,2,0,L|376:224,3,40,2|0|0|0,0:0|0:0|0:0|0:0,0:0:0:0:
356,192,370037,6,0,L|368:144,3,40,6|0|0|0,0:0|0:0|0:0|0:0,0:0:0:0:
400,116,370337,2,0,L|388:56,3,40,2|0|0|0,0:0|0:0|0:0|0:0,0:0:0:0:
408,32,370637,5,2,0:0:0:0:
372,64,370712,1,0,0:0:0:0:
328,48,370787,1,0,0:0:0:0:
288,20,370862,1,0,0:0:0:0:
244,36,370937,1,2,0:0:0:0:
232,84,371012,1,0,0:0:0:0:
268,116,371087,1,0,0:0:0:0:
280,164,371162,1,0,0:0:0:0:
244,196,371237,6,0,L|156:192,1,80,2|0,0:0|0:0,0:0:0:0:
96,124,371537,1,2,0:0:0:0:
96,124,371612,1,0,0:0:0:0:
96,124,371687,1,0,0:0:0:0:
32,196,371837,1,2,0:0:0:0:
32,196,371987,1,2,0:0:0:0:
96,268,372137,1,2,0:0:0:0:
32,340,372287,1,0,0:0:0:0:
32,340,372362,1,0,0:0:0:0:
32,340,372437,6,0,L|96:352,1,40,6|0,0:0|0:0,0:0:0:0:
116,360,372587,1,0,0:0:0:0:
156,384,372662,1,0,0:0:0:0:
204,376,372737,1,0,0:0:0:0:
236,340,372812,1,0,0:0:0:0:
284,344,372887,6,0,L|340:356,1,40,6|0,0:0|0:0,0:0:0:0:
368,372,373037,1,0,0:0:0:0:
416,364,373112,1,0,0:0:0:0:
452,332,373187,1,0,0:0:0:0:
460,284,373262,1,0,0:0:0:0:
424,256,373337,6,0,L|432:216,1,40,6|0,0:0|0:0,0:0:0:0:
448,172,373487,1,0,0:0:0:0:
420,132,373562,1,0,0:0:0:0:
376,148,373637,6,0,L|328:156,1,40,6|0,0:0|0:0,0:0:0:0:
292,136,373787,1,0,0:0:0:0:
244,124,373862,1,0,0:0:0:0:
204,148,373937,1,2,0:0:0:0:
188,192,374012,1,0,0:0:0:0:
216,232,374087,1,0,0:0:0:0:
224,280,374162,1,0,0:0:0:0:
196,320,374237,6,0,L|128:308,1,40,2|0,0:0|0:0,0:0:0:0:
116,288,374387,2,0,L|68:300,1,40,2|0,0:0|0:0,0:0:0:0:
36,320,374537,2,2,P|64:288|72:168,1,160,2|6,0:0|0:0,0:0:0:0:
180,320,383237,5,0,0:0:0:0:
148,356,383312,1,0,0:0:0:0:
100,360,383387,1,0,0:0:0:0:
56,336,383462,1,0,0:0:0:0:
52,288,383537,2,0,L|68:236,3,40
100,216,383837,2,0,L|88:152,3,40
72,132,384137,5,0,0:0:0:0:
112,160,384212,1,0,0:0:0:0:
160,152,384287,1,0,0:0:0:0:
192,116,384362,1,0,0:0:0:0:
188,68,384437,6,0,P|244:48|336:112,1,160,6|2,0:0|0:0,0:0:0:0:
332,192,384887,2,0,P|392:188|460:112,1,160,2|2,0:0|0:0,0:0:0:0:
458,118,385262,1,0,0:0:0:0:
458,118,385337,2,0,L|480:216,1,80,2|2,0:0|0:0,0:0:0:0:
480,348,385637,6,0,P|432:360|336:292,1,160,2|2,0:0|0:0,0:0:0:0:
256,352,386087,2,0,L|96:360,1,160,2|2,0:0|0:0,0:0:0:0:
96,359,386462,1,0,0:0:0:0:
96,359,386537,2,0,P|76:324|76:272,1,80,2|2,0:0|0:0,0:0:0:0:
252,244,386837,6,0,P|256:184|200:92,1,160,2|2,0:0|0:0,0:0:0:0:
140,32,387287,2,0,P|88:64|60:176,1,160,2|2,0:0|0:0,0:0:0:0:
56,153,387662,1,0,0:0:0:0:
56,153,387737,2,0,P|88:192|96:248,1,80,2|0,0:0|0:0,0:0:0:0:
96,360,388037,6,0,L|256:352,1,160,2|2,0:0|0:0,0:0:0:0:
336,300,388487,2,0,P|396:300|480:364,1,160,2|2,0:0|0:0,0:0:0:0:
475,356,388862,1,0,0:0:0:0:
475,356,388937,2,0,L|480:260,1,80,2|2,0:0|0:0,0:0:0:0:
488,104,389237,6,0,P|444:96|344:160,1,160,6|2,0:0|0:0,0:0:0:0:
300,236,389687,2,0,P|248:236|168:136,1,160,2|2,0:0|0:0,0:0:0:0:
173,165,390062,1,0,0:0:0:0:
173,165,390137,2,0,L|180:72,1,80,2|2,0:0|0:0,0:0:0:0:
56,112,390437,6,0,P|32:144|36:268,1,160,6|2,0:0|0:0,0:0:0:0:
112,312,390887,2,0,P|160:312|256:376,1,160,2|2,0:0|0:0,0:0:0:0:
252,370,391262,1,0,0:0:0:0:
252,370,391337,2,0,L|356:356,1,80,2|0,0:0|0:0,0:0:0:0:
476,284,391637,6,0,P|488:220|452:132,1,160,6|2,0:0|0:0,0:0:0:0:
388,64,392087,1,0,0:0:0:0:
388,64,392162,1,0,0:0:0:0:
388,64,392237,2,0,L|296:72,1,80
176,145,392537,2,0,L|256:152,1,80
392,232,392837,6,0,L|396:288,1,40,4|0,0:0|0:0,0:0:0:0:
424,312,392987,1,0,0:0:0:0:
408,356,393062,1,0,0:0:0:0:
364,376,393137,1,0,0:0:0:0:
320,356,393212,1,0,0:0:0:0:
296,316,393287,6,0,L|236:324,1,40,4|0,0:0|0:0,0:0:0:0:
208,312,393437,1,0,0:0:0:0:
160,304,393512,1,0,0:0:0:0:
124,336,393587,1,0,0:0:0:0:
88,368,393662,1,0,0:0:0:0:
40,356,393737,1,0,0:0:0:0:
20,312,393812,1,0,0:0:0:0:
48,272,393887,1,0,0:0:0:0:
96,264,393962,1,0,0:0:0:0:
128,300,394037,6,0,L|120:208,1,80,4|0,0:0|0:0,0:0:0:0:
68,140,394337,1,2,0:0:0:0:
68,140,394487,1,2,0:0:0:0:
108,52,394637,2,0,P|168:56|236:128,1,160,2|2,0:0|0:0,0:0:0:0:
256,220,395087,1,0,0:0:0:0:
332,160,395237,6,0,L|432:156,1,80,2|0,0:0|0:0,0:0:0:0:
488,216,395537,1,0,0:0:0:0:
476,312,395687,2,0,P|436:344|344:332,1,120,2|0,0:0|0:0,0:0:0:0:
332,316,395987,1,0,0:0:0:0:
256,372,396137,1,2,0:0:0:0:
184,308,396287,5,2,0:0:0:0:
184,308,396362,1,0,0:0:0:0:
184,308,396437,2,0,P|128:304|36:360,1,160,6|2,0:0|0:0,0:0:0:0:
88,220,396887,2,0,L|76:52,1,160,2|2,0:0|0:0,0:0:0:0:
192,136,397337,2,0,P|228:132|288:92,1,80
344,40,397637,5,2,0:0:0:0:
384,16,397712,1,0,0:0:0:0:
432,24,397787,1,0,0:0:0:0:
464,60,397862,1,0,0:0:0:0:
452,108,397937,2,0,L|436:164,3,40,0|0|2|0,0:0|0:0|0:0|0:0,0:0:0:0:
404,176,398237,2,0,L|416:236,3,40
456,240,398537,2,0,L|448:308,3,40,2|0|0|0,0:0|0:0|0:0|0:0,0:0:0:0:
448,328,398837,5,6,0:0:0:0:
448,328,398987,1,0,0:0:0:0:
372,288,399137,2,0,L|284:292,1,80,2|2,0:0|0:0,0:0:0:0:
236,368,399437,2,0,P|208:324|232:224,1,160,2|2,0:0|0:0,0:0:0:0:
320,192,399887,1,0,0:0:0:0:
376,116,400037,2,0,L|368:16,1,80,2|2,0:0|0:0,0:0:0:0:
284,80,400337,1,0,0:0:0:0:
320,192,400487,6,0,P|272:196|172:108,1,160,2|2,0:0|0:0,0:0:0:0:
152,44,400937,1,0,0:0:0:0:
152,44,401087,1,0,0:0:0:0:
68,92,401237,6,0,L|72:260,1,160,4|2,0:0|0:0,0:0:0:0:
28,340,401687,2,0,P|76:348|160:264,1,160,2|2,0:0|0:0,0:0:0:0:
180,188,402137,2,0,L|276:200,1,80
356,328,402437,5,0,0:0:0:0:
380,368,402512,1,0,0:0:0:0:
424,384,402587,1,0,0:0:0:0:
468,360,402662,1,0,0:0:0:0:
484,316,402737,1,0,0:0:0:0:
464,272,402812,1,0,0:0:0:0:
420,248,402887,1,0,0:0:0:0:
408,200,402962,1,0,0:0:0:0:
420,152,403037,6,0,L|428:92,3,40
468,88,403337,2,0,L|460:32,3,40
452,0,403637,5,4,0:0:0:0:
452,0,403787,1,0,0:0:0:0:
376,56,403937,2,0,L|276:60,1,80,2|2,0:0|0:0,0:0:0:0:
244,140,404237,2,0,P|180:124|124:48,1,160,2|2,0:0|0:0,0:0:0:0:
44,100,404687,1,0,0:0:0:0:
84,188,404837,6,0,L|76:292,1,80,2|0,0:0|0:0,0:0:0:0:
108,360,405137,1,2,0:0:0:0:
180,296,405287,2,0,P|232:300|316:360,1,120,2|0,0:0|0:0,0:0:0:0:
324,364,405587,2,0,P|404:360|464:296,1,160,2|0,0:0|0:0,0:0:0:0:
468,260,405962,1,0,0:0:0:0:
468,260,406037,6,0,L|456:144,1,80,2|2,0:0|0:0,0:0:0:0:
376,224,406337,1,0,0:0:0:0:
304,288,406487,2,0,P|288:248|336:136,1,160,2|2,0:0|0:0,0:0:0:0:
421,22,406937,2,0,P|424:62|412:100,1,80,2|0,0:0|0:0,0:0:0:0:
325,143,407237,6,0,L|148:136,1,160,2|0,0:0|0:0,0:0:0:0:
136,44,407687,2,0,P|152:96|88:200,1,160,2|0,0:0|0:0,0:0:0:0:
44,260,408137,2,0,L|56:368,1,80,2|0,0:0|0:0,0:0:0:0:
172,344,408437,5,2,0:0:0:0:
216,368,408512,1,0,0:0:0:0:
264,364,408587,1,0,0:0:0:0:
296,328,408662,1,0,0:0:0:0:
308,280,408737,1,0,0:0:0:0:
292,236,408812,1,0,0:0:0:0:
252,212,408887,6,0,L|204:216,1,40,2|0,0:0|0:0,0:0:0:0:
172,244,409037,1,0,0:0:0:0:
128,256,409112,1,0,0:0:0:0:
84,236,409187,1,0,0:0:0:0:
56,196,409262,1,0,0:0:0:0:
56,148,409337,6,0,L|60:92,1,40,2|0,0:0|0:0,0:0:0:0:
48,60,409487,1,0,0:0:0:0:
76,24,409562,1,0,0:0:0:0:
124,20,409637,6,0,L|176:28,1,40,6|0,0:0|0:0,0:0:0:0:
192,64,409787,1,0,0:0:0:0:
236,84,409862,1,0,0:0:0:0:
284,72,409937,1,0,0:0:0:0:
312,32,410012,1,0,0:0:0:0:
360,20,410087,6,0,L|408:28,1,40,2|0,0:0|0:0,0:0:0:0:
448,36,410237,1,0,0:0:0:0:
484,68,410312,1,0,0:0:0:0:
484,116,410387,1,0,0:0:0:0:
460,160,410462,1,0,0:0:0:0:
416,180,410537,6,0,L|420:236,1,40,2|0,0:0|0:0,0:0:0:0:
392,260,410687,1,0,0:0:0:0:
424,296,410762,1,0,0:0:0:0:
416,344,410837,5,4,0:0:0:0:
328,376,410987,1,0,0:0:0:0:
328,376,411062,1,0,0:0:0:0:
328,376,411137,1,0,0:0:0:0:
256,236,411287,1,0,0:0:0:0:
256,236,411362,1,0,0:0:0:0:
256,236,411437,1,0,0:0:0:0:
228,328,411587,5,0,0:0:0:0:
136,348,411737,1,0,0:0:0:0:
72,276,411887,1,0,0:0:0:0:
148,128,412037,5,0,0:0:0:0:
148,128,412112,1,0,0:0:0:0:
148,128,412187,1,0,0:0:0:0:
148,128,412262,1,0,0:0:0:0:
148,128,412337,5,0,0:0:0:0:
184,156,412412,1,0,0:0:0:0:
232,152,412487,1,0,0:0:0:0:
256,108,412562,1,0,0:0:0:0:
236,64,412637,1,0,0:0:0:0:
252,20,412712,1,0,0:0:0:0:
300,12,412787,1,0,0:0:0:0:
336,44,412862,1,0,0:0:0:0:
340,92,412937,2,0,L|332:156,3,40
328,184,413237,5,4,0:0:0:0:
380,276,413387,2,0,L|468:272,1,88.000002685547
304,352,413687,1,0,0:0:0:0:
256,264,413837,2,0,P|200:264|104:336,1,176.000005371094,2|2,0:0|0:0,0:0:0:0:
20,272,414287,1,0,0:0:0:0:
88,192,414437,6,0,L|80:96,1,88.000002685547,2|2,0:0|0:0,0:0:0:0:
140,16,414737,1,0,0:0:0:0:
204,100,414887,2,0,L|380:92,1,176.000005371094,2|2,0:0|0:0,0:0:0:0:
460,24,415337,2,0,P|480:64|448:176,1,132.00000402832,2|0,0:0|0:0,0:0:0:0:
424,172,415637,6,0,L|432:268,1,88.000002685547,2|0,0:0|0:0,0:0:0:0:
396,360,415937,1,0,0:0:0:0:
304,312,416087,2,0,P|288:256|316:124,1,176.000005371094,2|2,0:0|0:0,0:0:0:0:
360,52,416537,1,0,0:0:0:0:
306,141,416687,1,0,0:0:0:0:
220,80,416837,5,2,0:0:0:0:
132,136,416987,2,0,P|120:92|124:40,1,88.000002685547,0|2,0:0|0:0,0:0:0:0:
121,49,417212,1,0,0:0:0:0:
121,49,417287,1,0,0:0:0:0:
20,128,417437,1,2,0:0:0:0:
68,224,417587,2,0,L|60:324,1,88.000002685547,0|2,0:0|0:0,0:0:0:0:
60,311,417812,1,0,0:0:0:0:
60,311,417887,1,0,0:0:0:0:
188,280,418037,6,0,P|256:280|344:360,1,176.000005371094,4|0,0:0|0:0,0:0:0:0:
404,264,418487,1,0,0:0:0:0:
452,360,418637,2,0,P|492:312|504:260,1,88.000002685547,2|0,0:0|0:0,0:0:0:0:
389,178,418937,2,0,P|389:222|404:264,1,88.000002685547,2|0,0:0|0:0,0:0:0:0:
456,112,419237,6,0,P|400:88|292:168,1,176.000005371094,2|2,0:0|0:0,0:0:0:0:
272,240,419687,2,0,P|216:248|120:172,1,176.000005371094,2|2,0:0|0:0,0:0:0:0:
224,144,420137,2,0,L|216:48,1,88.000002685547,2|0,0:0|0:0,0:0:0:0:
216,56,420362,1,0,0:0:0:0:
216,56,420437,6,0,P|272:52|360:120,1,132.00000402832,6|0,0:0|0:0,0:0:0:0:
368,132,420737,1,2,0:0:0:0:
464,84,420887,2,0,P|420:108|388:232,1,176.000005371094,2|0,0:0|0:0,0:0:0:0:
472,280,421337,2,0,P|472:328|440:376,1,88.000002685547,2|0,0:0|0:0,0:0:0:0:
364,308,421637,5,2,0:0:0:0:
312,300,421712,1,0,0:0:0:0:
264,324,421787,1,0,0:0:0:0:
244,372,421862,1,0,0:0:0:0:
192,364,421937,1,2,0:0:0:0:
172,316,422012,1,0,0:0:0:0:
204,272,422087,6,0,L|200:208,1,44.0000013427735,4|0,0:0|0:0,0:0:0:0:
184,180,422237,1,0,0:0:0:0:
236,196,422312,1,0,0:0:0:0:
280,168,422387,1,0,0:0:0:0:
296,116,422462,1,2,0:0:0:0:
272,68,422537,5,0,0:0:0:0:
272,68,422612,1,0,0:0:0:0:
272,68,422687,2,0,L|212:64,1,44.0000013427735
176,60,422837,5,4,0:0:0:0:
176,60,422987,1,4,0:0:0:0:
88,120,423137,2,0,P|68:80|72:28,1,88.000002685547,2|0,0:0|0:0,0:0:0:0:
0,152,423437,2,0,L|12:264,1,88.000002685547,2|0,0:0|0:0,0:0:0:0:
0,352,423737,1,2,0:0:0:0:
0,352,423887,1,0,0:0:0:0:
84,292,424037,6,0,P|148:288|244:372,1,176.000005371094,2|0,0:0|0:0,0:0:0:0:
336,380,424487,2,0,P|412:380|480:288,1,176.000005371094,2|0,0:0|0:0,0:0:0:0:
376,280,424937,2,0,L|368:172,1,88.000002685547,2|0,0:0|0:0,0:0:0:0:
431,16,425237,6,0,L|424:104,1,88.000002685547,2|0,0:0|0:0,0:0:0:0:
370,192,425537,1,0,0:0:0:0:
300,112,425687,2,0,L|120:104,1,176.000005371094,2|0,0:0|0:0,0:0:0:0:
72,12,426137,1,2,0:0:0:0:
125,104,426287,1,0,0:0:0:0:
48,176,426437,5,2,0:0:0:0:
20,220,426512,1,0,0:0:0:0:
24,272,426587,1,0,0:0:0:0:
48,320,426662,1,0,0:0:0:0:
96,344,426737,2,0,L|176:332,3,44.0000013427735
192,328,427037,1,0,0:0:0:0:
192,328,427187,1,0,0:0:0:0:
256,244,427337,2,0,L|360:252,1,88.000002685547,2|0,0:0|0:0,0:0:0:0:
376,352,427637,6,0,L|444:344,1,44.0000013427735,6|0,0:0|0:0,0:0:0:0:
468,372,427787,1,0,0:0:0:0:
504,332,427862,1,0,0:0:0:0:
488,280,427937,1,0,0:0:0:0:
440,256,428012,1,0,0:0:0:0:
400,220,428087,6,0,L|408:156,1,44.0000013427735,6|0,0:0|0:0,0:0:0:0:
440,136,428237,1,0,0:0:0:0:
468,92,428312,1,0,0:0:0:0:
452,44,428387,1,0,0:0:0:0:
404,20,428462,1,0,0:0:0:0:
356,44,428537,6,0,L|312:40,1,44.0000013427735,6|0,0:0|0:0,0:0:0:0:
268,12,428687,1,0,0:0:0:0:
216,28,428762,1,0,0:0:0:0:
208,80,428837,6,0,L|220:144,1,44.0000013427735,6|0,0:0|0:0,0:0:0:0:
204,176,428987,1,0,0:0:0:0:
232,220,429062,1,0,0:0:0:0:
284,212,429137,1,0,0:0:0:0:
328,240,429212,1,0,0:0:0:0:
340,292,429287,6,0,L|328:348,1,44.0000013427735,6|0,0:0|0:0,0:0:0:0:
304,380,429437,1,0,0:0:0:0:
252,384,429512,1,0,0:0:0:0:
220,340,429587,1,0,0:0:0:0:
168,324,429662,1,2,0:0:0:0:
124,352,429737,6,0,L|68:352,1,44.0000013427735,6|0,0:0|0:0,0:0:0:0:
28,356,429887,1,0,0:0:0:0:
4,308,429962,1,0,0:0:0:0:
32,264,430037,6,0,L|24:212,3,44.0000013427735,2|0|0|0,0:0|0:0|0:0|0:0,0:0:0:0:
4,172,430337,2,0,L|16:120,3,44.0000013427735
16,76,430637,1,2,0:0:0:0:
64,52,430712,1,0,0:0:0:0:
116,68,430787,1,0,0:0:0:0:
132,120,430862,1,0,0:0:0:0:
100,164,430937,2,0,L|112:224,3,44.0000013427735,2|2|0|0,0:0|0:0|0:0|0:0,0:0:0:0:
120,260,431237,5,0,0:0:0:0:
120,260,431312,1,0,0:0:0:0:
120,260,431387,1,0,0:0:0:0:
184,360,431537,1,0,0:0:0:0:
184,360,431612,1,0,0:0:0:0:
184,360,431687,1,0,0:0:0:0:
256,248,431837,1,0,0:0:0:0:
256,248,431912,1,0,0:0:0:0:
256,248,431987,1,0,0:0:0:0:
328,360,432137,5,2,0:0:0:0:
376,376,432212,1,0,0:0:0:0:
428,360,432287,1,0,0:0:0:0:
456,316,432362,1,0,0:0:0:0:
440,264,432437,6,0,L|432:200,1,44.0000013427735,6|0,0:0|0:0,0:0:0:0:
412,172,432587,1,0,0:0:0:0:
464,184,432662,1,0,0:0:0:0:
504,148,432737,1,0,0:0:0:0:
496,96,432812,1,0,0:0:0:0:
456,64,432887,6,0,L|392:76,1,44.0000013427735,6|0,0:0|0:0,0:0:0:0:
368,100,433037,1,0,0:0:0:0:
324,72,433112,1,0,0:0:0:0:
272,84,433187,1,0,0:0:0:0:
252,132,433262,1,0,0:0:0:0:
288,172,433337,6,0,L|292:220,1,44.0000013427735,6|0,0:0|0:0,0:0:0:0:
316,264,433487,1,0,0:0:0:0:
284,304,433562,1,0,0:0:0:0:
232,320,433637,6,0,L|180:296,1,44.0000013427735,6|0,0:0|0:0,0:0:0:0:
152,264,433787,1,0,0:0:0:0:
104,288,433862,1,0,0:0:0:0:
112,340,433937,1,0,0:0:0:0:
64,360,434012,1,0,0:0:0:0:
24,328,434087,6,0,L|20:268,1,44.0000013427735,6|0,0:0|0:0,0:0:0:0:
40,236,434237,1,0,0:0:0:0:
12,192,434312,1,0,0:0:0:0:
24,140,434387,1,0,0:0:0:0:
72,116,434462,1,0,0:0:0:0:
116,144,434537,6,0,L|180:152,1,44.0000013427735,6|6,0:0|0:0,0:0:0:0:
196,188,434687,1,0,0:0:0:0:
248,180,434762,1,0,0:0:0:0:
272,132,434837,6,0,L|264:68,3,44.0000013427735,2|0|0|0,0:0|0:0|0:0|0:0,0:0:0:0:
356,44,435137,2,0,L|360:0,3,44.0000013427735
464,124,435437,2,0,L|496:80,3,44.0000013427735
380,260,435737,2,0,L|392:324,3,44.0000013427735
368,168,436037,5,4,0:0:0:0:
368,168,437237,6,0,P|320:188|216:128,1,160,2|0,0:0|0:0,0:0:0:0:
172,68,437687,2,0,P|104:52|20:112,1,160,2|2,0:0|0:0,0:0:0:0:
112,144,438137,2,0,L|104:232,1,80,2|0,0:0|0:0,0:0:0:0:
56,348,438437,6,0,P|112:360|200:292,1,160,2|0,0:0|0:0,0:0:0:0:
256,380,438887,2,0,L|424:368,1,160,2|0,0:0|0:0,0:0:0:0:
484,300,439337,1,2,0:0:0:0:
416,368,439487,1,0,0:0:0:0:
356,240,439637,6,2,B|352:180|352:180|364:140|364:140|360:68,1,160
272,120,440087,2,0,P|228:124|136:48,1,160,2|0,0:0|0:0,0:0:0:0:
68,120,440537,2,0,L|72:220,1,80,2|0,0:0|0:0,0:0:0:0:
44,336,440837,6,0,P|96:336|184:252,1,160,2|0,0:0|0:0,0:0:0:0:
256,328,441287,1,0,0:0:0:0:
308,248,441437,2,0,P|340:288|344:336,1,80,2|0,0:0|0:0,0:0:0:0:
428,364,441737,2,0,P|428:320|440:264,1,80,2|0,0:0|0:0,0:0:0:0:
500,172,442037,6,0,P|492:92|444:16,1,160,6|0,0:0|0:0,0:0:0:0:
396,104,442487,2,0,B|316:120|316:120|232:84,1,160,2|0,0:0|0:0,0:0:0:0:
164,144,442937,2,0,P|148:92|156:44,1,80,2|0,0:0|0:0,0:0:0:0:
44,136,443237,6,0,P|64:180|68:304,1,160,2|0,0:0|0:0,0:0:0:0:
136,364,443687,1,0,0:0:0:0:
192,284,443837,2,0,P|232:284|284:324,1,80,2|0,0:0|0:0,0:0:0:0:
340,364,444137,2,0,P|380:372|440:348,1,80,2|0,0:0|0:0,0:0:0:0:
468,280,444437,6,0,P|476:212|428:120,1,160,6|0,0:0|0:0,0:0:0:0:
360,188,444887,2,0,P|320:208|208:156,1,160,2|0,0:0|0:0,0:0:0:0:
156,100,445337,2,0,L|160:20,1,80,2|0,0:0|0:0,0:0:0:0:
60,144,445637,6,0,P|36:188|44:308,1,160,2|0,0:0|0:0,0:0:0:0:
100,368,446087,1,2,0:0:0:0:
144,284,446237,2,0,P|192:288|236:312,1,80,2|0,0:0|0:0,0:0:0:0:
366,358,446537,2,0,P|327:369|288:368,1,80,2|0,0:0|0:0,0:0:0:0:
288,368,446762,1,0,0:0:0:0:
288,368,446837,6,0,P|268:292|300:204,1,160,6|0,0:0|0:0,0:0:0:0:
388,212,447287,2,0,P|424:164|420:56,1,160,2|0,0:0|0:0,0:0:0:0:
344,116,447737,2,0,L|236:104,1,80,2|0,0:0|0:0,0:0:0:0:
168,36,448037,6,0,P|112:28|20:96,1,160,2|0,0:0|0:0,0:0:0:0:
116,116,448487,2,0,L|104:280,1,160,2|0,0:0|0:0,0:0:0:0:
68,364,448937,2,0,P|112:368|160:344,1,80,2|0,0:0|0:0,0:0:0:0:
188,224,449237,6,2,P|248:220|336:292,1,160
376,360,449687,2,2,P|448:360|508:292,1,160
416,268,450137,2,0,L|424:180,1,80,2|0,0:0|0:0,0:0:0:0:
480,68,450437,6,0,P|424:52|316:124,1,160,2|0,0:0|0:0,0:0:0:0:
320,188,450887,1,0,0:0:0:0:
244,128,451037,2,0,L|160:124,1,80,2|0,0:0|0:0,0:0:0:0:
24,24,451337,2,0,P|68:36|112:88,1,80,2|0,0:0|0:0,0:0:0:0:
94,57,451562,1,0,0:0:0:0:
94,57,451637,6,0,L|72:228,1,160,6|0,0:0|0:0,0:0:0:0:
16,296,452087,2,0,P|64:316|160:260,1,160,2|0,0:0|0:0,0:0:0:0:
220,340,452537,2,0,L|332:348,1,80,2|0,0:0|0:0,0:0:0:0:
496,192,452837,6,0,P|432:180|348:236,1,160,2|0,0:0|0:0,0:0:0:0:
440,272,453287,1,0,0:0:0:0:
378,350,453437,2,0,L|299:345,1,80,2|0,0:0|0:0,0:0:0:0:
236,272,453737,2,0,P|232:224|252:176,1,80,2|0,0:0|0:0,0:0:0:0:
336,116,454037,5,2,0:0:0:0:
372,148,454112,1,0,0:0:0:0:
420,140,454187,1,2,0:0:0:0:
440,96,454262,1,0,0:0:0:0:
420,52,454337,1,0,0:0:0:0:
372,44,454412,1,0,0:0:0:0:
332,72,454487,1,0,0:0:0:0:
344,120,454562,1,0,0:0:0:0:
364,164,454637,5,2,0:0:0:0:
384,208,454712,1,0,0:0:0:0:
364,252,454787,1,0,0:0:0:0:
324,276,454862,1,0,0:0:0:0:
280,260,454937,1,2,0:0:0:0:
244,228,455012,1,0,0:0:0:0:
196,224,455087,1,0,0:0:0:0:
156,252,455162,1,0,0:0:0:0:
160,300,455237,6,0,L|168:328,10,20,2|0|0|0|0|0|0|0|0|0|0,0:0|0:0|0:0|0:0|0:0|0:0|0:0|0:0|0:0|0:0|0:0,0:0:0:0:
156,252,455687,6,0,L|56:248,1,80,2|0,0:0|0:0,0:0:0:0:
8,316,455987,1,0,0:0:0:0:
84,372,456137,2,0,P|136:360|176:328,1,80,2|0,0:0|0:0,0:0:0:0:
256,280,456437,6,0,L|304:288,1,40,6|0,0:0|0:0,0:0:0:0:
340,272,456587,1,0,0:0:0:0:
324,316,456662,1,0,0:0:0:0:
352,356,456737,1,0,0:0:0:0:
400,356,456812,1,0,0:0:0:0:
432,320,456887,1,0,0:0:0:0:
480,312,456962,1,0,0:0:0:0:
496,268,457037,6,0,L|488:212,1,40,6|0,0:0|0:0,0:0:0:0:
496,180,457187,1,0,0:0:0:0:
456,156,457262,1,0,0:0:0:0:
408,168,457337,1,0,0:0:0:0:
396,216,457412,1,0,0:0:0:0:
348,220,457487,1,0,0:0:0:0:
312,188,457562,1,0,0:0:0:0:
320,140,457637,6,0,L|324:88,1,40,6|0,0:0|0:0,0:0:0:0:
328,52,457787,1,0,0:0:0:0:
292,20,457862,1,0,0:0:0:0:
244,28,457937,1,0,0:0:0:0:
220,68,458012,1,0,0:0:0:0:
236,112,458087,1,0,0:0:0:0:
216,156,458162,1,0,0:0:0:0:
168,152,458237,6,0,L|116:144,1,40,6|0,0:0|0:0,0:0:0:0:
88,120,458387,1,0,0:0:0:0:
100,168,458462,1,0,0:0:0:0:
76,208,458537,1,0,0:0:0:0:
32,232,458612,1,0,0:0:0:0:
24,280,458687,1,0,0:0:0:0:
48,324,458762,1,0,0:0:0:0:
96,332,458837,6,0,L|152:328,1,40,4|0,0:0|0:0,0:0:0:0:
180,312,458987,2,0,L|236:328,1,40,4|0,0:0|0:0,0:0:0:0:
264,344,459137,1,4,0:0:0:0:
492,192,459437,6,0,L|436:196,1,40,4|0,0:0|0:0,0:0:0:0:
408,212,459587,2,0,L|352:196,1,40,4|0,0:0|0:0,0:0:0:0:
324,180,459737,1,4,0:0:0:0:
176,56,460037,6,0,L|120:64,1,40
88,72,460187,2,0,L|32:80,1,40
56,145,460337,6,0,L|96:140,1,40
144,129,460487,2,0,L|184:124,1,40
196,196,460637,6,0,L|140:204,1,40
108,212,460787,2,0,L|52:220,1,40
76,285,460937,6,0,L|115:279,1,40
164,269,461087,2,0,L|203:263,1,40
268,332,461237,6,0,L|307:337,1,40
356,348,461387,2,0,L|395:353,1,40
407,281,461537,6,0,L|351:273,1,40
319,265,461687,2,0,L|263:257,1,40
287,192,461837,6,0,L|326:197,1,40
375,208,461987,2,0,L|414:213,1,40
424,144,462137,6,0,L|368:136,1,40
336,128,462287,2,0,L|280:120,1,40
304,55,462437,5,4,0:0:0:0:
256,192,462522,12,6,469239,0:0:0:0:
256,192,469461,5,6,0:0:0:0:
